osu file format v5

[General]
AudioFilename: 12 You're the Inspiration.ogg
AudioLeadIn: 3000
PreviewTime: 52652
Countdown: 0
SampleSet: Normal
StackLeniency: 0.7
Mode: 0
LetterboxInBreaks: 1
EditorBookmarks: 16977,133733

[Metadata]
Title:You're The Inspiration
Artist:Julian Miranda
Creator:m980
Version:Cruisin'
Source:
Tags:

[Difficulty]
HPDrainRate:3
CircleSize:3
OverallDifficulty:0
SliderMultiplier:1.65
SliderTickRate:1

[Events]
//Background and Video events
0,0,"bg.png"
//Break Periods
2,39069,51332
2,78795,94062
2,78798,93495
2,159876,171900
//Storyboard Layer 0 (Background)
//Storyboard Layer 1 (Failing)
//Storyboard Layer 2 (Passing)
//Storyboard Layer 3 (Foreground)
//Storyboard Sound Samples
5,55085,2,"sfx_eba\yeah.wav"
5,64815,2,"sfx_eba\yeah.wav"
5,78598,2,"sfx_eba\yeah.wav"
5,136166,2,"sfx_eba\yeah.wav"
5,145896,2,"sfx_eba\yeah.wav"
5,159679,2,"sfx_eba\yeah.wav"
5,178328,2,"sfx_eba\yeah.wav"
5,185625,2,"sfx_eba\yeah.wav"
//Background Colour Transformations
3,100,255,255,255

[TimingPoints]
13734,405.405405405405,4,2,1,100,1
14043,405.405405405405,4,1,1,100,0
16881,405.405405405405,4,2,1,100,0
17286,405.405405405405,4,1,1,100,0
20124,405.405405405405,4,2,1,100,0
20529,405.405405405405,4,1,1,100,0
23367,405.405405405405,4,2,1,100,0
23773,405.405405405405,4,1,1,100,0
26610,405.405405405405,4,2,1,100,0
27016,405.405405405405,4,1,1,100,0
29854,405.405405405405,4,2,1,100,0
30259,405.405405405405,4,1,1,100,0
33097,405.405405405405,4,2,1,100,0
33907,405.405405405405,4,1,1,100,0
36340,405.405405405405,4,2,1,100,0
36745,405.405405405405,4,1,1,100,0
37455,405.405405405405,4,2,1,100,0
38265,405.405405405405,4,1,1,100,0
52252,405.405405405405,4,2,1,100,0
95124,405.405405405405,4,1,1,100,0
97962,405.405405405405,4,2,1,100,0
98367,405.405405405405,4,1,1,100,0
101205,405.405405405405,4,2,1,100,0
101813,405.405405405405,4,1,1,100,0
104448,405.405405405405,4,2,1,100,0
104853,405.405405405405,4,1,1,100,0
107692,405.405405405405,4,2,1,100,0
108097,405.405405405405,4,1,1,100,0
110934,405.405405405405,4,2,1,100,0
111339,405.405405405405,4,1,1,100,0
114178,405.405405405405,4,2,1,100,0
114988,405.405405405405,4,1,1,100,0
117421,405.405405405405,4,2,1,100,0
117826,405.405405405405,4,1,1,100,0
119245,405.405405405405,4,2,1,100,0
120008,405.405405405405,4,1,1,100,0
121275,405.405405405405,4,2,1,100,0

[HitObjects]
256,8,13734,2,0,B|496:16|520:176|448:328|384:360,1,495,2|4
256,328,15355,1,8
152,216,15761,1,8
256,104,16166,1,6
360,216,16571,1,8
256,8,16977,6,0,B|16:16|-8:176|64:328|128:360,1,495,2|4
256,328,18598,1,8
360,216,19004,1,8
256,104,19409,1,6
152,216,19815,1,8
256,216,20220,5,2
336,24,21031,1,0
184,24,21436,1,0
56,24,21842,2,0,B|-112:152|0:384|208:360,1,495,4|2
324,361,23463,6,0,B|512:384|624:152|456:24,1,495,2|4
336,24,25085,1,2
336,280,25896,1,0
176,280,26301,1,0
256,376,26706,6,0,B|16:368|-8:208|64:56|128:24,1,495,2|4
256,56,28327,1,8
360,168,28733,1,8
256,280,29138,1,6
152,168,29543,1,8
256,376,29949,6,0,B|496:368|520:208|448:56|384:24,1,495,2|4
256,56,31570,1,8
152,168,31976,1,8
256,280,32381,1,6
360,168,32787,1,8
256,168,33192,5,2
176,360,34003,1,0
328,360,34408,1,0
456,360,34814,2,0,B|624:232|512:0|304:24,1,495,4|2
188,23,36435,6,0,B|0:0|-112:232|56:360,1,495,2|0
176,360,38058,1,8
176,200,38463,1,2
336,200,38869,1,0
216,208,52652,5,12
80,312,53058,1,4
0,344,53261,2,12,B|-48:112|56:-32|264:-8|424:0|488:64,1,742.5
504,168,55896,5,4
384,88,56301,1,4
256,168,56706,1,12
136,88,57112,1,4
8,168,57517,2,4,B|0:376|240:352,2,330,4|12|4
144,168,59342,5,4
144,168,59544,1,4
256,88,59950,1,12
360,168,60355,1,4
504,168,60761,2,4,B|512:376|272:352,1,330,4|12
256,240,62382,5,4
256,120,62788,1,4
120,80,63193,2,4,B|256:-72|408:88,2,330,12|4|12
408,248,66436,5,12
408,248,66639,1,4
408,248,66842,1,4
256,304,67247,1,12
104,248,67652,1,4
112,64,68869,1,12
112,64,69071,1,4
112,64,69274,1,4
256,0,69679,1,12
400,64,70085,1,4
440,224,70490,2,12,B|96:224,2,330
136,56,72923,5,8
256,56,73328,1,0
376,56,73734,1,8
376,168,74139,1,0
256,168,74544,1,8
136,168,74950,1,0
16,176,75355,2,12,B|48:408|456:424|504:168,2,660
256,8,94815,6,0,B|496:16|520:176|448:328|384:360,1,495,2|4
256,328,96436,1,8
152,216,96842,1,8
256,104,97247,1,6
360,216,97652,1,8
256,8,98058,6,0,B|16:16|-8:176|64:328|128:360,1,495,2|4
256,328,99679,1,8
360,216,100085,1,8
256,104,100490,1,6
152,216,100896,1,8
256,216,101301,5,2
336,24,102112,1,0
184,24,102517,1,0
56,24,102923,2,0,B|-112:152|0:384|208:360,1,495,4|2
324,361,104544,6,0,B|512:384|624:152|456:24,1,495,2|4
336,24,106166,5,0
256,144,106571,1,0
176,24,106977,1,2
96,144,107382,1,0
152,272,107788,6,0,B|64:280|-8:216,2,165,2|4|4
256,272,109004,1,8
360,160,109409,1,8
256,48,109815,1,8
152,160,110220,1,6
256,160,110625,1,8
360,272,111031,6,0,B|448:280|520:216,2,165,2|4|4
256,272,112247,1,8
152,160,112652,1,8
256,48,113058,1,8
360,160,113463,1,6
256,160,113869,1,8
256,272,114274,5,2
176,24,115085,1,0
328,24,115490,1,0
456,24,115896,2,0,B|624:152|512:384|304:360,1,495,4|2
188,361,117517,6,0,B|0:384|-112:152|56:24,1,495,2|4
176,120,119139,1,2
176,264,119544,1,0
336,264,119950,1,0
416,88,120761,6,0,B|256:8|96:88,1,330,4|8
256,192,121977,1,0
256,192,122179,1,8
200,312,122788,5,8
120,192,123193,1,8
32,72,123598,1,0
32,72,123801,1,8
312,312,124409,5,8
392,192,124815,1,8
480,72,125220,1,0
480,72,125423,1,8
24,32,127247,5,8
120,112,127652,1,0
120,112,127855,1,8
216,192,128463,1,0
216,192,128666,1,8
488,32,129679,5,8
392,112,130085,1,0
392,112,130288,1,8
208,232,131301,5,4
104,144,131706,1,4
29,183,131909,2,12,B|21:351|197:399|328:384|413:311,1,495
296,208,133733,5,12
432,312,134139,1,4
512,344,134342,2,12,B|560:112|456:-32|248:-8|88:0|24:64,1,742.5
8,168,136977,5,4
128,88,137382,1,4
256,168,137787,1,12
376,88,138193,1,4
504,168,138598,2,4,B|512:376|272:352,2,330,4|12|4
368,168,140423,5,4
368,168,140625,1,4
256,88,141031,1,12
152,168,141436,1,4
8,168,141842,2,4,B|0:376|240:352,1,330,4|12
256,240,143463,5,4
256,120,143869,1,4
392,80,144274,2,4,B|256:-72|104:88,2,330,12|4|12
104,248,147517,5,12
104,248,147720,1,4
104,248,147923,1,4
256,304,148328,1,12
408,248,148733,1,4
400,64,149950,1,12
400,64,150152,1,4
400,64,150355,1,4
256,0,150760,1,12
112,64,151166,1,4
72,224,151571,2,12,B|416:224,2,330
376,56,154004,5,8
256,56,154409,1,0
136,56,154815,1,8
136,168,155220,1,0
256,168,155625,1,8
376,168,156031,1,0
496,176,156436,2,12,B|464:408|56:424|8:168,2,660
256,304,173463,5,12
256,304,173666,1,4
256,304,173869,1,4
344,168,174274,1,12
168,168,174679,1,4
256,0,175896,5,12
256,0,176098,1,4
256,0,176301,1,4
176,128,176706,1,12
328,128,177112,1,4
256,264,177517,1,12
256,264,178328,1,12
472,128,179139,6,12,C|426:103|338:95|282:-1|234:-1|178:79|146:95|74:103|48:144|106:207|122:247|82:335|138:351|234:303|274:303|362:351|418:335|386:231|418:175,2,1320
