osu file format v9

[General]
AudioFilename: Julia Kovalchuk - Tolkni Menya.mp3
AudioLeadIn: 0
PreviewTime: 41584
Countdown: 2
SampleSet: Soft
StackLeniency: 0.7
Mode: 0
LetterboxInBreaks: 0
EpilepsyWarning: 1

[Editor]
DistanceSpacing: 1
BeatDivisor: 4
GridSize: 8

[Metadata]
Title:Tolkni Menya (Push me)
Artist:Julia Kovalchuk
Creator:ZLOdeuka
Version:Insane
Source:
Tags:russian icebeam zorlok_

[Difficulty]
HPDrainRate:7
CircleSize:4
OverallDifficulty:7
ApproachRate:8
SliderMultiplier:1.8
SliderTickRate:2

[Events]
//Background and Video events
0,0,"HDpics.ru_eb678b45_2564.jpg"
//Break Periods
2,187494,203973
//Storyboard Layer 0 (Background)
//Storyboard Layer 1 (Fail)
//Storyboard Layer 2 (Pass)
//Storyboard Layer 3 (Foreground)
//Storyboard Sound Samples
//Background Colour Transformations
3,100,163,162,255

[TimingPoints]
1295,571.428571428571,4,2,2,30,1,0
24157,-100,4,2,2,40,0,0
28443,-100,4,2,0,50,0,0
28728,-100,4,2,2,40,0,0
33014,-100,4,2,0,50,0,0
33299,-100,4,2,2,40,0,0
37585,-100,4,2,0,50,0,0
37870,-100,4,2,2,40,0,0
42156,-100,4,2,0,50,0,0
42437,-100,4,2,2,70,0,1
60723,-100,4,2,2,70,0,0
61011,-100,4,2,0,50,0,0
79009,-100,4,2,2,50,0,0
83295,-100,4,2,0,70,0,0
83580,-100,4,2,2,50,0,0
87866,-100,4,2,0,70,0,0
88151,-100,4,2,2,50,0,0
92437,-100,4,2,0,70,0,0
92722,-100,4,2,2,50,0,0
97008,-100,4,2,0,70,0,0
97294,-100,4,2,2,70,0,1
115580,-100,4,2,2,70,0,0
123291,-125,4,2,2,70,0,0
125005,-100,4,2,2,70,0,0
132433,-142.857142857143,4,2,2,70,0,0
133290,-100,4,2,2,70,0,0
152431,-100,4,1,0,39,0,0
168715,-100,4,2,2,39,0,0
170715,-100,4,1,0,39,0,0
187285,-100,4,2,2,50,0,0
204712,-100,4,2,2,30,0,0
207009,-100,4,2,2,70,0,1
223853,-142.857142857143,4,2,2,70,0,1
225281,-100,4,2,2,80,0,1
232152,-100,4,2,2,80,0,0
234437,-100,4,2,2,80,0,1
243580,-100,4,2,2,80,0,0

[Colours]
Combo1 : 174,255,174
Combo2 : 145,145,255
Combo3 : 255,168,255

[HitObjects]
176,232,5866,2,0,B|154:188|176:144,1,90
256,104,6437,1,8
336,152,6723,2,0,B|358:196|336:240,1,90,0|2
256,280,7295,1,0
213,359,7580,2,0,B|255:380|299:358,1,90,8|0
333,274,8152,2,0,B|317:241|255:227|255:227|203:237|184:273,1,180,2|8
257,326,9009,1,0
334,274,9295,2,0,B|318:306|256:320|256:320|204:310|185:274,2,180,2|8|2
256,224,10723,5,0
333,177,11009,2,0,B|317:144|255:130|255:130|203:140|184:176,1,180,8|2
256,224,11866,1,0
336,176,12152,1,8
184,176,12437,1,0
184,264,12723,2,0,B|202:299|254:309|254:309|316:295|332:263,1,180,2|8
259,211,13580,2,0,B|243:178|181:164|181:164|129:174|110:210,1,180
184,264,14437,1,8
112,208,14723,1,0
40,264,15009,1,2
256,192,15295,5,0
336,232,15580,2,0,B|358:188|336:144,1,90,8|0
256,96,16152,1,2
175,145,16437,2,0,B|154:188|176:232,1,90,0|8
256,280,17009,1,0
332,231,17295,2,0,B|316:198|254:184|254:184|202:194|183:230,1,180,2|8
256,280,18152,1,0
200,344,18437,2,0,B|184:377|122:391|122:391|70:381|51:345,1,180,2|8
125,294,19294,5,0
54,248,19580,2,0,B|73:213|125:203|125:203|187:217|203:250,1,180,2|8
256,320,20437,1,0
185,264,20723,2,0,B|203:228|255:218|255:218|317:232|333:265,1,180,2|8
392,336,21580,1,0
320,288,21866,2,0,B|339:253|391:243|391:243|453:257|469:290,2,180,2|8|2
392,336,23294,1,0
320,288,23580,1,8
248,336,23866,1,0
200,192,24152,6,0,B|244:170|288:192,1,90,12|0
336,272,24723,1,2
248,296,25009,1,0
160,272,25294,1,0
112,344,25580,2,8,B|68:366|24:344,1,90
72,272,26152,1,0
88,184,26437,2,0,B|107:149|159:139|159:139|221:153|237:186,1,180,8|2
288,256,27294,1,0
336,328,27580,2,0,B|355:363|407:373|407:373|469:359|485:326,1,180,0|2
408,288,28437,5,4
456,208,28723,2,8,B|412:186|368:208,1,90,8|0
288,256,29294,1,2
208,208,29580,1,0
128,256,29866,1,0
48,208,30152,1,8
8,128,30437,2,8,B|50:106|94:128,1,90,8|0
136,208,31009,2,0,B|155:243|207:253|207:253|269:239|285:206,1,180,8|2
213,150,31866,2,0,B|232:115|284:105|284:105|346:119|362:152,1,180,0|2
285,199,32723,1,8
256,288,33009,1,4
344,264,33294,5,8
400,200,33580,1,0
344,128,33866,1,2
288,200,34152,2,8,B|244:221|201:200,1,90,8|8
248,120,34723,1,0
168,80,35009,1,2
88,120,35294,1,0
16,176,35580,2,0,B|35:211|87:221|87:221|149:207|165:174,1,180,8|2
88,120,36437,1,0
168,80,36723,2,0,B|187:45|239:35|239:35|301:49|317:82,1,180,0|2
240,128,37580,5,4
168,184,37866,2,0,B|187:219|239:229|239:229|301:215|317:182,1,180,8|2
240,128,38723,1,8
168,184,39009,1,8
168,272,39294,1,0
232,336,39580,1,2
312,280,39866,1,0
312,280,40152,2,0,B|331:315|383:325|383:325|445:311|461:278,2,180,8|8|0
312,280,41580,1,0
344,200,41866,1,8
272,152,42152,1,4
232,232,42437,5,8
272,152,42723,1,0
232,72,43009,1,2
184,144,43294,1,0
272,152,43580,1,8
320,80,43866,1,0
320,80,44009,1,0
232,72,44295,1,0
192,56,44437,1,0
144,56,44580,1,0
104,72,44723,5,8
168,136,45009,1,0
96,192,45295,1,2
168,248,45580,1,0
240,192,45866,1,8
168,136,46152,1,0
168,136,46295,1,0
168,224,46580,1,0
200,256,46723,1,0
248,256,46866,1,0
280,224,47009,5,8
224,152,47295,1,0
280,224,47580,1,2
320,144,47866,1,0
344,56,48152,1,10
256,32,48437,1,0
256,32,48580,1,0
192,120,48866,1,0
232,104,49009,1,0
272,104,49152,1,0
312,120,49295,1,12
256,192,49580,5,0
296,208,49723,1,0
336,224,49866,1,8
256,280,50152,1,0
216,296,50295,1,0
176,312,50437,1,8
256,352,50723,1,8
336,304,51009,1,8
376,320,51152,1,8
416,336,51295,1,8
456,320,51437,1,8
496,304,51580,1,12
416,256,51866,5,0
352,192,52152,1,2
264,192,52437,1,0
200,256,52723,1,8
136,192,53009,1,0
136,192,53152,2,8,B|92:213|49:192,1,90,8|8
48,144,53580,6,0,B|8:112,2,45,0|0|8
128,112,54152,1,0
208,64,54437,1,2
296,64,54723,1,0
376,112,55009,1,8
328,192,55295,1,0
328,192,55437,2,8,B|284:171|241:192,1,90,8|8
240,240,55866,6,0,B|200:264,2,45,0|0|8
320,280,56437,1,0
256,344,56723,1,2
192,280,57009,1,0
256,216,57295,1,8
312,144,57580,2,0,B|360:144,1,45,8|0
400,64,58009,2,0,B|352:64,3,45,0|8|0|12
256,192,60723,5,12
300,113,61009,2,8,B|256:92|213:113,1,90,0|8
168,192,61580,1,2
256,224,61866,1,0
336,192,62152,2,8,B|378:171|422:192,1,90,0|8
424,280,62723,1,2
336,304,63009,2,0,B|320:336|258:350|258:350|206:340|187:305,1,180,0|8
256,248,63866,1,2
168,232,64152,2,0,B|152:199|90:185|90:185|38:195|19:230,1,180,0|8
88,288,65009,5,6
160,344,65295,2,8,B|202:364|246:343,1,90,0|0
200,264,65866,1,8
280,232,66152,1,2
256,144,66437,1,0
296,64,66723,1,0
376,24,67009,2,8,B|418:3|462:24,1,90,8|0
448,112,67580,2,0,B|432:144|370:158|370:158|318:148|299:113,1,180,0|8
216,80,68437,2,0,B|200:47|138:33|138:33|86:43|67:78,1,180,0|0
136,128,69295,1,8
208,184,69580,1,6
240,272,69866,6,8,B|282:292|326:271,1,90,0|0
336,184,70437,1,8
256,136,70723,1,2
176,184,71009,1,0
216,104,71295,2,8,B|258:83|302:104,1,90,0|8
256,184,71866,1,2
333,229,72152,2,0,B|317:261|255:275|255:275|203:265|184:230,1,180,0|8
256,184,73009,1,2
332,140,73295,2,0,B|316:107|254:93|254:93|202:103|183:138,1,180,0|8
256,184,74152,5,6
184,136,74437,2,0,B|162:178|183:222,2,90,4|0|8
256,184,75295,1,2
336,144,75580,1,0
416,176,75866,1,0
368,256,76152,2,0,B|410:276|454:255,1,90,8|0
416,176,76723,2,0,B|400:143|338:129|338:129|286:139|267:174,1,180,0|8
344,224,77580,2,0,B|328:256|266:270|266:270|214:260|195:225,1,180,0|8
266,170,78437,1,8
256,80,78723,1,6
184,128,79009,1,12
120,192,79295,5,2
200,240,79580,1,8
256,312,79866,1,2
312,240,80152,2,0,B|354:260|398:239,1,90,8|0
360,160,80723,1,8
288,104,81009,1,2
272,192,81295,2,0,B|256:224|194:238|194:238|142:228|123:193,1,180,12|0
80,120,82152,1,2
157,73,82437,2,0,B|141:40|79:26|79:26|27:36|8:71,1,180,0|8
80,120,83295,5,4
112,200,83580,2,0,B|154:220|198:199,2,90,8|0|8
160,120,84437,1,2
232,72,84723,1,0
304,120,85009,1,2
256,200,85295,2,0,B|298:220|342:199,1,90,8|0
379,117,85866,2,0,B|363:84|301:70|301:70|249:80|230:115,1,180,12|8
192,200,86723,2,0,B|176:232|114:246|114:246|62:236|43:201,1,180,0|8
115,148,87580,1,8
192,200,87866,1,4
216,288,88152,1,12
304,288,88437,5,0
384,240,88723,2,0,B|426:260|470:239,1,90,8|2
432,160,89295,2,0,B|388:139|345:159,2,90,0|2|8
472,88,90152,1,2
384,56,90437,2,0,B|368:23|306:9|306:9|254:19|235:54,1,180,12|8
308,107,91295,1,2
240,168,91580,2,0,B|224:200|162:214|162:214|110:204|91:169,1,180,0|8
160,112,92437,1,4
120,32,92723,6,0,B|162:11|206:32,2,90,0|2|8
160,112,93580,1,2
200,192,93866,1,0
256,264,94152,2,0,B|298:284|342:263,1,90,8|2
296,184,94723,1,2
372,135,95009,2,0,B|356:102|294:88|294:88|242:98|223:133,1,180,12|8
224,224,95866,2,0,B|208:256|146:270|146:270|94:260|75:225,1,180,0|8
147,172,96723,1,2
224,224,97009,1,4
256,136,97295,5,12
328,80,97580,1,0
400,136,97866,1,2
328,192,98152,1,0
256,136,98437,1,8
184,192,98723,1,0
184,192,98866,1,0
128,120,99152,1,0
88,104,99295,1,0
40,104,99437,1,0
0,120,99580,5,8
64,184,99866,1,0
128,248,100152,1,2
192,184,100437,1,0
256,248,100723,2,0,B|298:268|342:247,1,90,8|2
344,248,101152,1,0
416,192,101437,1,0
384,160,101580,1,0
336,160,101723,1,0
304,192,101866,5,8
368,256,102152,1,0
296,312,102437,1,2
208,312,102723,1,0
224,224,103009,1,10
256,144,103295,1,0
256,144,103437,1,0
312,72,103723,1,0
280,40,103866,1,0
232,40,104009,1,0
200,72,104152,1,8
256,144,104437,5,0
296,168,104580,1,0
336,192,104723,1,12
256,232,105009,1,0
232,272,105152,1,8
208,312,105295,1,8
296,320,105580,1,8
384,296,105866,1,8
368,256,106009,1,8
384,216,106152,1,8
400,176,106295,1,8
384,136,106437,5,12
304,176,106723,1,0
256,256,107009,1,2
208,176,107295,1,0
256,96,107580,1,8
304,176,107866,1,0
304,176,108009,1,0
360,112,108295,1,0
328,80,108437,1,0
280,80,108580,1,0
248,112,108723,5,8
304,184,109009,1,0
248,112,109295,1,2
200,184,109580,1,0
160,264,109866,2,0,B|202:284|246:263,1,90,8|0
247,263,110295,1,0
120,248,110580,1,0
88,216,110723,1,0
80,176,110866,1,0
96,136,111009,5,8
168,184,111295,1,0
240,128,111580,1,2
312,184,111866,1,0
240,240,112152,1,8
168,184,112437,1,0
168,184,112580,1,0
200,104,112866,1,0
232,72,113009,1,0
280,72,113152,1,0
312,104,113295,1,8
256,176,113580,5,0
216,192,113723,1,0
176,208,113866,1,12
256,248,114152,1,0
248,288,114295,1,8
240,328,114437,1,8
328,312,114723,1,8
400,264,115009,1,8
416,224,115152,1,8
408,184,115295,1,8
392,144,115437,1,8
408,104,115580,1,12
256,48,115866,5,0
216,128,116152,1,8
216,216,116437,2,0,B|200:248|138:262|138:262|86:252|67:217,1,180,0|0
140,164,117295,1,8
216,120,117580,2,0,B|235:84|287:74|287:74|349:88|365:120,1,180,0|0
288,168,118437,1,8
216,224,118723,2,0,B|235:259|287:269|287:269|349:255|365:223,1,180,0|0
400,136,119580,2,0,B|480:176,2,90,8|0|0
320,88,120437,5,0
256,152,120723,1,8
256,240,121009,2,0,B|176:280,2,90,0|0|0
320,304,121866,2,0,B|400:344,1,90,8|0
464,280,122437,1,0
432,192,122723,1,0
344,200,123009,1,8
288,128,123295,2,0,B|303:90|380:81|380:81|457:88|472:136,1,216
408,264,124723,1,0
344,200,125009,5,0
256,232,125295,1,8
264,144,125580,2,0,B|183:103,1,90
208,192,126152,1,0
296,192,126437,1,8
256,272,126723,2,0,B|336:312,1,90
424,280,127295,1,0
448,192,127580,2,0,B|367:151,2,90,8|0|0
472,104,128437,1,0
392,72,128723,2,0,B|376:40|314:26|314:26|262:36|242:71,1,180,8|0
312,128,129580,5,0
248,192,129866,1,8
176,248,130152,2,0,B|96:288,1,90
176,248,130723,1,0
256,288,131009,1,8
336,248,131295,2,0,B|416:288,1,90
336,248,131866,6,0,B|255:207,1,90,0|8
328,144,132437,2,0,B|312:112|250:94|250:94|198:108|171:149,1,188.999995493889,0|0
256,304,133866,5,8
240,216,134152,1,0
256,128,134437,1,2
272,40,134723,1,0
184,72,135009,1,2
256,128,135295,1,0
256,128,135437,1,0
320,192,135723,1,0
360,208,135866,1,0
400,192,136009,1,0
360,168,136152,5,2
360,256,136437,1,0
272,280,136723,1,2
184,296,137009,1,0
248,360,137295,1,2
248,272,137580,1,0
248,272,137723,2,0,B|248:184,1,90
240,136,138152,1,0
208,104,138295,1,0
168,88,138437,5,2
152,176,138723,1,0
64,192,139009,1,2
64,104,139295,1,0
120,32,139580,1,2
120,32,139866,1,0
120,32,140009,1,0
192,88,140295,1,0
232,64,140437,1,0
280,64,140580,1,0
320,88,140723,1,2
360,168,141009,5,0
320,192,141152,1,0
280,216,141295,1,2
208,272,141580,1,0
168,248,141723,1,0
136,224,141866,1,2
144,136,142152,1,0
144,136,142437,1,2
144,136,142723,1,0
48,104,143009,6,0,B|112:40|256:16|408:32|472:104,1,450,8|8
472,280,145295,2,0,B|411:351|259:367|115:343|51:279,1,450,8|8
256,192,147580,6,0,B|256:96,1,90,0|2
256,192,148152,2,0,B|256:280,1,90,0|2
256,192,148723,1,0
173,188,149009,2,0,B|173:103|261:73|341:103|341:192,1,270,8|8
304,272,150152,5,0
280,312,150294,1,0
256,352,150437,1,12
192,288,150723,1,0
168,248,150866,1,8
152,208,151009,1,8
240,184,151294,1,8
296,112,151580,1,8
328,80,151723,1,8
376,72,151866,1,8
416,88,152009,1,8
448,120,152152,1,12
344,264,152723,5,10
264,304,153009,2,0,B|176:304,1,90
88,288,153580,1,0
136,216,153866,2,0,B|224:216,1,90,10|0
288,152,154437,6,0,B|216:96|112:104,1,180,0|10
40,56,155294,2,0,B|112:0|216:8,1,180
256,88,156152,1,10
304,160,156437,1,0
360,232,156723,6,0,B|272:232,1,90
192,184,157294,1,10
168,96,157580,2,0,B|80:96,2,90
232,160,158437,1,10
192,176,158580,1,0
152,200,158723,1,0
80,256,159009,6,0,B|144:328|248:328,1,180,0|10
256,240,159866,1,0
256,120,160294,2,2,B|256:80,2,22.5
296,144,160580,2,2,B|328:144,2,22.5,2|6|4
256,168,160866,2,0,B|184:192|120:168,1,135,0|4
152,88,161580,5,0
232,48,161866,1,10
296,112,162152,2,0,B|384:112,1,90
400,200,162723,1,0
320,240,163009,1,10
320,240,163580,5,0
240,280,163866,1,0
312,336,164152,2,0,B|400:336,1,90,10|0
448,256,164723,1,0
384,192,165009,1,0
304,144,165294,1,10
304,144,165866,5,0
224,192,166152,1,0
152,240,166437,2,0,B|56:240,1,90,10|0
24,160,167009,1,0
72,88,167294,1,0
152,120,167580,1,10
152,120,168152,5,0
216,176,168437,1,0
264,104,168723,2,0,B|352:104,1,90,10|0
352,104,169152,1,8
352,104,169294,1,8
400,184,169580,1,8
328,240,169866,1,10
288,256,170009,1,8
240,256,170152,1,8
200,248,170294,1,8
168,216,170437,1,12
248,176,170723,5,0
320,128,171009,1,8
256,64,171294,1,0
168,96,171580,1,2
136,176,171866,1,0
192,240,172152,2,0,B|280:240,2,90,8|0|2
232,320,173009,1,0
320,344,173294,1,8
344,256,173580,2,0,B|256:256,2,90,0|2|0
384,176,174437,5,8
328,104,174723,1,0
248,144,175009,2,0,B|160:144,1,90,2|0
72,112,175580,1,8
128,40,175866,1,0
216,56,176152,2,0,B|312:56,1,90,2|0
368,120,176723,1,8
368,120,177294,6,0,B|368:208,1,90,2|0
280,208,177866,1,8
256,296,178152,1,0
384,248,178580,2,2,B|424:248,2,22.5
352,216,178866,2,2,B|352:184,2,22.5,2|6|6
336,256,179152,2,0,B|200:256,1,135,0|6
256,184,179866,5,0
216,104,180152,1,8
128,88,180437,1,0
72,160,180723,1,2
104,240,181009,1,0
176,288,181294,2,0,B|264:288,1,90,8|0
328,224,181866,2,0,B|240:224,2,90,2|0|8
384,152,182723,1,0
328,80,183009,1,2
248,112,183294,1,0
160,104,183580,1,8
160,104,184152,6,0,B|160:200,1,90,2|0
240,232,184723,1,8
248,320,185009,1,0
160,288,185294,2,0,B|72:288,1,90,2|0
40,200,185866,1,8
40,200,186437,6,0,B|128:200,1,90,2|0
200,144,187009,1,8
272,200,187294,1,12
96,192,204723,5,8
176,152,205009,1,8
256,192,205294,1,8
336,232,205580,1,8
376,240,205723,1,8
416,232,205866,1,8
496,192,206152,1,8
432,128,206437,1,8
392,104,206580,1,8
344,96,206723,1,8
296,104,206866,1,8
256,128,207009,1,12
192,192,207294,5,2
256,248,207580,1,8
256,336,207866,2,0,B|344:336,1,90,2|0
416,280,208437,1,2
416,192,208723,2,0,B|328:192,2,90,8|2|8
416,280,209580,5,2
328,248,209866,1,8
240,248,210152,2,0,B|152:248,1,90,2|8
104,328,210723,1,2
88,240,211009,2,0,B|24:176,1,90,8|2
112,152,211580,1,0
40,112,211866,6,0,B|88:32,1,90,2|8
136,112,212437,1,2
152,24,212723,2,0,B|216:88,1,90,8|2
264,168,213294,2,0,B|200:232,1,90,8|2
256,304,213866,1,0
192,240,214152,5,2
256,176,214437,1,8
320,240,214723,2,0,B|408:240,2,90,2|8|10
248,288,215580,1,8
224,328,215723,1,8
184,344,215866,1,10
136,344,216009,1,8
96,328,216152,1,8
72,192,216437,5,2
152,152,216723,1,8
232,192,217009,2,0,B|320:192,1,90,2|0
384,256,217580,2,0,B|296:256,2,90,2|8|2
440,184,218437,1,0
384,112,218723,6,0,B|320:48,2,90,2|8|2
304,160,219580,1,0
256,80,219866,1,2
168,64,220152,2,0,B|80:64,1,90,8|2
32,144,220723,5,0
104,192,221009,1,2
152,264,221294,2,0,B|240:264,1,90,8|2
320,216,221866,1,0
392,160,222152,1,2
320,112,222437,1,8
248,160,222723,2,0,B|160:160,1,90,2|0
112,232,223294,2,0,B|200:232,1,90,2|8
272,288,223866,2,0,B|291:324|343:334|343:334|405:320|424:280,1,188.999995493889
336,192,225294,5,8
256,144,225580,1,2
176,192,225866,1,8
96,144,226152,1,2
24,192,226437,1,8
24,192,226723,1,2
24,192,226866,1,0
24,192,227152,1,0
40,208,227294,1,2
56,224,227437,1,0
72,240,227580,5,8
160,240,227866,1,2
232,192,228152,1,8
312,240,228437,1,2
392,192,228723,1,8
472,240,229009,1,2
472,240,229152,1,0
472,240,229437,1,0
456,256,229580,1,2
440,272,229723,1,0
424,288,229866,5,8
336,312,230152,1,2
256,264,230437,1,8
200,192,230723,1,2
256,120,231009,1,8
328,64,231294,1,2
328,64,231437,1,0
392,128,231723,1,0
416,168,231866,1,2
416,216,232009,1,0
392,256,232152,1,8
328,192,232437,5,2
256,136,232723,1,8
184,192,233009,1,2
144,208,233152,1,8
128,248,233294,1,8
216,264,233580,1,10
256,184,233866,1,8
272,144,234009,1,8
256,104,234152,1,10
240,64,234294,1,8
256,24,234437,5,12
336,64,234723,1,2
384,144,235009,1,8
336,216,235294,1,2
256,264,235580,1,8
256,264,235866,1,2
256,264,236009,1,0
256,264,236294,1,0
240,248,236437,1,2
224,232,236580,1,0
208,216,236723,5,8
120,192,237009,1,2
168,120,237294,1,8
256,104,237580,1,2
344,120,237866,1,8
392,192,238152,1,2
392,192,238294,1,0
392,192,238580,1,0
376,208,238723,1,2
360,224,238866,1,0
344,240,239009,5,8
280,304,239294,1,2
200,256,239580,1,8
120,304,239866,1,2
200,256,240152,1,8
256,184,240437,1,2
256,184,240580,1,0
256,184,240866,1,0
264,168,241009,1,2
248,160,241152,1,0
256,144,241294,1,8
256,56,241580,5,2
344,80,241866,1,8
408,144,242152,1,2
424,184,242294,1,8
408,224,242437,1,8
328,184,242723,1,10
288,264,243009,1,8
248,288,243152,1,8
208,296,243294,1,10
160,288,243437,1,8
120,264,243580,1,12
