osu file format v7

[General]
AudioFilename: Jukebox the Ghost - Good Day (Andrew Maury Remix).mp3
AudioLeadIn: 1996
PreviewTime: 101493
Countdown: 1
SampleSet: Normal
StackLeniency: 0.7
Mode: 0
LetterboxInBreaks: 0
EpilepsyWarning: 1

[Editor]
Bookmarks: 13029,33270,52427,58210,70860,76644,91101,101583,114234
DistanceSpacing: 0.800000011920929
BeatDivisor: 2
GridSize: 8

[Metadata]
Title:Good Day (Andrew Maury Remix)
Artist:Jukebox the Ghost
Creator:mrtn
Version:Normal
Source:
Tags:

[Difficulty]
HPDrainRate:3
CircleSize:4
OverallDifficulty:3
SliderMultiplier:1
SliderTickRate:2

[Events]
//Background and Video events
0,0,"goodday.jpg"
//Break Periods
2,71060,75204
//Storyboard Layer 0 (Background)
//Storyboard Layer 1 (Fail)
//Storyboard Layer 2 (Pass)
//Storyboard Layer 3 (Foreground)
//Storyboard Sound Samples
//Background Colour Transformations
3,100,163,162,255

[TimingPoints]
379,361.44578313253,4,2,1,100,1,0
12487,-100,4,1,0,50,0,0
15740,-100,4,2,0,100,0,0
16463,-100,4,1,0,50,0,0
18451,-100,4,2,0,100,0,0
19535,-100,4,1,0,50,0,0
30198,-100,4,2,0,100,0,0
31101,-100,4,1,0,50,0,0
58210,-100,4,2,0,100,0,0
59294,-100,4,1,0,70,0,1
70860,-100,4,1,0,70,0,0
76463,-100,4,1,0,40,0,0
78632,-100,4,1,0,10,0,0
78993,-100,4,1,0,20,0,0
79716,-100,4,1,0,40,0,0
85318,-100,4,1,0,54,0,0
88210,-100,4,1,0,70,0,0
91101,-100,4,2,0,100,0,0
96704,-100,4,1,0,70,0,0
99957,-100,4,2,0,100,0,0
101583,-100,4,1,0,70,0,0
102668,-100,4,1,0,70,0,1
114189,-100,4,1,0,70,0,0
114234,-100,4,1,0,70,0,1
116945,-100,4,2,0,100,0,1
119656,-100,4,1,0,70,0,1
125800,-100,4,1,0,70,0,0

[Colours]
Combo1 : 40,110,220
Combo2 : 188,63,135
Combo3 : 105,220,230
Combo4 : 80,216,151

[HitObjects]
160,160,1463,6,2,B|208:112|280:96|360:112,3,200
432,192,4174,1,6
432,272,4535,1,6
432,272,4716,1,6
376,328,5077,5,2
216,328,5800,1,2
56,328,6523,1,2
136,240,7065,2,4,B|136:176,3,50
176,120,7969,6,2,B|232:56|280:192|368:96,2,200
176,240,9957,2,4,B|200:296|256:304,1,100
248,302,10499,1,4
320,264,10860,5,2
256,120,11583,1,2
192,264,12306,1,2
128,120,13029,5,0
128,120,13210,1,2
184,64,13571,1,0
184,64,13752,2,2,B|264:88|272:176,1,150
200,200,14656,2,2,B|176:280|248:360|384:328,1,250,2|8
400,328,15740,2,4,B|464:304|480:240,1,100
472,224,16282,1,4
408,80,17005,5,8
248,80,17728,1,8
48,80,18632,2,4,B|48:144,3,50
128,272,19897,6,8,B|216:336|320:288,2,200
240,152,22065,1,8
312,112,22427,5,0
352,112,22607,2,2,B|392:152|376:216,1,100
336,312,23511,2,0,B|264:336,3,66.6666666666667,8|0|0|8
216,272,24595,5,4
216,152,25138,1,4
216,32,25680,1,4
216,32,26041,1,0
296,32,26403,6,0,B|352:64|368:112,1,100,8|0
360,264,27487,1,4
296,312,27848,6,8,B|216:336|144:304|128:240,1,200
168,88,29294,2,8,B|248:64|320:96|336:160,1,200
336,192,30198,2,4,B|400:216,3,50
440,64,31463,6,8,B|320:48|256:144,2,200
440,144,33270,5,0
440,224,33632,1,8
368,184,33993,1,0
368,264,34354,1,8
296,224,34716,1,2
256,192,34897,12,0,35981
240,96,36523,5,8
184,152,36885,1,0
184,232,37246,1,8
240,288,37607,1,0
296,232,37969,1,8
296,152,38330,1,0
352,96,38692,2,2,B|432:112|472:184|448:248,1,200,10|8
320,336,40138,5,8
320,176,40860,1,8
320,136,41041,2,0,B|320:96,2,25
240,136,41583,1,8
160,136,41945,1,0
80,136,42306,1,8
80,296,43029,5,8
240,296,43752,1,8
400,296,44475,1,8
400,216,44836,5,0
400,216,45017,1,0
400,216,45198,1,8
304,88,45921,5,0
224,88,46282,2,2,B|184:128|208:200,1,100
280,160,47005,1,2
264,240,47366,1,2
256,192,47547,12,8,50258
192,144,50981,6,8,B|288:88|392:136,2,200
232,336,53330,5,0
272,336,53511,2,2,B|328:296|336:248,3,100,2|10|2|10
256,248,54957,2,2,B|261:211|317:171,1,100,2|10
432,208,55860,1,0
432,208,56041,1,2
256,192,56403,12,4,57848
144,232,58571,6,2,B|200:304|280:296|336:264,1,200,2|6
368,208,59656,1,10
368,128,60017,1,0
304,80,60378,1,0
304,160,60740,1,2
304,160,60921,1,2
304,160,61101,1,10
232,128,61463,1,2
232,208,61824,1,14
152,216,62186,6,0,B|112:280|152:320,1,100,2|10
216,272,62909,1,2
280,320,63270,1,8
344,272,63632,1,2
344,272,63812,1,0
344,272,63993,1,10
344,192,64354,1,6
256,56,65077,6,0,B|184:64|152:96,2,100,0|8|0
336,56,66162,1,8
336,56,66342,1,0
336,56,66523,1,0
408,88,66885,2,0,B|448:168|352:224,1,150,8|0
328,216,67607,1,8
184,144,68330,5,8
184,144,69053,1,8
320,56,69776,6,2,B|384:64|400:128,3,100,2|2|2|6
176,56,76644,6,0,B|56:80|32:200|80:296|208:336|304:264,1,450
400,232,78812,1,0
344,176,79174,1,8
424,160,79535,1,0
368,104,79897,1,8
288,104,80258,6,0,B|232:72,1,50
136,128,80981,2,0,B|96:176,1,50
64,232,81523,1,0
64,232,81704,1,0
104,304,82065,2,2,B|160:352|232:288,1,100
320,208,83150,1,2
320,88,83692,1,0
320,88,83872,1,0
40,336,85680,6,2,B|96:352|144:336,3,100
176,320,86945,1,2
176,240,87306,1,2
176,160,87668,2,0,B|224:120,1,50
288,88,88210,2,2,B|376:80|424:160,1,150,2|0
400,184,88933,2,2,B|312:192|264:112,1,150,2|0
256,88,89656,1,0
176,88,90017,1,0
176,168,90378,1,2
96,168,90740,1,2
96,248,91101,5,4
224,328,91824,1,2
352,248,92547,1,2
224,168,93270,1,2
296,72,93812,2,4,B|352:48,3,50
424,40,94716,6,2,B|504:112|448:240,2,200
320,104,96704,6,2,B|248:64|176:112,1,150
136,176,97607,1,2
176,240,97969,1,0
224,176,98330,1,0
304,176,98692,1,2
376,272,99234,2,0,B|416:320,1,50
128,72,101583,6,2,B|80:160|120:280|240:328,1,300,2|6
280,264,103029,1,10
280,184,103390,1,0
280,104,103751,1,8
360,104,104113,2,2,B|424:104,2,50,2|2|10
360,184,104836,1,2
280,184,105197,1,14
200,184,105559,5,2
88,296,106282,1,2
200,184,107005,2,2,B|200:128,2,50,2|2|10
280,184,107727,1,6
352,328,108450,6,0,B|424:320|456:288,2,100,0|8|0
280,296,109535,1,8
280,296,109715,1,0
280,296,109896,1,0
352,256,110258,2,0,B|392:176|296:120,1,150,8|0
309,128,110981,1,8
152,264,113150,6,2,B|136:208|200:200|176:152,2,100
216,320,114234,6,2,B|264:360|336:344,2,100,2|10|2
216,240,115318,1,8
216,160,115680,1,2
216,160,115860,1,2
216,160,116041,1,10
296,160,116403,2,2,B|344:136|368:80,1,100,2|14
296,56,117125,5,2
136,56,117848,2,2,B|64:80|48:232|136:264,1,250
168,272,118933,1,2
248,272,119294,1,2
280,112,120017,5,0
360,112,120378,1,8
360,72,120559,1,0
360,32,120740,1,0
280,32,121101,5,8
208,72,121463,1,0
208,152,121824,2,0,B|144:152,2,50,8|0|0
280,192,122547,1,8
280,272,122909,1,0
344,232,123270,6,8,B|424:192|416:104|360:64,2,200,8|8|10
328,152,125077,2,2,B|264:168|264:248,1,100
264,304,125800,1,4
