osu file format v5

[General]
AudioFilename: hanamuke.mp3
AudioLeadIn: 0
PreviewTime: -1
Countdown: 0
SampleSet: Soft
StackLeniency: 0.7
Mode: 0
LetterboxInBreaks: 1

[Metadata]
Title:Hanamuke no Melodei
Artist:Jukai
Creator:tom800510
Version:Easy
Source:
Tags:

[Difficulty]
HPDrainRate:2
CircleSize:3
OverallDifficulty:4
SliderMultiplier:1
SliderTickRate:1

[Events]
//Background and Video events
0,0,"bg_hanamuke.png"
1,0,"hanamuke.avi"
//Break Periods
//Storyboard Layer 0 (Background)
//Storyboard Layer 1 (Failing)
//Storyboard Layer 2 (Passing)
//Storyboard Layer 3 (Foreground)
//Storyboard Sound Samples
//Background Colour Transformations
3,100,0,0,0

[TimingPoints]
12530,375,4,2,0,100,1

[Colours]
Combo1 : 255,77,77
Combo2 : 255,124,62
Combo3 : 104,180,255
Combo4 : 155,225,113

[HitObjects]
107,87,12530,1,0
112,166,12905,1,0
183,202,13280,1,8
257,171,13655,2,0,B|317:198|367:154,1,100
428,139,14405,1,0
416,218,14780,2,0,B|386:261|276:283|229:250,1,200,8|0
389,270,18530,6,0,B|501:185|364:108,2,200,0|8|0
308,274,20405,1,0
241,229,20780,1,8
173,272,21155,1,0
104,231,21530,1,0
183,126,23780,5,0
256,93,24155,2,0,B|316:64|360:119,1,100,8|0
400,166,24905,1,0
372,241,25280,2,0,B|396:287|428:277,3,50,8|0|0|0
287,253,26405,1,8
287,253,26592,1,0
57,136,27530,6,0,C|60:234|91:256|173:256,1,200,0|8
308,284,29030,1,0
364,227,29405,1,0
293,189,29780,1,8
351,134,30155,1,0
351,134,30530,1,0
351,134,30905,1,8
256,192,32780,12,2,35031
440,87,35780,5,0
443,247,36530,1,8
298,315,37280,5,0
228,275,37655,1,0
388,281,38405,1,8
415,205,38780,1,0
433,127,39155,1,0
276,93,39905,1,8
203,127,40280,1,0
203,127,40842,1,0
117,238,41592,5,8
117,238,41780,1,0
117,238,41967,1,0
160,305,42342,1,0
257,232,42905,1,0
336,238,43280,2,0,B|404:209|436:139|380:55,1,200,8|0
88,112,44780,5,0
90,191,45155,1,0
91,270,45530,1,2
400,189,47030,1,8
165,102,49280,6,0,B|198:51|303:50|346:109,1,200,0|2
349,263,50780,2,0,B|258:341|160:262,1,200,0|2
134,110,52280,1,0
138,189,52655,1,8
212,216,53030,1,0
286,188,53405,1,0
338,127,53780,1,8
416,141,54155,1,0
448,164,54342,2,0,B|488:212|487:270|459:303,1,150,8|0
299,312,55655,5,2
258,311,55842,1,2
218,311,56030,1,2
177,310,56217,1,2
171,190,56780,1,2
205,170,56967,1,2
242,156,57155,1,2
278,139,57342,1,2
426,79,58092,5,2
437,117,58280,1,2
446,155,58467,1,2
408,225,58842,1,8
291,195,59405,1,2
216,224,59780,1,2
137,205,60155,1,2
83,264,60530,1,8
166,101,61280,6,0,B|115:134|114:239|173:282,1,200,0|2
327,285,62780,2,0,B|405:194|326:96,1,200,0|2
174,73,64280,1,0
114,126,64655,1,0
103,205,65030,1,8
180,225,65405,1,0
255,197,65780,1,8
335,192,66155,1,0
335,192,66342,2,8,B|450:208|443:293,1,150
378,323,67280,6,0,B|324:348|269:317,1,100
208,291,68030,2,8,B|148:258|116:176|131:97,1,200
127,38,69155,1,0
127,38,69342,1,0
405,67,70655,5,8
404,146,71030,2,0,B|412:236|340:285|272:284,1,200,0|8
248,285,71967,1,0
207,286,72155,1,2
167,286,72342,1,2
258,49,73655,5,0
213,115,74030,1,8
274,166,74405,1,0
226,230,74780,1,0
286,282,75155,1,8
286,282,75342,1,0
256,192,75717,12,4,77030
99,178,79092,5,0
139,179,79280,2,0,B|244:180,1,100
279,181,79842,1,0
367,261,80405,1,0
398,285,80592,1,0
