osu file format v12

[General]
AudioFilename: .mp3
AudioLeadIn: 0
PreviewTime: 105403
Countdown: 0
SampleSet: Soft
StackLeniency: 0.7
Mode: 0
LetterboxInBreaks: 0
EpilepsyWarning: 1
WidescreenStoryboard: 1

[Editor]
DistanceSpacing: 1.2
BeatDivisor: 4
GridSize: 8
TimelineZoom: 1

[Metadata]
Title:Yi Zhi Hen An Jing
TitleUnicode:一直很安静
Artist:Judy Huang
ArtistUnicode:阿桑
Creator:LZCSC
Version:Normal
Source:寂寞在唱歌
Tags:Shiodome Miuna 凪のあすから 黄嬿璘 Judy nagi no asukara bilibili douga Ji Mo Zai Chang Ge 方文山 VIincent Fang 林月如 Lin Yue Ru 仙剑奇侠传 Legend of Sword and Fairy
BeatmapID:413131
BeatmapSetID:170677

[Difficulty]
HPDrainRate:4
CircleSize:3
OverallDifficulty:4
ApproachRate:5
SliderMultiplier:1.2
SliderTickRate:1

[Events]
//Background and Video events
Video,0,"mov.avi"
0,0,"BGN.jpg",0,0
//Break Periods
2,82494,90021
2,104511,105294
//Storyboard Layer 0 (Background)
//Storyboard Layer 1 (Fail)
//Storyboard Layer 2 (Pass)
//Storyboard Layer 3 (Foreground)
//Storyboard Sound Samples
//Background Colour Transformations
3,100,163,162,255

[TimingPoints]
9131,545.454545454546,4,2,2,20,1,0
28767,-100,4,2,2,25,0,0
33131,-100,4,2,2,20,0,0
37494,-100,4,2,2,25,0,0
42949,-100,4,2,2,20,0,0
44040,-100,4,2,1,30,0,0
48403,-100,4,2,1,40,0,0
50040,-100,4,2,1,30,0,0
51131,-100,4,2,1,25,0,0
51676,-100,4,2,1,20,0,0
52767,-100,4,2,1,30,0,0
57131,-100,4,2,1,40,0,0
57676,-100,4,2,1,30,0,0
62040,-100,4,2,1,5,0,0
62585,-100,4,2,1,30,0,0
63676,-100,4,2,1,60,0,1
64494,-100,4,2,1,50,0,1
66403,-100,4,2,2,50,0,1
68040,-100,4,2,1,50,0,1
70767,-100,4,2,2,50,0,1
72403,-100,4,2,1,60,0,1
74585,-100,4,2,2,50,0,1
76767,-100,4,2,1,40,0,1
79494,-100,4,2,2,40,0,1
81131,-100,4,2,1,30,0,0
82494,545.454545454546,4,2,2,20,1,0
96130,-100,4,2,2,30,0,0
96675,-100,4,2,2,40,0,0
97766,-100,4,2,2,30,0,0
102675,-100,4,2,2,5,0,0
106494,-100,4,2,1,60,0,1
107857,-100,4,2,1,50,0,1
123948,-100,4,2,1,60,0,1
125312,-100,4,2,1,50,0,1
141403,-100,4,2,1,30,0,0
143584,-100,4,2,2,30,0,0
145221,-100,4,2,2,25,0,0
147948,-100,4,2,2,20,0,0
148494,-100,4,2,2,30,0,0
149584,-100,4,2,2,25,0,0
152312,-100,4,2,2,20,0,0
152857,-100,4,2,2,30,0,0
155312,-100,4,2,2,20,0,0
157494,-100,4,2,2,30,0,0
157766,-100,4,2,2,25,0,0
159130,-100,4,2,2,5,0,0

[Colours]
Combo1 : 193,253,250
Combo2 : 10,95,180
Combo3 : 10,143,182
Combo4 : 6,121,249
Combo5 : 89,206,251
Combo6 : 194,193,253
SliderBorder : 255,255,255

[HitObjects]
3,157,26585,6,0,P|75:141|115:173,1,120,2|0,0:0|0:0,0:0:0:0:
168,224,27403,2,0,P|243:269|315:213,1,180
311,222,28767,5,2,0:0:0:0:
320,136,29040,1,0,0:0:0:0:
376,72,29312,1,0,0:0:0:0:
456,40,29585,1,0,0:0:0:0:
456,40,30949,70,0,P|448:80|448:120,1,60
424,176,31494,1,0,0:0:0:0:
456,256,31767,2,0,P|448:320|352:376,1,180,2|0,0:0|0:0,0:0:0:0:
355,377,33131,6,0,P|307:369|248:312,1,120
200,256,33949,1,2,0:0:0:0:
200,256,35312,70,0,P|243:214|269:161,1,120,2|0,0:0|0:0,0:0:0:0:
320,96,36131,2,0,P|344:56|416:32,1,120,0|0,0:0|0:0,0:0:0:0:
488,56,36949,2,0,P|488:88|480:128,1,60
464,200,37494,1,2,0:0:0:0:
440,280,37767,1,0,0:0:0:0:
360,304,38040,1,0,0:0:0:0:
288,256,38312,1,0,0:0:0:0:
288,256,39676,6,0,P|200:256|120:312,2,180,2|0|0,0:0|0:0|0:0,0:0:0:0:
456,256,41858,2,0,B|424:304|373:314|373:314|400:272|400:208|344:176,1,240,2|0,0:0|0:0,0:0:0:0:
32,296,44040,6,0,P|120:312|168:296,1,120,4|0,0:0|0:0,0:0:0:0:
232,288,44858,2,0,P|304:264|360:280,1,120
360,352,45676,2,0,P|408:326|423:301,1,60
480,280,46221,2,0,P|455:190|376:176,1,180
320,232,47312,1,0,0:0:0:0:
272,168,47585,2,0,P|242:170|216:184,2,60,0|0|0,0:0|0:0|0:0,0:0:0:0:
320,232,48403,6,0,B|290:250|261:246|261:246|239:268|181:259,1,120,4|0,0:0|0:0,0:0:0:0:
224,344,49221,2,0,B|176:344|152:320|152:320|88:320|68:248,1,180
152,240,50312,1,0,0:0:0:0:
104,177,50585,2,0,B|84:130|46:121|46:121|0:96|-8:56|0:24,1,180,4|0,0:0|0:0,0:0:0:0:
80,40,51676,2,0,L|216:40,1,120
296,176,52767,70,0,L|176:176,1,120,4|0,0:0|0:0,0:0:0:0:
96,144,53585,2,0,P|136:100|194:90,1,120
280,88,54403,2,0,P|320:80|352:56,1,60
378,142,54949,1,4,0:0:0:0:
397,225,55221,2,0,P|338:217|298:174,1,120
216,160,56040,6,0,P|192:192|160:208,1,60
96,176,56585,2,0,P|120:144|152:128,1,60
216,160,57131,70,0,B|201:191|171:208|171:208|145:243|152:280,1,120,0|0,0:0|0:0,0:0:0:0:
192,328,57949,2,0,P|273:356|320:336,1,120
368,288,58767,2,0,P|314:262|256:274,1,120,0|4,0:0|0:0,0:0:0:0:
305,348,59585,1,0,0:0:0:0:
384,376,59858,1,0,0:0:0:0:
448,320,60131,2,0,B|464:272|432:232|432:232|400:200|344:184|344:184|344:152|320:128,1,240
256,184,61494,2,0,B|206:202|193:223|193:223|171:252|176:288,1,120
8,232,62585,70,0,P|43:195|67:187,1,60
128,224,63131,2,0,P|108:252|84:266,1,60
52,192,63676,38,0,P|101:146|170:153,1,120,4|0,0:0|0:0,0:0:0:0:
248,160,64494,2,0,P|312:168|360:144,1,120
408,64,65312,2,0,P|344:56|296:80,1,120
248,160,66131,1,0,0:0:0:0:
208,248,66403,2,0,P|216:296|232:320,1,60,2|0,0:0|0:0,0:0:0:0:
288,368,66949,2,0,P|336:371|363:360,1,60,2|0,0:0|0:0,0:0:0:0:
384,288,67494,1,2,0:0:0:0:
303,265,67767,1,0,0:0:0:0:
303,265,68040,6,0,P|298:201|348:144,1,120
424,128,68858,2,0,P|376:72|328:58,1,120
240,80,69676,2,0,P|193:143|132:154,1,120,0|4,0:0|0:0,0:0:0:0:
64,112,70494,1,0,0:0:0:0:
48,16,70767,2,0,P|106:23|152:72,1,120,2|2,0:0|0:0,0:0:0:0:
64,112,71585,1,0,0:0:0:0:
24,200,71858,2,0,P|13:245|16:280,1,60,2|0,0:0|0:0,0:0:0:0:
112,264,72403,70,0,P|152:184|192:168,1,120,4|0,0:0|0:0,0:0:0:0:
208,264,73221,2,0,P|232:336|336:368,1,180,0|4,0:0|0:0,0:0:0:0:
416,344,74312,2,0,B|396:296|351:283|351:283|312:248|336:192,1,180,4|2,0:0|0:0,0:0:0:0:
408,144,75403,5,0,0:0:0:0:
440,56,75676,2,0,P|376:40|296:56,1,120,2|2,0:0|0:0,0:0:0:0:
255,113,76494,1,0,0:0:0:0:
255,113,76767,2,0,B|226:95|224:64|224:64|168:32|107:72,1,180,4|0,0:0|0:0,0:0:0:0:
40,128,77858,2,0,P|8:184|56:352,1,240,0|4,0:0|0:0,0:0:0:0:
208,328,79494,37,2,0:0:0:0:
377,237,80040,1,2,0:0:0:0:
287,68,80585,1,2,0:0:0:0:
117,158,81131,1,4,0:0:0:0:
72,288,91221,70,0,L|72:376,2,60,0|2|2,0:0|0:0|0:0,0:0:0:0:
144,136,92312,2,0,L|144:56,2,60,0|2|2,0:0|0:0|0:0,0:0:0:0:
208,288,93403,2,0,L|208:376,2,60,0|2|2,0:0|0:0|0:0,0:0:0:0:
280,136,94494,2,0,L|280:56,2,60,0|2|2,0:0|0:0|0:0,0:0:0:0:
448,328,95584,6,0,L|424:256,1,60,2|0,0:0|0:0,0:0:0:0:
352,296,96130,2,0,L|288:240,1,60,2|0,0:0|0:0,0:0:0:0:
376,208,96675,2,0,L|352:136,1,60,2|0,0:0|0:0,0:0:0:0:
280,176,97221,2,0,L|216:120,1,60,2|0,0:0|0:0,0:0:0:0:
168,192,97766,70,0,P|152:256|168:312,1,120,2|0,0:0|0:0,0:0:0:0:
336,312,98857,2,0,P|352:248|336:192,1,120,2|0,0:0|0:0,0:0:0:0:
256,56,99948,2,0,B|224:40|168:48|136:80,1,120,2|0,0:0|0:0,0:0:0:0:
256,56,101039,2,0,B|288:40|344:48|376:80,1,120,2|0,0:0|0:0,0:0:0:0:
240,144,102130,6,0,B|192:112|144:176|176:240|256:272|256:272|336:240|368:176|320:112|272:144|272:144|256:182,1,480,2|0,0:0|0:0,0:0:0:0:
88,264,106494,22,0,P|124:340|216:328,1,180,8|0,0:0|0:0,0:0:0:0:
302,334,107584,2,0,P|387:340|424:264,1,180,2|0,0:0|0:0,0:0:0:0:
376,176,108675,2,0,P|304:80|232:32,1,180,8|0,0:0|0:0,0:0:0:0:
255,45,109766,2,0,P|186:101|136:176,1,180,2|0,0:0|0:0,0:0:0:0:
160,264,110857,6,0,P|208:312|272:312,1,120,8|0,0:0|0:0,0:0:0:0:
344,280,111675,2,0,P|296:232|232:232,1,120
160,192,112494,2,0,P|176:160|216:136,1,60
280,96,113039,2,0,P|216:48|112:88,1,180,12|0,0:0|0:0,0:0:0:0:
72,152,114130,70,0,P|48:200|48:216,1,60,2|0,0:0|0:0,0:0:0:0:
112,272,114675,2,0,P|129:247|136:218,1,60
49,206,115221,6,0,P|21:273|48:336,1,120,8|0,0:0|0:0,0:0:0:0:
120,360,116039,2,0,P|192:360|240:320,1,120
304,272,116857,2,0,P|352:248|384:248,1,60
448,288,117403,2,0,P|456:232|416:168,1,120,8|0,0:0|0:0,0:0:0:0:
336,152,118221,69,0,0:0:0:0:
320,56,118494,2,0,P|303:42|257:31,1,60,2|0,0:0|0:0,0:0:0:0:
200,96,119039,2,0,P|217:110|263:121,1,60
266,31,119584,6,0,P|196:3|111:68,1,180,8|0,0:0|0:0,0:0:0:0:
64,144,120675,1,6,0:0:0:0:
96,312,121221,1,0,0:0:0:0:
264,336,121766,1,0,0:0:0:0:
440,48,122857,70,0,P|450:67|453:114,1,60,2|0,0:0|0:0,0:0:0:0:
379,159,123402,2,0,P|368:139|365:92,1,60
456,105,123948,6,0,P|467:188|440:232,1,120,8|0,0:0|0:0,0:0:0:0:
360,248,124766,1,0,0:0:0:0:
264,264,125039,2,0,P|292:319|352:344,1,120,2|0,0:0|0:0,0:0:0:0:
432,312,125857,1,0,0:0:0:0:
456,224,126130,2,0,P|415:163|360:152,1,120,8|0,0:0|0:0,0:0:0:0:
296,200,126948,70,0,P|251:212|216:216,1,60,0|2,0:0|0:0,0:0:0:0:
144,224,127494,1,8,0:0:0:0:
64,168,127766,1,0,0:0:0:0:
80,72,128039,1,0,0:0:0:0:
168,96,128312,6,0,P|214:128|292:110,1,120,12|0,0:0|0:0,0:0:0:0:
352,64,129130,2,0,P|306:32|228:50,1,120
168,96,129948,2,0,L|128:152,1,60
96,232,130494,2,0,P|88:304|120:360,1,120,8|0,0:0|0:0,0:0:0:0:
296,304,131584,70,0,P|240:312|168:272,1,120,2|0,0:0|0:0,0:0:0:0:
168,192,132403,1,0,0:0:0:0:
208,96,132675,6,0,P|264:88|336:128,1,120,8|0,0:0|0:0,0:0:0:0:
252,180,133494,2,0,P|340:212|428:180,1,180
448,280,134584,2,0,P|384:328|280:336,1,180
232,257,135675,1,0,0:0:0:0:
147,298,135948,70,0,B|108:280|100:240,1,60,0|8,0:0|0:0,0:0:0:0:
160,176,136494,2,0,P|192:208|199:243,1,60
104,256,137039,6,0,P|64:200|76:133,1,120,8|0,0:0|0:0,0:0:0:0:
120,72,137857,2,0,P|184:88|240:72,1,120
320,40,138675,2,0,P|377:26|435:42,1,120,0|12,0:0|0:0,0:0:0:0:
432,232,139766,37,0,0:0:0:0:
256,312,140312,1,2,0:0:0:0:
80,232,140857,1,0,0:0:0:0:
256,152,141403,1,12,0:0:0:0:
32,328,143584,69,0,0:0:0:0:
40,184,144130,1,0,0:0:0:0:
136,79,144675,2,0,P|252:55|368:83,1,240,2|2,0:0|0:0,0:0:0:0:
384,224,146312,2,0,L|384:296,1,60,0|2,0:0|0:0,0:0:0:0:
384,286,147948,69,0,0:0:0:0:
480,176,148494,1,2,0:0:0:0:
375,79,149039,2,0,P|259:55|143:83,1,240,0|0,0:0|0:0,0:0:0:0:
40,184,150675,2,0,L|40:256,1,60,0|2,0:0|0:0,0:0:0:0:
41,244,152312,5,0,0:0:0:0:
104,112,152857,1,2,0:0:0:0:
240,56,153403,2,0,L|312:56,1,60,2|0,0:0|0:0,0:0:0:0:
440,48,154221,2,0,L|440:120,2,60,0|0|2,0:0|0:0|0:0,0:0:0:0:
440,192,155312,1,0,0:0:0:0:
440,192,156675,70,0,P|416:296|400:312,1,120
344,336,157494,2,0,P|256:344|152:328,1,180,2|2,0:0|0:0,0:0:0:0:
104,296,158584,1,0,0:0:0:0:
56,240,158857,1,0,0:0:0:0:
256,192,159130,12,0,162675,0:0:0:0:
