osu file format v12

[General]
AudioFilename: .mp3
AudioLeadIn: 0
PreviewTime: 105403
Countdown: 0
SampleSet: Soft
StackLeniency: 0.7
Mode: 0
LetterboxInBreaks: 0
EpilepsyWarning: 1
WidescreenStoryboard: 1

[Editor]
DistanceSpacing: 0.8
BeatDivisor: 4
GridSize: 4
TimelineZoom: 1

[Metadata]
Title:Yi Zhi Hen An Jing
TitleUnicode:一直很安静
Artist:Judy Huang
ArtistUnicode:阿桑
Creator:LZCSC
Version:Miuna
Source:寂寞在唱歌
Tags:Shiodome Miuna 凪のあすから 黄嬿璘 Judy nagi no asukara bilibili douga Ji Mo Zai Chang Ge 方文山 VIincent Fang 林月如 Lin Yue Ru 仙剑奇侠传 Legend of Sword and Fairy
BeatmapID:413130
BeatmapSetID:170677

[Difficulty]
HPDrainRate:6
CircleSize:4
OverallDifficulty:7
ApproachRate:7
SliderMultiplier:1.4
SliderTickRate:1

[Events]
//Background and Video events
Video,0,"mov.avi"
0,0,"BGM.jpg",0,0
//Break Periods
2,82494,90321
//Storyboard Layer 0 (Background)
//Storyboard Layer 1 (Fail)
//Storyboard Layer 2 (Pass)
//Storyboard Layer 3 (Foreground)
//Storyboard Sound Samples
//Background Colour Transformations
3,100,163,162,255

[TimingPoints]
9131,545.454545454546,4,2,2,30,1,0
28767,-100,4,2,2,25,0,0
33131,-100,4,2,2,30,0,0
37494,-100,4,2,2,25,0,0
44040,-100,4,2,1,30,0,0
44585,-100,4,2,1,30,0,0
48403,-100,4,2,1,40,0,0
50040,-100,4,2,1,30,0,0
51131,-100,4,2,1,25,0,0
51676,-100,4,2,1,20,0,0
52767,-100,4,2,1,30,0,0
57131,-100,4,2,1,40,0,0
57676,-100,4,2,1,30,0,0
61494,-200,4,2,1,30,0,0
62040,-100,4,2,1,5,0,0
62585,-100,4,2,1,30,0,0
63676,-83.3333333333333,4,2,1,60,0,1
64494,-83.3333333333333,4,2,2,50,0,1
68858,-83.3333333333333,4,2,1,50,0,1
70494,-83.3333333333333,4,2,2,50,0,1
72403,-83.3333333333333,4,2,1,60,0,1
74585,-83.3333333333333,4,2,2,50,0,1
76767,-100,4,2,1,40,0,1
80040,-100,4,2,2,40,0,1
81131,-100,4,2,1,30,0,0
82494,545.454545454546,4,2,1,30,1,0
91221,-100,4,2,2,30,0,0
96130,-100,4,2,2,40,0,0
97766,-133.333333333333,4,2,2,30,0,0
99948,-100,4,2,2,30,0,0
102675,-100,4,2,2,20,0,0
105403,-100,4,2,2,30,0,0
106494,-83.3333333333333,4,2,1,70,0,1
107857,-83.3333333333333,4,2,1,60,0,1
123948,-83.3333333333333,4,2,1,70,0,1
125312,-83.3333333333333,4,2,1,60,0,1
141403,-200,4,2,1,30,0,0
143584,-200,4,2,2,30,0,0
144948,-200,4,2,2,20,0,0
147948,-200,4,2,2,30,0,0
149312,-200,4,2,2,20,0,0
152312,-200,4,2,2,30,0,0
155857,-200,4,2,2,25,0,0
157494,-200,4,2,2,20,0,0
158039,-200,4,2,2,25,0,0
159130,-200,4,2,2,5,0,0

[Colours]
Combo1 : 193,253,250
Combo2 : 10,95,180
Combo3 : 10,143,182
Combo4 : 6,121,249
Combo5 : 89,206,251
Combo6 : 194,193,253
SliderBorder : 255,255,255

[HitObjects]
55,209,26585,6,0,P|115:165|183:201,1,140,2|0,0:0|0:0,0:0:0:0:
211,245,27403,1,0,0:0:0:0:
139,361,27949,1,0,0:0:0:0:
104,300,28221,2,0,P|104:264|140:224,1,70
171,185,28767,2,0,P|228:116|216:64,1,140,2|0,0:0|0:0,0:0:0:0:
168,24,29585,1,0,0:0:0:0:
88,80,30403,5,0,0:0:0:0:
116,144,30676,1,0,0:0:0:0:
172,184,30949,2,0,P|233:212|297:186,1,140,2|0,0:0|0:0,0:0:0:0:
344,136,31767,1,0,0:0:0:0:
228,136,32858,69,0,0:0:0:0:
172,184,33131,2,0,P|149:258|191:316,1,140,2|0,0:0|0:0,0:0:0:0:
236,348,33949,1,0,0:0:0:0:
469,270,35312,6,0,P|411:237|340:285,1,140,2|0,0:0|0:0,0:0:0:0:
300,316,36131,2,0,P|236:348|172:300,1,140,0|0,0:0|0:0,0:0:0:0:
136,264,36949,2,0,P|120:224|136:184,1,70,0|0,0:0|0:0,0:0:0:0:
152,136,37494,69,2,0:0:0:0:
200,84,37767,1,0,0:0:0:0:
272,84,38040,1,0,0:0:0:0:
324,132,38312,1,0,0:0:0:0:
240,172,38858,5,0,0:0:0:0:
240,172,39131,2,0,P|243:232|272:260,2,70,0|0|2,0:0|0:0|0:0,0:0:0:0:
284,116,39949,1,0,0:0:0:0:
352,96,40221,1,0,0:0:0:0:
420,120,40494,1,0,0:0:0:0:
428,328,41312,70,0,P|364:356|296:328,1,140,0|2,0:0|0:0,0:0:0:0:
252,280,42131,1,0,0:0:0:0:
184,252,42403,1,0,0:0:0:0:
112,272,42676,1,0,0:0:0:0:
40,312,44040,38,0,P|104:344|176:312,1,140,4|0,0:0|0:0,0:0:0:0:
232,272,44858,2,0,P|288:240|360:280,1,140,4|0,0:0|0:0,0:0:0:0:
292,312,45676,2,0,P|288:256|300:220,1,70
344,176,46221,1,0,0:0:0:0:
428,186,46494,1,0,0:0:0:0:
452,268,46767,1,0,0:0:0:0:
364,256,47040,1,0,0:0:0:0:
344,176,47312,2,0,P|358:132|386:105,1,70,2|0,0:0|0:0,0:0:0:0:
460,126,47858,2,0,P|450:159|427:185,1,70
396,156,48267,1,0,0:0:0:0:
374,116,48403,70,0,B|378:72|418:49,1,70,4|0,0:0|0:0,0:0:0:0:
344,0,48949,1,0,0:0:0:0:
296,72,49221,2,0,P|240:88|160:56,1,140
88,72,50040,2,0,B|56:88|40:152,1,70,0|4,0:0|0:0,0:0:0:0:
32,232,50585,5,4,0:0:0:0:
128,296,50858,1,0,0:0:0:0:
172,184,51131,1,0,0:0:0:0:
64,176,51403,1,0,0:0:0:0:
36,296,51676,1,2,0:0:0:0:
100,356,51949,1,0,0:0:0:0:
192,360,52221,2,0,P|232:336|272:336,1,70
360,328,52767,70,0,P|440:296|456:240,1,140,4|0,0:0|0:0,0:0:0:0:
375,247,53585,2,0,B|389:184|441:170|441:170|464:120,1,140,0|0,2:2|0:0,0:0:0:0:
440,57,54403,2,0,B|395:68|376:109,1,70,0|4,0:0|0:0,0:0:0:0:
316,148,54949,1,4,0:0:0:0:
312,64,55221,1,0,0:0:0:0:
244,112,55494,1,0,0:0:0:0:
192,44,55767,6,0,L|168:95,1,35
159,121,56040,2,0,L|104:69,1,70,2|0,0:0|0:0,0:0:0:0:
40,24,56585,2,0,P|26:80|36:108,1,70
96,147,57131,2,0,B|68:184|24:180|24:180|-3:207|-6:248,1,140,4|0,0:0|0:0,0:0:0:0:
0,316,57949,2,0,P|33:357|122:362,1,140
83,287,58767,2,0,B|141:270|181:315|181:315|240:292,1,140,0|4,0:0|0:0,0:0:0:0:
295,285,59585,69,0,0:0:0:0:
274,367,59858,1,0,0:0:0:0:
359,338,60131,2,0,B|383:311|377:266|377:266|361:222|396:180,1,140
449,156,60949,1,0,0:0:0:0:
455,240,61221,1,0,0:0:0:0:
380,204,61494,6,0,P|362:153|368:128,1,70,4|0,0:0|0:0,0:0:0:0:
208,57,62585,69,0,0:0:0:0:
272,138,62858,1,0,0:0:0:0:
120,196,63131,1,0,0:0:0:0:
116,94,63403,1,0,0:0:0:0:
216,216,63676,22,0,P|288:238|365:176,1,167.999994873047,4|0,0:0|0:0,0:0:0:0:
416,108,64494,2,0,P|342:88|267:148,1,167.999994873047,0|0,0:0|0:0,0:0:0:0:
176,156,65312,2,0,P|106:172|74:148,1,83.9999974365235
16,112,65858,5,0,0:0:0:0:
72,32,66131,1,0,0:0:0:0:
169,53,66403,1,2,0:0:0:0:
177,156,66676,1,0,0:0:0:0:
88,192,66949,1,2,0:0:0:0:
120,288,67221,1,0,0:0:0:0:
194,360,67494,2,0,P|253:369|276:354,1,83.9999974365235,2|0,0:0|0:0,0:0:0:0:
360,328,68040,70,0,P|291:270|215:285,1,167.999994873047,0|0,0:2|0:0,0:0:0:0:
273,360,68858,2,0,P|300:268|259:198,1,167.999994873047,4|0,0:0|0:0,0:0:0:0:
171,196,69676,2,0,P|113:164|100:138,1,83.9999974365235
108,48,70221,5,4,0:0:0:0:
188,96,70494,1,0,0:0:0:0:
271,48,70767,2,0,P|317:39|381:67,1,83.9999974365235,2|0,0:0|0:0,0:0:0:0:
418,185,71312,1,2,0:0:0:0:
336,144,71585,1,0,0:0:0:0:
352,48,71858,1,2,0:0:0:0:
448,40,72130,1,0,0:0:0:0:
496,128,72403,70,0,P|511:207|442:278,1,167.999994873047,4|0,0:0|0:0,0:0:0:0:
360,264,73221,1,0,0:0:0:0:
304,348,73494,2,0,B|269:374|209:354,1,83.9999974365235,0|0,0:0|0:0,0:0:0:0:
200,260,74040,2,0,P|160:276|136:308,1,83.9999974365235,0|4,0:0|0:0,0:0:0:0:
56,360,74585,5,0,0:0:0:0:
0,280,74858,1,0,0:0:0:0:
48,192,75131,1,2,0:0:0:0:
149,185,75403,1,0,0:0:0:0:
174,87,75676,1,2,0:0:0:0:
88,32,75949,1,0,0:0:0:0:
12,100,76221,2,0,P|62:114|93:108,1,83.9999974365235,2|0,0:0|0:0,0:0:0:0:
174,86,76767,70,0,P|277:57|373:89,1,210,4|0,0:0|0:0,0:0:0:0:
428,140,77858,1,0,0:0:0:0:
432,216,78131,1,0,0:0:0:0:
392,282,78403,2,0,P|370:309|338:322,1,70
324,248,78949,2,0,P|442:224|432:345,1,280,4|2,0:0|2:0,0:0:0:0:
256,332,80585,1,2,0:0:0:0:
256,192,81131,1,4,0:0:0:0:
211,105,91221,53,0,0:0:0:0:
116,80,91494,1,2,0:0:0:0:
72,168,91766,1,2,0:0:0:0:
301,105,92312,69,0,0:0:0:0:
396,80,92584,1,2,0:0:0:0:
436,168,92857,1,2,0:0:0:0:
108,260,93403,69,0,0:0:0:0:
168,336,93675,1,2,0:0:0:0:
256,376,93948,1,2,0:0:0:0:
404,260,94494,5,0,0:0:0:0:
344,336,94766,1,2,0:0:0:0:
256,376,95039,1,2,0:0:0:0:
224,280,95584,5,2,0:0:0:0:
288,280,95857,1,2,0:0:0:0:
168,304,96130,1,2,0:0:0:0:
344,304,96403,1,2,0:0:0:0:
120,264,96675,1,2,0:0:0:0:
392,264,96948,1,2,0:0:0:0:
128,200,97221,1,2,0:0:0:0:
384,200,97494,1,2,0:0:0:0:
168,152,97766,6,0,P|216:112|265:97,1,105.000004005432,2|0,0:0|0:0,0:0:0:0:
344,152,98584,2,0,P|296:112|247:97,1,105.000004005432,2|0,0:0|0:0,0:0:0:0:
256,192,99403,1,0,0:0:0:0:
256,288,99675,1,0,0:0:0:0:
328,352,99948,70,0,P|386:308|428:244,1,140,2|0,0:0|0:0,0:0:0:0:
256,192,100766,1,0,0:0:0:0:
184,352,101039,2,0,P|126:308|84:244,1,140,2|0,0:0|0:0,0:0:0:0:
256,192,101857,1,0,0:0:0:0:
280,92,102130,70,0,B|312:44|384:60|396:96|392:160|380:208|312:200|284:248|256:276|256:276|232:248|200:200|132:208|120:160|116:96|128:60|200:44|232:92,1,700,2|0,0:0|0:0,0:0:0:0:
32,344,105403,5,0,0:0:0:0:
92,182,105675,1,0,0:0:0:0:
139,347,105948,1,0,0:0:0:0:
0,238,106221,1,0,0:0:0:0:
179,248,106494,6,0,P|244:252|303:330,1,167.999994873047,12|0,0:0|0:0,0:0:0:0:
220,328,107312,2,0,P|280:246|358:238,1,167.999994873047
415,208,108130,2,0,P|453:191|480:160,1,83.9999974365235
456,64,108675,6,0,B|419:70|392:112|392:112|344:120|328:168,1,167.999994873047,8|0,0:0|0:0,0:0:0:0:
312,260,109494,1,0,0:0:0:0:
352,352,109766,1,2,0:0:0:0:
452,344,110039,1,0,0:0:0:0:
472,244,110312,1,0,0:0:0:0:
384,192,110584,1,0,0:0:0:0:
384,192,110857,70,0,P|296:168|236:244,1,167.999994873047,8|0,0:0|0:0,0:0:0:0:
320,240,111675,2,0,P|288:144|216:136,1,167.999994873047
156,168,112494,2,0,P|143:225|156:264,1,83.9999974365235
173,347,113039,6,0,P|237:297|244:216,1,167.999994873047,12|0,0:0|0:0,0:0:0:0:
244,216,113857,1,0,0:0:0:0:
136,240,114130,1,2,0:0:0:0:
56,316,114403,1,8,0:0:0:0:
4,220,114675,1,0,0:0:0:0:
88,152,114948,1,0,0:0:0:0:
8,148,115221,70,0,P|66:81|147:94,1,167.999994873047,8|0,0:0|0:0,0:0:0:0:
88,152,116039,2,0,P|56:77|100:0,1,167.999994873047
176,4,116857,2,0,P|232:20|256:52,1,83.9999974365235
352,36,117403,6,0,B|347:99|299:123|299:123|310:159|285:214,1,167.999994873047,8|0,0:0|0:0,0:0:0:0:
216,244,118221,1,0,0:0:0:0:
196,144,118494,1,2,0:0:0:0:
296,184,118766,1,0,0:0:0:0:
232,320,119039,1,0,0:0:0:0:
152,200,119312,1,8,0:0:0:0:
282,260,119584,70,0,P|364:263|420:204,1,167.999994873047,8|0,0:0|0:0,0:0:0:0:
392,116,120403,1,0,0:0:0:0:
332,188,120675,2,0,P|364:260|468:292,1,167.999994873047,6|0,0:0|0:0,0:0:0:0:
508,228,121494,1,0,0:0:0:0:
420,204,121766,2,0,P|354:267|260:244,1,167.999994873047,8|0,0:0|0:0,0:0:0:0:
282,260,122857,5,2,0:0:0:0:
248,352,123130,1,0,0:0:0:0:
120,256,123403,1,0,0:0:0:0:
201,195,123675,1,0,0:0:0:0:
144,352,123948,70,0,P|52:326|24:240,1,167.999994873047,12|0,0:0|0:0,0:0:0:0:
64,176,124766,2,0,P|106:157|160:168,1,83.9999974365235,0|2,0:0|0:0,0:0:0:0:
120,256,125312,2,0,B|176:264|208:232|208:232|256:256|280:296,1,167.999994873047,8|0,0:0|0:0,0:0:0:0:
355,325,126130,6,0,B|384:264|346:213|346:213|363:189|371:157,1,167.999994873047,8|0,0:0|0:0,0:0:0:0:
416,64,126948,1,0,0:0:0:0:
480,160,127221,1,2,0:0:0:0:
472,280,127494,1,8,0:0:0:0:
355,325,127766,2,0,P|299:301|283:277,1,83.9999974365235
368,224,128312,70,0,B|336:184|288:184|288:184|256:144|192:152,1,167.999994873047,12|0,0:0|0:0,0:0:0:0:
132,200,129130,2,0,B|164:244|208:252,1,83.9999974365235,0|2,0:0|0:0,0:0:0:0:
296,264,129675,2,0,P|384:204|408:144,1,167.999994873047,8|0,0:0|0:0,0:0:0:0:
392,48,130494,6,0,P|320:8|232:32,1,167.999994873047,8|0,0:0|0:0,0:0:0:0:
152,72,131312,1,0,0:0:0:0:
64,112,131584,2,0,P|54:161|64:200,1,83.9999974365235,2|8,0:0|0:0,0:0:0:0:
153,234,132130,2,0,P|160:193|152:152,1,83.9999974365235,0|0,0:0|0:0,0:0:0:0:
63,194,132675,70,0,B|28:300|152:344,1,167.999994873047,12|0,0:0|0:0,0:0:0:0:
232,380,133494,2,0,B|248:319|235:274,1,83.9999974365235,0|2,0:0|0:0,0:0:0:0:
240,184,134039,2,0,B|192:176|166:190|166:190|112:192|72:128,1,167.999994873047,8|0,0:0|0:0,0:0:0:0:
32,64,134857,6,0,B|96:32|152:72|152:72|216:56,1,167.999994873047,8|0,0:0|0:0,0:0:0:0:
304,28,135675,1,0,0:0:0:0:
256,108,135948,1,2,0:0:0:0:
191,61,136220,1,8,0:0:0:0:
304,28,136494,1,0,0:0:0:0:
372,72,136767,1,0,0:0:0:0:
430,127,137039,70,0,P|486:191|478:279,1,167.999994873047,8|0,0:0|0:0,0:0:0:0:
432,360,137857,2,0,P|393:323|378:286,1,83.9999974365235,0|2,0:0|0:0,0:0:0:0:
296,216,138403,2,0,B|322:186|371:184|371:184|416:164|435:110,1,167.999994873047,8|0,0:0|0:0,0:0:0:0:
472,32,139221,6,0,B|403:12|352:56|352:56|288:40,1,167.999994873047,12|0,0:0|0:0,0:0:0:0:
216,48,140039,1,0,0:0:0:0:
120,72,140312,2,0,P|120:152|144:184,1,83.9999974365235,2|8,0:0|0:0,0:0:0:0:
198,257,140857,2,0,P|213:218|216:176,1,83.9999974365235
96,248,141403,1,12,0:0:0:0:
56,264,143584,5,2,0:0:0:0:
144,192,144130,1,0,0:0:0:0:
152,304,144675,1,0,0:0:0:0:
176,288,144948,1,2,0:0:0:0:
256,208,145494,1,0,0:0:0:0:
240,232,145766,2,0,P|296:264|368:256,1,140,2|0,0:0|0:0,0:0:0:0:
368,256,147948,5,2,0:0:0:0:
464,200,148494,1,0,0:0:0:0:
448,176,148766,2,0,P|408:176|376:184,1,70
256,248,149858,1,0,0:0:0:0:
232,264,150130,2,0,P|171:297|103:288,1,140,2|0,0:0|0:0,0:0:0:0:
80,272,151494,1,0,0:0:0:0:
56,256,151766,1,0,0:0:0:0:
40,232,152039,1,0,0:0:0:0:
32,112,152312,69,2,0:0:0:0:
176,56,152857,1,0,0:0:0:0:
352,96,153403,1,0,0:0:0:0:
376,112,153675,1,2,0:0:0:0:
448,240,154221,1,0,0:0:0:0:
436,264,154494,1,0,0:0:0:0:
420,288,154766,2,0,P|359:330|286:328,1,140,2|0,0:0|0:0,0:0:0:0:
295,330,156130,1,0,0:0:0:0:
176,296,156675,5,0,0:0:0:0:
100,200,157221,1,0,0:0:0:0:
85,175,157494,2,0,P|64:95|88:30,1,140,2|0,0:0|0:0,0:0:0:0:
80,42,158857,1,2,0:0:0:0:
256,192,159130,12,0,162675,0:0:0:0:
