osu file format v14

[General]
AudioFilename: Copycat (Cover)JubyPhonic.mp3
AudioLeadIn: 0
PreviewTime: -1
Countdown: 1
SampleSet: Normal
StackLeniency: 0.7
Mode: 0
LetterboxInBreaks: 1
WidescreenStoryboard: 0

[Editor]
Bookmarks: -14
DistanceSpacing: 0.8
BeatDivisor: 4
GridSize: 4
TimelineZoom: 1

[Metadata]
Title:CopyCat
TitleUnicode:CopyCat
Artist:JubyPhonic
ArtistUnicode:JubyPhonic
Creator:KyariPamyu
Version:Say Hello?
Source:
Tags:
BeatmapID:1473306
BeatmapSetID:695318

[Difficulty]
HPDrainRate:4
CircleSize:4
OverallDifficulty:9
ApproachRate:9
SliderMultiplier:1.6
SliderTickRate:1

[Events]
//Background and Video events
0,0,"copycat_gumi_megpoid_by_pimientakast-dbbst6s.png",0,0
//Break Periods
2,95549,96502
//Storyboard Layer 0 (Background)
//Storyboard Layer 1 (Fail)
//Storyboard Layer 2 (Pass)
//Storyboard Layer 3 (Foreground)
//Storyboard Sound Samples

[TimingPoints]
10825,437.956204379562,4,3,0,100,1,0
10925,-100,4,1,1,100,0,0
10925,-100,4,2,0,100,0,0
25277,-100,4,1,0,100,0,0
66883,-100,4,3,0,100,0,0
67321,-100,4,1,0,100,0,0
138708,-100,4,3,0,100,0,0
139146,-100,4,1,0,100,0,0

[HitObjects]
152,204,25277,5,0,0:0:0:0:
288,248,25715,2,0,P|368:240|392:144,2,160
288,248,26810,1,0,0:0:0:0:
288,248,27029,1,0,0:0:0:0:
152,200,27467,2,0,P|148:156|256:120,2,160
152,200,28562,1,0,0:0:0:0:
152,200,28781,1,0,0:0:0:0:
428,200,29219,2,0,P|444:144|364:88,1,160
284,192,30095,2,0,P|256:136|324:64,2,160
112,264,31408,6,0,P|72:204|240:104,1,320
256,184,32722,1,0,0:0:0:0:
400,280,33160,2,0,P|424:216|260:68,1,320
256,184,34474,1,0,0:0:0:0:
96,272,34912,2,0,P|64:216|212:64,1,320
256,296,36226,1,0,0:0:0:0:
256,296,36445,2,0,P|328:256|280:120,1,240
276,108,37540,2,0,P|328:68|408:104,2,160
152,128,39292,5,0,0:0:0:0:
264,176,39730,2,0,L|372:172,1,80
428,168,40387,2,0,P|456:236|332:292,1,240
304,200,41481,2,0,P|236:176|288:312,1,320
184,124,42795,1,0,0:0:0:0:
292,200,43233,2,0,L|392:204,1,80
484,168,43890,2,0,P|476:224|304:276,1,240
292,216,44985,2,0,P|276:156|372:108,2,160
80,104,46299,5,0,0:0:0:0:
168,180,46737,2,0,L|256:180,1,80
304,288,47394,2,0,P|372:272|376:112,1,240
280,168,48489,2,0,P|284:88|376:52,1,160
104,76,49365,5,0,0:0:0:0:
104,76,49803,1,0,0:0:0:0:
120,224,50241,1,0,0:0:0:0:
120,224,50679,1,0,0:0:0:0:
288,196,51116,2,0,P|348:164|340:76,1,160
196,152,51992,2,0,P|200:232|280:300,2,160
408,80,53306,5,0,0:0:0:0:
376,316,53744,1,0,0:0:0:0:
248,188,54182,1,0,0:0:0:0:
248,188,54620,2,0,P|248:136|428:180,1,320
440,156,55934,1,0,0:0:0:0:
440,156,56372,2,0,P|404:248|200:224,1,320
256,196,57686,1,0,0:0:0:0:
88,248,58124,2,0,P|76:208|268:120,2,320
256,184,60314,5,0,0:0:0:0:
256,184,60752,1,0,0:0:0:0:
76,216,61189,2,0,P|84:152|160:76,1,160
336,136,62284,2,0,P|400:112|376:228,1,240
72,120,63379,2,0,B|60:184|160:128|224:100|224:320|312:308|344:272,1,320
440,216,64693,2,0,P|452:148|384:72,1,160
256,152,65569,2,0,P|244:196|444:288,1,320
256,184,66883,5,0,0:0:0:0:
88,228,67321,2,0,P|84:168|172:108,1,160
444,252,68197,2,0,P|440:180|376:116,2,160
240,296,69511,2,0,P|200:256|356:152,1,320
344,224,70825,2,0,P|404:180|376:76,1,160
192,208,71700,2,0,P|184:136|272:96,2,160
352,268,73233,2,0,B|348:192|380:140|292:92|196:120,1,240
448,244,74328,1,0,0:0:0:0:
448,244,74766,2,0,P|460:164|380:104,1,160
308,192,75642,2,0,P|296:132|352:52,1,160
120,288,76518,6,0,P|108:216|244:280,1,320
400,248,77832,2,0,P|416:192|352:96,1,160
152,224,78708,2,0,P|144:172|228:92,2,160
288,172,80022,2,0,L|452:160,1,160
447,160,80679,2,0,P|448:260|388:296,1,160
256,192,81335,12,0,84839,0:0:0:0:
112,224,85058,5,0,0:0:0:0:
112,224,85277,2,0,P|100:156|184:112,1,160
232,196,85934,1,0,0:0:0:0:
232,196,86153,2,0,P|272:160|244:64,1,160
356,184,86810,1,0,0:0:0:0:
356,184,87029,2,0,P|344:248|408:308,1,160
244,216,87686,1,0,0:0:0:0:
244,216,87905,2,0,P|232:164|304:72,1,160
256,192,88562,12,0,91846,0:0:0:0:
144,272,92065,5,0,0:0:0:0:
144,272,92284,2,0,P|128:228|176:128,1,160
236,212,92941,1,0,0:0:0:0:
236,212,93160,2,0,P|276:160|264:52,1,160
408,180,93817,1,0,0:0:0:0:
408,180,94036,2,0,P|420:244|364:328,1,160
328,240,94693,1,0,0:0:0:0:
328,240,94912,2,0,P|320:168|360:76,1,160
44,168,97102,5,0,0:0:0:0:
148,212,97540,2,0,P|188:212|252:112,2,160
331,94,98854,2,0,P|347:134|471:150,1,160
64,130,99730,2,0,P|96:72|304:96,1,280
288,172,100934,2,0,P|356:168|380:168,1,80
276,80,101372,1,0,0:0:0:0:
276,80,101591,2,0,L|380:76,1,80
164,164,102248,6,0,P|172:248|252:256,2,160
88,108,104109,5,0,0:0:0:0:
88,108,104547,1,0,0:0:0:0:
88,108,104985,2,0,P|112:132|240:88,1,160
328,128,105861,2,0,P|383:214|459:214,2,160
252,192,107613,1,0,0:0:0:0:
260,96,108051,2,0,L|344:96,1,80
388,272,108927,2,0,P|432:208|400:132,2,160
328,188,110241,2,0,P|312:140|388:48,1,160
88,84,111116,5,0,0:0:0:0:
164,148,111554,2,0,L|256:148,1,80
200,276,112211,2,0,P|276:252|312:80,1,240
232,148,113306,2,0,P|144:160|104:248,1,160
432,76,114182,5,0,0:0:0:0:
432,76,114620,1,0,0:0:0:0:
448,192,115058,2,0,L|368:192,1,80
240,200,115715,2,0,P|264:300|392:304,1,240
376,236,116810,2,0,P|356:160|272:100,2,160
96,104,118124,5,0,0:0:0:0:
188,164,118562,2,0,L|280:160,1,80
284,276,119219,2,0,P|372:228|344:92,1,240
240,180,120314,2,0,P|232:96|316:48,1,160
120,276,121189,2,0,P|80:208|120:116,2,160
240,236,122503,1,0,0:0:0:0:
240,236,122941,2,0,P|296:200|296:96,1,160
408,64,123817,6,0,P|416:84|340:192,1,160
260,112,124693,2,0,P|248:152|444:248,1,320
120,220,126007,5,0,0:0:0:0:
120,220,126445,2,0,P|116:152|312:120,1,320
236,200,127759,1,0,0:0:0:0:
236,200,128197,2,0,P|292:240|440:92,1,320
256,184,129511,1,0,0:0:0:0:
388,280,129949,2,0,P|416:204|252:72,2,320
256,184,132138,5,0,0:0:0:0:
256,184,132357,1,0,0:0:0:0:
256,184,132576,1,0,0:0:0:0:
92,184,133014,2,0,P|100:132|212:68,1,160
164,272,133890,1,0,0:0:0:0:
212,192,134328,2,0,P|264:168|296:68,1,160
380,56,135204,2,0,B|464:140|272:196|496:288|264:324,1,320
252,188,136518,1,0,0:0:0:0:
252,188,136956,1,0,0:0:0:0:
104,96,137394,2,0,P|84:176|264:272,1,320
256,184,138708,5,0,0:0:0:0:
100,204,139146,2,0,P|84:120|144:76,1,160
400,240,140022,2,0,P|424:176|388:80,2,160
248,224,141335,2,0,P|244:160|136:252,1,320
420,276,142649,2,0,P|436:204|416:104,1,160
276,200,143525,2,0,P|260:116|312:56,2,160
76,324,145058,2,0,B|212:300|112:156|316:188|264:240,1,240
68,172,146153,1,0,0:0:0:0:
68,172,146591,2,0,P|84:100|184:56,1,160
208,164,147467,6,0,P|264:136|304:48,1,160
340,248,148343,2,0,P|304:204|460:168,1,320
184,128,149657,2,0,P|144:192|196:288,1,160
324,236,150533,6,0,P|376:256|460:200,2,160
124,196,151846,2,0,P|176:160|280:172,1,160
276,168,152503,2,0,P|300:240|220:300,1,160
256,192,153270,12,0,156664,0:0:0:0:
120,240,156883,5,0,0:0:0:0:
120,240,157102,2,0,P|112:168|156:72,1,160
240,168,157759,1,0,0:0:0:0:
240,168,157978,2,0,P|264:240|244:332,1,160
368,204,158635,1,0,0:0:0:0:
368,204,158854,2,0,P|352:144|388:44,1,160
472,136,159511,1,0,0:0:0:0:
472,136,159730,2,0,P|496:216|472:300,1,160
256,192,160606,12,0,163671,0:0:0:0:
112,216,163890,5,0,0:0:0:0:
112,216,164109,2,0,P|104:128|144:56,1,160
232,152,164766,1,0,0:0:0:0:
232,152,164985,2,0,P|232:236|196:332,1,160
340,184,165642,1,0,0:0:0:0:
340,184,165861,2,0,P|328:120|376:24,1,160
428,144,166518,1,0,0:0:0:0:
428,144,166737,2,0,P|428:252|416:312,1,160
256,192,167503,12,0,170679,0:0:0:0:
104,88,170897,5,0,0:0:0:0:
104,88,171116,2,0,P|100:168|108:260,1,160
232,160,171773,1,0,0:0:0:0:
232,160,171992,2,0,P|244:240|232:336,1,160
324,68,172649,1,0,0:0:0:0:
324,68,172868,2,0,P|328:188|340:248,1,160
440,144,173525,1,0,0:0:0:0:
440,144,173744,2,0,P|440:208|428:308,1,160
256,192,174511,12,0,177686,0:0:0:0:
112,80,177905,5,0,0:0:0:0:
112,80,178124,2,0,P|100:160|120:252,1,160
240,304,178781,1,0,0:0:0:0:
240,304,179000,2,0,P|252:240|244:112,1,160
344,60,179657,1,0,0:0:0:0:
344,60,179876,2,0,P|344:144|352:256,1,160
456,152,180533,1,0,0:0:0:0:
456,152,180752,2,0,P|468:240|460:324,1,160
260,192,181627,5,0,0:0:0:0:
260,192,182065,1,0,0:0:0:0:
260,192,182284,1,0,0:0:0:0:
260,192,182503,1,0,0:0:0:0:
88,148,182941,2,0,P|88:212|176:256,1,160
260,192,183817,5,0,0:0:0:0:
260,192,184036,1,0,0:0:0:0:
260,192,184255,1,0,0:0:0:0:
256,300,184693,1,0,0:0:0:0:
104,212,185131,6,0,P|104:168|200:108,2,160
252,188,186445,1,0,0:0:0:0:
284,296,186883,2,0,P|388:296|428:228,2,160
120,128,188197,6,0,P|140:196|232:208,1,160
256,184,189073,1,0,0:0:0:0:
256,184,189292,1,0,0:0:0:0:
256,184,189511,1,0,0:0:0:0:
384,256,189949,1,0,0:0:0:0:
384,256,190387,1,0,0:0:0:0:
384,84,190824,5,0,0:0:0:0:
328,112,191043,1,0,0:0:0:0:
280,124,191262,1,0,0:0:0:0:
132,252,191700,1,0,0:0:0:0:
124,184,192138,6,0,P|112:136|204:88,2,160
256,188,193452,1,0,0:0:0:0:
312,272,193890,2,0,P|368:236|360:124,2,160
256,184,195204,5,0,0:0:0:0:
256,184,195642,1,0,0:0:0:0:
72,204,196080,1,0,0:0:0:0:
72,204,196518,2,0,P|84:140|296:120,1,320
256,256,197832,1,0,0:0:0:0:
256,256,198270,2,0,P|336:264|404:68,1,320
256,188,199584,1,0,0:0:0:0:
108,272,200022,2,0,P|76:152|224:56,2,320
256,184,202211,5,0,0:0:0:0:
256,184,202430,1,0,0:0:0:0:
256,184,202649,1,0,0:0:0:0:
344,272,203087,6,0,P|408:228|392:120,1,160
312,192,203963,1,0,0:0:0:0:
312,192,204182,1,0,0:0:0:0:
312,192,204401,2,0,P|316:132|408:88,1,160
104,44,205277,2,0,B|108:112|180:112|56:160|232:176|0:240|216:312,1,320
232,200,206591,2,0,P|232:144|324:92,1,160
448,92,207467,2,0,P|448:176|272:320,1,320
256,184,208781,1,0,0:0:0:0:
120,256,209219,6,0,P|108:192|144:96,1,160
256,208,210095,2,0,P|280:144|264:52,2,160
96,208,211408,2,0,P|48:240|168:248,1,320
188,168,212722,2,0,P|188:120|296:76,1,160
312,200,213598,2,0,P|380:188|420:92,2,160
72,320,215131,2,0,B|92:192|152:140|172:240|280:216|228:180,1,240
80,188,216226,1,0,0:0:0:0:
80,188,216664,2,0,P|96:128|196:104,1,160
200,192,217540,2,0,P|272:176|308:96,1,160
436,88,218416,6,0,B|432:132|288:176|392:328|232:312,1,320
100,208,219730,2,0,P|88:156|176:112,1,160
244,200,220606,2,0,P|296:184|332:84,2,160
64,240,221919,2,0,L|100:64,1,160
96,83,222576,2,0,P|176:88|316:176,1,240
256,184,224547,5,0,0:0:0:0:
256,192,224985,12,0,228489,0:0:0:0:
116,92,228708,5,0,0:0:0:0:
116,92,228927,6,0,P|104:144|128:248,1,160
232,160,229584,1,0,0:0:0:0:
232,160,229803,2,0,P|244:236|224:332,1,160
340,56,230460,1,0,0:0:0:0:
340,56,230679,2,0,P|328:144|348:216,1,160
428,152,231335,1,0,0:0:0:0:
428,152,231554,2,0,P|448:212|428:320,1,160
256,192,232211,12,0,235496,0:0:0:0:
100,84,235715,5,0,0:0:0:0:
100,84,235934,2,0,P|76:156|92:252,1,160
196,172,236591,1,0,0:0:0:0:
196,172,236810,2,0,P|180:244|128:320,1,160
312,60,237467,1,0,0:0:0:0:
312,60,237686,2,0,P|296:132|312:236,1,160
428,172,238343,1,0,0:0:0:0:
428,172,238562,2,0,P|436:240|408:328,1,160
84,248,239438,6,0,P|80:200|168:104,1,160
208,240,240314,2,0,P|256:212|300:104,1,160
196,120,241189,2,0,P|220:68|324:56,1,160
300,168,242065,2,0,P|380:156|456:88,1,160
100,84,242722,5,0,0:0:0:0:
100,84,242941,2,0,P|96:136|104:256,1,160
208,168,243598,1,0,0:0:0:0:
208,168,243817,2,0,P|204:224|168:328,1,160
304,56,244474,1,0,0:0:0:0:
304,56,244693,2,0,P|292:124|304:240,1,160
408,168,245350,1,0,0:0:0:0:
408,168,245569,2,0,P|408:224|392:336,1,160
80,236,246445,6,0,P|100:180|208:112,1,160
216,224,247321,2,0,P|288:188|340:100,1,160
384,256,248197,2,0,P|420:184|504:136,1,160
296,140,249073,2,0,P|264:152|160:264,1,160
88,72,249730,5,0,0:0:0:0:
88,72,249949,2,0,P|88:124|172:184,1,160
196,88,250606,1,0,0:0:0:0:
196,88,250824,2,0,P|248:124|260:220,1,160
136,184,251481,1,0,0:0:0:0:
136,184,251700,2,0,P|140:240|256:272,1,160
232,188,252357,1,0,0:0:0:0:
232,188,252576,2,0,P|320:232|332:312,1,160
256,192,253343,12,0,256518,0:0:0:0:
100,104,256737,5,0,0:0:0:0:
100,104,256956,2,0,P|100:160|128:272,1,160
220,208,257613,1,0,0:0:0:0:
220,208,257832,2,0,P|232:136|208:48,1,160
336,144,258489,1,0,0:0:0:0:
336,144,258708,2,0,P|320:216|356:296,1,160
424,212,259365,1,0,0:0:0:0:
424,212,259584,2,0,P|440:136|408:64,1,160
256,192,260350,12,0,263525,0:0:0:0:
92,100,263744,5,0,0:0:0:0:
92,100,263963,2,0,P|124:76|256:88,1,160
168,168,264620,1,0,0:0:0:0:
168,168,264839,2,0,P|204:192|300:116,1,160
396,132,265496,1,0,0:0:0:0:
396,132,265715,2,0,P|396:200|320:256,1,160
300,152,266372,1,0,0:0:0:0:
300,152,266591,2,0,P|240:200|232:280,1,160
256,192,267248,12,0,270533,0:0:0:0:
60,212,270970,6,0,P|76:148|176:112,2,160
264,184,272284,1,0,0:0:0:0:
336,276,272722,2,0,P|408:252|420:144,2,160
72,104,274036,5,0,0:0:0:0:
112,152,274255,1,0,0:0:0:0:
168,180,274474,1,0,0:0:0:0:
260,208,274693,1,0,0:0:0:0:
260,208,274912,2,0,B|356:212|352:192,2,80
356,72,275788,6,0,L|444:72,2,80
456,168,276445,2,0,L|376:192,1,80
379,190,276883,1,0,0:0:0:0:
379,190,277102,1,0,0:0:0:0:
96,120,277540,5,0,0:0:0:0:
144,156,277759,1,0,0:0:0:0:
204,180,277978,1,0,0:0:0:0:
224,76,278197,1,0,0:0:0:0:
224,76,278416,2,0,L|320:76,2,80
456,88,279292,5,0,0:0:0:0:
424,132,279511,1,0,0:0:0:0:
368,164,279730,1,0,0:0:0:0:
324,188,279949,1,0,0:0:0:0:
276,208,280168,1,0,0:0:0:0:
232,224,280387,1,0,0:0:0:0:
176,228,280606,2,0,P|128:228|184:64,1,320
60,268,281919,5,0,0:0:0:0:
224,144,282357,2,0,P|280:120|264:284,1,320
204,60,283671,5,0,0:0:0:0:
104,120,284109,2,0,P|84:168|256:184,1,320
256,192,285423,5,0,0:0:0:0:
204,104,285861,2,0,P|296:64|340:236,1,320
256,192,287175,1,0,0:0:0:0:
256,192,287613,1,0,0:0:0:0:
