osu file format v7

[General]
AudioFilename: Juanes - A Dios le Pido (Gens) [Music].mp3
AudioLeadIn: 0
PreviewTime: 78158
Countdown: 0
SampleSet: Soft
StackLeniency: 0.6
Mode: 0
LetterboxInBreaks: 1

[Editor]
Bookmarks: 19859,42745,64395,79240,99189,118828,141096,155941,175735
DistanceSpacing: 0
BeatDivisor: 4
GridSize: 8

[Metadata]
Title:A Dios le Pido
Artist:Juanes
Creator:Gens
Version:Facil
Source:
Tags:Un Dia Normal collab #spanish Neo Adonis Lizbeth Lumiere Lissette Beuchi-chan darck360 sesito71

[Difficulty]
HPDrainRate:2
CircleSize:4
OverallDifficulty:1
SliderMultiplier:0.999999999999999
SliderTickRate:2

[Events]
//Background and Video events
0,0,"Juanes - A Dios le Pido (Gens) [Background].png"
//Break Periods
2,42481,62869
2,119182,139570
//Storyboard Layer 0 (Background)
//Storyboard Layer 1 (Fail)
//Storyboard Layer 2 (Pass)
//Storyboard Layer 3 (Foreground)
//Storyboard Sound Samples
//Background Colour Transformations
3,100,0,128,255

[TimingPoints]
220,618.556701030928,4,2,0,70,1,0
26663,-100,4,1,0,70,0,0
27900,-100,4,2,0,70,0,0
31611,-100,4,1,0,70,0,0
32848,-100,4,2,0,70,0,0
36560,-100,4,1,0,70,0,0
37797,-100,4,2,0,70,0,0
41508,-100,4,1,0,70,0,0
64395,-100,4,1,0,70,0,0
77230,-200,4,1,0,70,0,0
79704,-100,4,2,0,70,0,0
99189,-100,4,1,0,70,0,0
99652,-100,4,2,0,70,0,0
118982,-100,4,1,0,70,0,0
156405,-100,4,2,0,70,0,0
175890,-100,4,1,0,70,0,0

[HitObjects]
32,32,20013,5,4
83,112,20477,2,0,B|256:72|256:152|430:112,1,350,2|0
456,248,23261,6,0,B|416:264|376:248,1,74.9999999999999,0|8
304,208,24189,2,2,B|256:184|208:208,2,99.9999999999999,0|2|4
256,8,26817,6,4,B|256:112,1,99.9999999999999
328,192,28055,5,8
184,192,28673,1,2
328,192,29292,1,8
256,280,29910,2,4,B|152:280,1,99.9999999999999
256,8,31766,6,4,B|256:112,1,99.9999999999999
184,192,33004,5,8
328,192,33622,1,2
184,192,34241,1,8
256,272,34859,2,4,B|360:272,2,99.9999999999999,4|4|12
256,372,36714,6,4,B|256:272,1,99.9999999999999
328,192,37952,5,8
184,192,38570,1,2
328,192,39189,1,8
256,96,39807,2,4,B|152:96,2,99.9999999999999,4|4|12
392,96,41663,6,4,B|456:96|456:168,1,99.9999999999999
65,125,64549,6,4,B|169:125|169:125|217:125|256:88,1,200,4|2
368,56,66405,1,2
445,126,67024,6,0,B|342:126|342:126|294:126|256:88,1,200,4|2
144,152,68879,1,2
96,272,69498,6,0,B|96:304|96:304|96:320|112:320|112:320|254:320,1,200,4|2
256,192,71354,1,2
257,63,71972,6,0,B|400:63|400:63|416:63|416:79|416:79|416:112,1,200,4|2
256,192,73828,1,2
256,192,74446,1,4
256,192,75683,12,0,78158
256,40,79395,5,0
144,120,80013,6,0,B|144:224,2,99.9999999999999,8|2|8
256,40,81869,1,4
256,176,82488,6,0,B|256:280,2,99.9999999999999,8|2|8
256,40,84343,1,4
368,120,84962,6,0,B|368:224,2,99.9999999999999,8|2|8
256,40,86817,1,4
120,40,87436,6,0,B|16:40,1,99.9999999999999,8|2
160,112,88673,2,0,B|264:112,1,99.9999999999999,4|4
192,192,89910,6,0,B|128:192|128:192|112:192|112:176|112:176|112:160,2,99.9999999999999,8|2|8
256,296,91766,1,4
320,192,92384,6,0,B|384:192|384:192|400:192|400:208|400:208|400:224,2,99.9999999999999,8|2|8
256,88,94240,1,4
200,194,94859,6,8,B|200:288|312:288|312:191,1,200
256,88,96714,1,4
256,88,97333,6,8,B|256:288,1,200
184,192,99189,5,4
328,192,99807,1,8
306,55,100426,2,2,B|202:55,1,99.9999999999999,2|10
328,192,101663,6,0,B|320:304|216:352,2,200,0|8|4
184,192,104756,1,8
206,55,105375,2,2,B|310:55,1,99.9999999999999,2|10
184,192,106612,2,0,B|192:304|296:352,2,200,0|8|4
64,128,109704,5,8
184,64,110323,1,2
304,128,110941,1,8
184,192,111560,2,4,B|184:296,1,99.9999999999999,4|8
256,192,112797,2,2,B|256:88,2,99.9999999999999,2|2|6
448,128,114652,5,8
328,64,115271,1,2
208,128,115889,1,8
328,192,116508,2,4,B|328:296,1,99.9999999999999,4|8
256,192,117745,12,4,118982
256,40,141250,6,0,B|152:40,1,99.9999999999999,4|8
256,40,142488,2,2,B|360:40,1,99.9999999999999,2|10
256,112,143725,6,0,B|200:112|152:128,1,99.9999999999999,4|8
256,112,144962,2,2,B|312:112|360:128,1,99.9999999999999,2|10
256,184,146199,6,0,B|200:184|160:224,1,99.9999999999999,4|8
256,184,147436,2,2,B|312:184|352:224,1,99.9999999999999,2|10
256,256,148673,6,0,B|200:272|200:336,1,99.9999999999999,4|8
256,256,149910,2,2,B|312:272|312:336,2,99.9999999999999,2|10|4
256,192,152384,12,0,154859
256,344,156096,5,0
368,264,156714,6,0,B|368:160,2,99.9999999999999,8|2|8
256,344,158570,1,4
256,208,159189,6,0,B|256:104,2,99.9999999999999,8|2|8
256,344,161044,1,4
144,264,161663,6,0,B|144:160,2,99.9999999999999,8|2|8
256,344,163518,1,4
392,344,164137,6,0,B|496:344,1,99.9999999999999,8|2
352,272,165374,2,0,B|248:272,1,99.9999999999999,4|4
320,192,166611,6,0,B|384:192|384:192|400:192|400:208|400:208|400:224,2,99.9999999999999,8|2|8
256,88,168467,1,4
192,192,169085,6,0,B|128:192|128:192|112:192|112:176|112:176|112:160,2,99.9999999999999,8|2|8
256,296,170941,1,4
312,190,171560,6,8,B|312:96|200:96|200:193,1,200
256,296,173415,1,4
256,296,174034,6,8,B|256:88,1,200
256,96,175890,1,4
