osu file format v5

[General]
AudioFilename: Jozin z Bazin.mp3
AudioLeadIn: 0
PreviewTime: -1
Countdown: 1
SampleSet: Normal

[Metadata]
Title:Jozin z Bazin
Artist:
Creator:Colek
Version:Hard

[Difficulty]
HPDrainRate:8
CircleSize:7
OverallDifficulty:8
SliderMultiplier:1.4
SliderTickRate:1

[Events]
//Background and Video events
0,0,"z4761211X.jpg"
//Break Periods
//Storyboard Layer 0 (Background)
//Storyboard Layer 1 (Failing)
//Storyboard Layer 2 (Passing)
//Storyboard Layer 3 (Foreground)
//Storyboard Sound Samples
//Background Colour Transformations
3,100,163,162,255

[TimingPoints]
902,350.212601736483,4,1,0,100

[HitObjects]
256,192,902,1,0
256,96,1252,1,0
256,32,1952,1,0
256,256,2653,1,0
256,352,3353,1,0
256,192,4053,1,0
256,96,4754,1,0
256,32,5454,1,0
288,160,6505,5,0
224,160,7205,1,0
256,224,7556,1,0
256,288,8256,1,0
256,160,8606,1,0
256,96,9307,5,0
256,32,10007,1,0
256,192,10357,1,0
256,224,11058,1,0
256,288,11758,5,0
192,256,12108,1,0
320,256,12809,1,0
256,224,13859,5,0
256,160,14560,1,0
256,96,14910,1,0
256,64,15260,1,0
256,224,16311,5,0
256,192,16661,1,0
192,160,17361,1,0
320,160,18062,1,0
256,192,19113,5,0
192,160,19463,1,0
320,160,20163,1,0
256,224,20513,1,0
256,256,21214,1,0
256,288,21564,1,0
256,96,22615,2,0,B|32:96,15,140
256,160,28919,1,0
256,96,29619,1,0
256,32,29969,1,0
352,128,30319,1,0
160,128,31020,1,0
256,192,31720,1,0
256,192,32771,5,0
256,128,33121,1,0
256,64,33471,1,0
256,32,33821,1,0
320,32,34522,1,0
192,32,35222,1,0
256,96,35923,1,0
256,160,36273,1,0
256,224,36623,1,0
256,288,37324,1,0
256,320,37674,1,0
256,352,38024,1,0
160,160,39425,5,0
320,160,39775,1,0
256,160,40476,1,0
192,160,41176,1,0
256,192,41526,1,0
256,256,42227,1,0
256,288,42577,1,0
256,192,43978,5,0
256,128,44328,1,0
256,64,44678,1,0
256,32,45379,1,0
256,96,46079,1,0
256,128,46429,1,0
256,192,46779,1,0
256,192,48180,5,0
192,192,48530,1,0
320,192,49231,1,0
256,128,49931,1,0
256,256,50281,1,0
256,192,50982,1,0
192,192,51332,1,0
320,192,52033,1,0
256,128,52383,1,0
256,192,53083,1,0
256,256,53433,1,0
256,192,54484,5,0
256,160,54834,1,0
256,128,55535,1,0
256,96,55885,1,0
256,64,56585,1,0
256,32,57286,1,0
288,32,57636,1,0
224,32,58336,1,0
256,64,58687,1,0
256,96,59387,1,0
256,128,59737,1,0
256,160,60438,1,0
256,192,60788,1,0
256,192,61488,5,0
256,160,62189,1,0
256,128,62539,1,0
192,128,63239,1,0
320,128,63940,1,0
256,160,64290,1,0
256,224,64990,1,0
256,288,65691,1,0
256,320,66041,1,0
224,320,66741,1,0
288,320,67442,1,0
256,256,68142,1,0
256,192,68493,1,0
256,128,68843,1,0
256,96,69543,5,0
256,128,70244,1,0
256,192,70594,1,0
256,160,71294,1,0
256,256,71995,1,0
256,192,72345,1,0
192,224,72695,1,0
320,224,73396,1,0
224,160,74096,1,0
288,160,74446,1,0
256,96,75147,1,0
256,224,75497,1,0
256,160,76197,1,0
256,64,76898,1,0
256,32,77598,1,0
256,128,78298,1,0
256,192,78649,1,0
192,192,79349,1,0
288,192,79699,1,0
256,160,80400,1,0
256,128,80750,1,0
256,64,81100,1,0
256,32,81801,1,0
128,96,82501,1,0
384,96,82851,1,0
288,256,83902,1,0
224,256,84602,1,0
256,320,85303,1,0
256,256,85653,1,0
256,224,86353,1,0
256,192,87404,12,0,88805
160,160,89155,1,0
352,160,89856,1,0
256,192,90906,1,0
256,256,91607,1,0
256,320,91957,1,0
256,352,92657,1,0
256,160,93007,1,0
256,96,93708,1,0
256,32,94058,1,0
32,32,95809,6,0,B|512:384,1,560
256,192,99661,5,0
288,128,100012,1,0
224,128,101062,1,0
224,96,101763,1,0
256,96,102463,1,0
288,96,102813,1,0
256,64,103164,1,0
256,160,103864,1,0
256,224,104564,1,0
256,256,104915,1,0
256,288,105265,1,0
256,192,105965,1,0
256,128,106315,1,0
256,96,106666,1,0
256,64,107016,1,0
256,32,107716,1,0
256,192,108417,1,0
224,160,108767,1,0
288,160,109467,1,0
256,192,110168,5,0
256,128,110868,1,0
192,128,111218,1,0
320,128,111919,1,0
256,128,112619,5,0
256,96,112970,1,0
320,96,113670,1,0
224,96,114020,1,0
288,128,114721,1,0
256,160,115071,1,0
224,160,115421,1,0
352,192,115771,1,0
256,192,116822,5,0
256,128,117172,1,0
192,128,117873,1,0
320,128,118223,1,0
256,192,118923,1,0
256,128,119273,1,0
256,64,119974,1,0
256,32,120674,1,0
256,192,121375,5,0
288,192,121725,1,0
224,192,122425,1,0
256,224,123826,1,0
256,160,124176,1,0
256,128,124877,1,0
256,96,125227,1,0
256,160,126628,5,0
288,192,126978,1,0
224,192,127678,1,0
256,224,128029,1,0
256,160,129079,1,0
256,128,130130,5,0
256,96,130830,1,0
256,64,131181,1,0
256,32,131531,1,0
256,160,132231,5,0
288,96,132932,1,0
224,96,133632,1,0
256,160,133982,1,0
256,224,134333,1,0
224,288,134683,1,0
320,288,135383,1,0
256,320,135733,1,0
256,256,136434,1,0
256,224,136784,1,0
256,160,137134,1,0
64,128,138185,5,0
256,128,138535,1,0
480,128,139235,1,0
288,128,139936,1,0
256,128,140286,1,0
224,128,140987,1,0
256,192,144138,12,0,147290
256,32,148341,6,0,B|256:384|256:352,3,280
