osu file format v14

[General]
AudioFilename: 02.Miracle Fancy.mp3
AudioLeadIn: 1500
PreviewTime: 48556
Countdown: 0
SampleSet: Soft
StackLeniency: 0.7
Mode: 0
LetterboxInBreaks: 0
WidescreenStoryboard: 0

[Editor]
DistanceSpacing: 1.5
BeatDivisor: 4
GridSize: 4
TimelineZoom: 1

[Metadata]
Title:Miracle Fancy feat. LamazeP
TitleUnicode:ミラクルファンシー feat. ラマーズP
Artist:Jouhou Shoribu
ArtistUnicode:情報処理部
Creator:Setz
Version:Insane
Source:YUYUSHIKI
Tags:ゆゆ式 nonohara yuzuko ichii yui hinata yukari ookubo rumi tsuda minami taneda risa 大久保瑠美 津田美波 種田梨沙 No_Dap
BeatmapID:561412
BeatmapSetID:243368

[Difficulty]
HPDrainRate:7
CircleSize:4
OverallDifficulty:8
ApproachRate:9
SliderMultiplier:1.8
SliderTickRate:1

[Events]
//Background and Video events
0,0,"YBG2.png",0,0
//Break Periods
//Storyboard Layer 0 (Background)
//Storyboard Layer 1 (Fail)
//Storyboard Layer 2 (Pass)
//Storyboard Layer 3 (Foreground)
//Storyboard Sound Samples

[TimingPoints]
557,333.333333333333,4,2,2,90,1,0
557,-142.857142857143,4,2,2,90,0,0
4723,-142.857142857143,4,2,2,80,0,0
5890,-100,4,2,3,80,0,0
6056,-100,4,2,2,80,0,0
10890,-100,4,2,2,80,0,0
16306,-100,4,2,2,50,0,0
16556,-125,4,2,3,65,0,0
16723,-125,4,2,2,65,0,0
26556,-111.111111111111,4,2,2,80,0,0
26890,-111.111111111111,4,2,2,35,0,0
27223,-111.111111111111,4,2,2,80,0,0
27306,-111.111111111111,4,2,2,80,0,0
31890,-111.111111111111,4,2,2,35,0,0
32140,-111.111111111111,4,2,2,80,0,0
36723,-100,4,2,3,80,0,0
36806,-100,4,2,2,80,0,0
47056,-100,4,2,3,80,0,0
47223,-100,4,2,2,80,0,0
48223,-100,4,2,2,50,0,0
48556,-100,4,2,2,80,0,1
53223,-100,4,2,2,50,0,1
53556,-100,4,2,2,80,0,1
53806,-100,4,2,2,80,0,0
53890,-100,4,2,2,80,0,1
58556,-100,4,2,2,50,0,1
59140,-100,4,2,3,80,0,0
59223,-100,4,2,2,80,0,1
63890,-100,4,2,2,50,0,1
64223,-100,4,2,2,80,0,1
64473,-100,4,2,2,80,0,0
64556,-100,4,2,2,80,0,1
68556,-125,4,2,2,80,0,1
69556,-125,4,2,3,80,0,1
69640,-125,4,2,2,80,0,1
69890,-100,4,2,2,80,0,0
74556,-100,4,2,2,40,0,0
74890,-100,4,2,2,80,0,0
80223,-100,4,2,2,50,0,0
80556,-142.857142857143,4,2,3,80,0,0
80640,-142.857142857143,4,2,2,80,0,0
85723,-142.857142857143,4,2,3,80,0,0
85890,-142.857142857143,4,2,1,10,0,0

[Colours]
Combo1 : 128,0,255
Combo2 : 255,128,255
Combo3 : 18,124,255
Combo4 : 242,24,57
Combo5 : 255,192,0

[HitObjects]
161,152,557,5,2,0:0:0:0:
75,339,723,1,2,0:0:0:0:
351,152,3223,5,2,0:0:0:0:
437,339,3389,1,2,0:0:0:0:
13,125,4390,6,0,P|78:114|141:131,1,125.999996154785,2|2,0:0|0:0,0:0:0:0:
242,181,4890,1,2,0:0:0:0:
337,277,5057,1,2,0:0:0:0:
317,141,5223,1,2,0:0:0:0:
253,263,5390,1,2,0:0:0:0:
376,202,5557,1,2,0:0:0:0:
284,339,5723,1,2,0:0:0:0:
242,181,5890,6,0,P|227:139|245:84,1,90,4|0,0:0|0:0,0:0:0:0:
394,25,6223,2,0,P|403:68|388:110,1,90,8|0,0:0|0:0,0:0:0:0:
243,181,6557,1,2,0:0:0:0:
115,85,6723,1,2,0:0:0:0:
202,274,6890,1,8,0:0:0:0:
287,86,7057,6,0,P|380:83|454:128,1,180,2|0,0:0|0:0,0:0:0:0:
504,221,7557,2,0,P|503:272|475:311,1,90,8|0,0:0|0:0,0:0:0:0:
353,367,7890,1,2,0:0:0:0:
291,175,8057,1,2,0:0:0:0:
160,330,8223,1,10,0:0:0:0:
160,330,8557,6,0,P|111:323|66:301,1,90,2|0,0:0|0:0,0:0:0:0:
90,140,8890,2,0,P|134:148|173:168,1,90,8|0,0:0|0:0,0:0:0:0:
257,293,9223,1,2,0:0:0:0:
394,152,9390,1,2,0:0:0:0:
425,343,9557,1,8,0:0:0:0:
280,200,9723,6,0,P|198:164|109:161,1,180,2|0,0:0|0:0,0:0:0:0:
48,251,10223,2,0,P|92:268|148:262,1,90,8|0,0:0|0:0,0:0:0:0:
280,200,10557,1,10,0:0:0:0:
134,266,10723,1,10,0:0:0:0:
86,23,10890,1,10,0:0:0:0:
86,23,11223,6,0,L|69:121,1,90,2|0,0:0|0:0,0:0:0:0:
144,225,11557,2,0,L|158:315,1,90,8|0,0:0|0:0,0:0:0:0:
261,256,11890,1,2,0:0:0:0:
49,300,12057,1,2,0:0:0:0:
125,106,12223,1,8,0:0:0:0:
206,313,12390,6,0,P|284:337|392:304,1,180,2|0,0:0|0:0,0:0:0:0:
454,237,12890,2,0,P|472:189|460:142,1,90,8|0,0:0|0:0,0:0:0:0:
369,46,13223,1,2,0:0:0:0:
240,200,13390,1,2,0:0:0:0:
176,11,13557,1,10,0:0:0:0:
176,11,13890,6,0,P|163:58|175:113,1,90,2|0,0:0|0:0,0:0:0:0:
281,240,14223,2,0,P|286:195|273:152,1,90,8|0,0:0|0:0,0:0:0:0:
106,270,14556,1,2,0:0:0:0:
169,98,14723,1,2,0:0:0:0:
281,240,14890,1,8,0:0:0:0:
379,42,15057,6,0,P|417:134|407:222,1,180,2|0,0:0|0:0,0:0:0:0:
367,311,15557,1,8,0:0:0:0:
281,240,15723,1,0,0:0:0:0:
194,362,15890,2,0,P|148:379|102:379,1,90,2|0,0:0|0:0,0:0:0:0:
58,263,16223,1,2,0:0:0:0:
48,223,16307,1,8,0:0:0:0:
52,182,16390,1,8,0:0:0:0:
62,142,16473,1,8,0:0:0:0:
82,108,16557,6,0,P|116:95|158:94,1,72,4|0,0:0|0:0,0:0:0:0:
284,173,16890,2,0,P|250:186|215:189,1,72,0|0,0:0|0:0,0:0:0:0:
354,64,17223,2,0,L|380:139,1,72
416,240,17557,1,2,0:0:0:0:
252,97,17723,1,2,0:0:0:0:
252,97,17890,6,0,P|180:67|109:94,1,144
41,149,18390,1,2,0:0:0:0:
98,312,18557,1,0,0:0:0:0:
135,139,18723,1,0,0:0:0:0:
5,256,18890,1,2,0:0:0:0:
177,235,19057,1,0,0:0:0:0:
212,64,19223,6,0,P|283:37|359:57,1,144,2|0,0:0|0:0,0:0:0:0:
390,157,19723,2,0,P|390:194|402:238,1,72,0|2,0:0|0:0,0:0:0:0:
500,364,20057,2,0,P|498:328|488:292,1,72
389,157,20390,6,0,P|327:130|252:145,1,144,2|0,0:0|0:0,0:0:0:0:
153,203,20890,2,0,L|134:284,1,72
194,374,21223,1,2,0:0:0:0:
269,219,21390,1,0,0:0:0:0:
300,329,21557,1,0,0:0:0:0:
152,203,21723,1,0,0:0:0:0:
300,329,21890,6,0,P|371:355|442:346,1,144,2|0,0:0|0:0,0:0:0:0:
499,250,22390,2,0,P|508:212|501:176,1,72
380,55,22723,2,0,P|371:93|378:129,1,72,0|2,0:0|0:0,0:0:0:0:
498,250,23057,1,2,0:0:0:0:
498,250,23223,6,0,P|447:307|377:333,1,144
273,356,23723,1,2,0:0:0:0:
189,203,23890,1,0,0:0:0:0:
164,315,24057,1,0,0:0:0:0:
213,93,24223,1,2,0:0:0:0:
294,227,24390,1,0,0:0:0:0:
164,315,24557,6,0,P|126:332|83:331,1,72
25,181,24890,2,0,P|63:164|106:165,1,72
226,245,25223,2,0,P|262:243|294:227,1,72,2|0,0:0|0:0,0:0:0:0:
371,141,25557,1,0,0:0:0:0:
336,336,25723,6,0,P|268:365|189:369,1,144,2|8,0:0|0:0,0:0:0:0:
85,356,26223,2,0,P|72:319|75:272,1,72
103,178,26557,1,8,0:0:0:0:
103,178,26723,1,8,0:0:0:0:
194,245,26890,1,8,0:3:0:0:
194,245,27057,1,8,0:3:0:0:
294,55,27223,6,0,P|361:8|438:20,1,161.999995056153,4|8,0:0|0:0,0:0:0:0:
386,117,27723,1,0,0:0:0:0:
289,176,27890,1,0,0:0:0:0:
383,238,28057,1,0,0:0:0:0:
295,55,28223,1,8,0:0:0:0:
229,288,28390,6,0,P|162:335|85:323,1,161.999995056153,2|0,0:0|0:0,0:0:0:0:
50,216,28890,2,0,L|35:119,1,80.9999975280763,8|2,0:0|0:0,0:0:0:0:
100,41,29223,1,0,0:0:0:0:
140,242,29390,1,0,0:0:0:0:
196,65,29557,1,8,0:0:0:0:
51,216,29723,1,0,0:0:0:0:
197,65,29890,6,0,P|261:29|356:39,1,161.999995056153,2|8,0:0|0:0,0:0:0:0:
454,72,30390,1,0,0:0:0:0:
322,157,30557,2,0,L|331:238,1,80.9999975280763,2|0,0:0|0:0,0:0:0:0:
429,182,30890,1,8,0:0:0:0:
223,172,31057,6,0,L|240:336,1,161.999995056153,2|0,0:0|0:0,0:0:0:0:
133,371,31557,2,0,P|90:369|51:345,1,80.9999975280763,8|0,0:0|0:0,0:0:0:0:
27,240,31890,1,8,0:0:0:0:
187,195,32057,1,8,0:0:0:0:
86,143,32223,1,8,0:0:0:0:
137,298,32390,1,0,0:0:0:0:
230,63,32557,6,0,P|313:44|387:59,1,161.999995056153,2|8,0:0|0:0,0:0:0:0:
487,112,33057,1,0,0:0:0:0:
391,171,33223,1,0,0:0:0:0:
290,117,33390,1,0,0:0:0:0:
235,268,33557,1,8,0:0:0:0:
131,116,33723,1,2,0:0:0:0:
130,116,33890,6,0,P|102:197|133:275,1,161.999995056153,0|8,0:0|0:0,0:0:0:0:
199,353,34390,1,2,0:0:0:0:
254,190,34557,1,0,0:0:0:0:
303,292,34723,1,0,0:0:0:0:
175,116,34890,2,0,P|166:74|174:22,1,80.9999975280763,8|0,0:0|0:0,0:0:0:0:
254,190,35223,6,0,P|218:221|110:199,1,161.999995056153,2|8,0:0|0:0,0:0:0:0:
31,123,35723,1,0,0:0:0:0:
103,35,35890,1,2,0:0:0:0:
113,202,36057,1,0,0:0:0:0:
176,116,36223,1,8,0:0:0:0:
227,321,36390,2,0,P|265:325|314:303,1,80.9999975280763,2|0,0:0|0:0,0:0:0:0:
414,114,36723,1,6,0:0:0:0:
175,33,37057,5,0,0:0:0:0:
175,33,37140,1,0,0:0:0:0:
175,34,37223,1,0,0:0:0:0:
60,88,37390,1,0,0:0:0:0:
113,202,37557,1,0,0:0:0:0:
150,188,37640,1,0,0:0:0:0:
190,192,37723,1,0,0:0:0:0:
228,205,37807,1,0,0:0:0:0:
263,223,37890,6,0,P|308:236|374:227,1,90,4|0,0:0|0:0,0:0:0:0:
419,113,38223,2,0,P|374:100|308:109,1,90,8|0,0:0|0:0,0:0:0:0:
193,339,38557,2,0,P|238:352|304:343,1,90,2|0,0:0|0:0,0:0:0:0:
391,310,38890,1,8,0:0:0:0:
247,59,39057,6,0,P|199:148|229:232,1,180,2|0,0:0|0:0,0:0:0:0:
330,158,39557,1,8,0:0:0:0:
247,59,39723,1,0,0:0:0:0:
233,241,39890,1,2,0:0:0:0:
134,149,40057,1,0,0:0:0:0:
326,66,40223,1,8,0:0:0:0:
326,66,40557,6,0,L|317:155,1,90,2|0,0:0|0:0,0:0:0:0:
224,330,40890,2,0,L|233:241,1,90,8|0,0:0|0:0,0:0:0:0:
183,37,41223,2,0,L|174:126,1,90,2|0,0:0|0:0,0:0:0:0:
83,9,41557,1,8,0:0:0:0:
19,251,41723,6,0,P|101:299|192:248,1,180,2|0,0:0|0:0,0:0:0:0:
114,107,42223,2,0,P|102:153|105:196,1,90,8|0,0:0|0:0,0:0:0:0:
216,360,42557,1,2,0:0:0:0:
305,171,42723,1,2,0:0:0:0:
175,204,42890,1,10,0:0:0:0:
344,331,43057,1,2,0:0:0:0:
449,162,43223,6,0,P|451:117|439:74,1,90,4|0,0:0|0:0,0:0:0:0:
270,21,43557,2,0,P|267:65|279:108,1,90,8|0,0:0|0:0,0:0:0:0:
405,246,43890,2,0,P|451:256|499:242,1,90,2|0,0:0|0:0,0:0:0:0:
449,107,44223,1,8,0:0:0:0:
293,290,44390,1,2,0:0:0:0:
294,290,44723,5,0,0:0:0:0:
310,173,44890,1,8,0:0:0:0:
374,344,45057,1,0,0:0:0:0:
230,212,45223,1,2,0:0:0:0:
422,167,45390,1,0,0:0:0:0:
293,290,45557,2,0,P|249:299|197:283,1,90,8|0,0:0|0:0,0:0:0:0:
362,229,45890,6,0,P|382:303|316:379,1,180,2|8,0:0|0:0,0:0:0:0:
203,372,46390,1,0,0:0:0:0:
93,330,46556,2,0,B|149:241|40:241|98:154,1,180,0|8,0:0|0:0,0:0:0:0:
180,17,47057,1,4,0:0:0:0:
180,17,47390,6,0,L|210:111,1,90,2|2,0:0|0:0,0:0:0:0:
308,26,47723,1,2,0:0:0:0:
90,48,47890,2,0,L|120:142,1,90,2|2,0:0|0:0,0:0:0:0:
178,244,48223,1,8,0:0:0:0:
214,228,48307,1,8,0:0:0:0:
254,223,48390,1,8,0:0:0:0:
293,232,48473,1,8,0:0:0:0:
330,246,48557,6,0,P|373:257|433:246,1,90,4|0,0:0|0:0,0:0:0:0:
475,119,48890,2,0,P|432:108|372:119,1,90,8|0,0:0|0:0,0:0:0:0:
205,226,49223,2,0,P|248:237|293:232,1,90
143,94,49557,2,0,P|98:88|55:99,1,90,8|2,0:0|0:0,0:0:0:0:
12,319,49890,5,0,0:0:0:0:
129,207,50057,1,2,0:0:0:0:
141,361,50223,1,8,0:0:0:0:
26,211,50390,1,2,0:0:0:0:
143,94,50557,2,0,P|183:74|238:71,1,90
280,299,50890,2,0,P|240:319|185:322,1,90,8|0,0:0|0:0,0:0:0:0:
226,70,51223,6,0,P|270:74|310:94,1,90,2|0,0:0|0:0,0:0:0:0:
416,179,51557,1,8,0:0:0:0:
357,300,51723,1,0,0:0:0:0:
152,184,51890,2,0,L|142:94,1,90,2|0,0:0|0:0,0:0:0:0:
274,125,52223,1,8,0:0:0:0:
65,200,52390,6,0,L|44:17,1,180,2|0,0:0|0:0,0:0:0:0:
152,184,52890,1,8,0:0:0:0:
241,285,53057,1,2,0:0:0:0:
362,227,53223,1,8,0:0:0:0:
362,227,53307,1,8,0:0:0:0:
362,227,53390,1,8,0:0:0:0:
152,92,53556,2,0,P|143:48|155:4,1,90,10|8,0:0|0:0,0:0:0:0:
222,185,53890,5,4,0:0:0:0:
63,293,54057,1,0,0:0:0:0:
222,320,54223,1,8,0:0:0:0:
92,185,54390,1,0,0:0:0:0:
220,48,54557,2,0,P|269:29|319:32,1,90,2|0,0:0|0:0,0:0:0:0:
448,39,54890,1,8,0:0:0:0:
488,168,55057,6,0,P|498:255|448:332,1,180,2|0,0:0|0:0,0:0:0:0:
363,224,55557,1,8,0:0:0:0:
324,48,55723,1,0,0:0:0:0:
185,88,55890,2,0,P|178:132|186:176,1,90,2|0,0:0|0:0,0:0:0:0:
363,248,56223,1,8,0:0:0:0:
363,248,56557,5,2,0:0:0:0:
300,88,56723,1,0,0:0:0:0:
233,246,56890,1,8,0:0:0:0:
390,160,57057,1,0,0:0:0:0:
312,341,57223,2,0,P|228:369|146:337,1,180,2|8,0:0|0:0,0:0:0:0:
233,223,57723,1,2,0:0:0:0:
313,320,58057,6,0,P|229:348|147:316,1,180,2|0,0:0|0:0,0:0:0:0:
234,202,58557,1,8,0:0:0:0:
220,21,58723,1,8,0:0:0:0:
336,159,58890,1,8,0:0:0:0:
162,116,59057,1,8,0:0:0:0:
329,48,59223,6,0,P|375:35|419:40,1,90,4|0,0:0|0:0,0:0:0:0:
437,251,59556,2,0,P|405:220|387:180,1,90,8|0,0:0|0:0,0:0:0:0:
300,297,59890,2,0,P|288:343|261:378,1,90,0|0,0:0|0:0,0:0:0:0:
136,150,60223,2,0,P|180:147|223:159,1,90,8|2,0:0|0:0,0:0:0:0:
202,294,60556,1,0,0:0:0:0:
351,204,60723,5,2,0:0:0:0:
368,340,60890,1,8,0:0:0:0:
471,239,61057,1,2,0:0:0:0:
319,277,61223,1,0,0:0:0:0:
366,127,61390,1,0,0:0:0:0:
285,301,61557,2,0,P|233:301|199:282,1,90,8|0,0:0|0:0,0:0:0:0:
336,97,61890,6,0,P|376:77|420:79,1,90,2|0,0:0|0:0,0:0:0:0:
403,222,62223,1,8,0:0:0:0:
286,301,62390,1,0,0:0:0:0:
150,305,62557,2,0,L|171:217,1,90,2|0,0:0|0:0,0:0:0:0:
286,301,62890,1,8,0:0:0:0:
70,280,63057,6,0,L|111:103,1,180,2|0,0:0|0:0,0:0:0:0:
204,202,63557,1,8,0:0:0:0:
332,162,63723,1,2,0:0:0:0:
244,59,63890,1,10,0:0:0:0:
241,269,64056,1,8,0:0:0:0:
159,60,64223,2,0,P|201:46|243:59,1,90,10|8,0:0|0:0,0:0:0:0:
89,160,64557,5,4,0:0:0:0:
189,316,64723,1,0,0:0:0:0:
236,136,64890,1,8,0:0:0:0:
340,281,65056,1,0,0:0:0:0:
163,148,65223,2,0,P|153:102|163:49,1,90,0|2,0:0|0:0,0:0:0:0:
118,247,65557,1,8,0:0:0:0:
203,346,65723,6,0,P|286:378|372:341,1,180,2|0,0:0|0:0,0:0:0:0:
464,251,66223,1,8,0:0:0:0:
349,137,66390,1,0,0:0:0:0:
203,346,66557,2,0,P|154:356|105:346,1,90,2|2,0:0|0:0,0:0:0:0:
154,220,66890,2,0,L|154:122,1,90,8|0,0:0|0:0,0:0:0:0:
267,56,67223,5,0,0:0:0:0:
306,44,67307,1,0,0:0:0:0:
346,47,67390,1,0,0:0:0:0:
384,60,67473,1,0,0:0:0:0:
416,84,67557,2,0,L|435:175,1,90,0|0,0:0|0:0,0:0:0:0:
320,277,67890,2,0,L|301:188,1,90,0|0,0:0|0:0,0:0:0:0:
267,56,68223,1,0,0:0:0:0:
227,44,68307,1,0,0:0:0:0:
186,47,68390,1,0,0:0:0:0:
68,81,68557,6,0,P|46:151|73:225,1,144,2|2,0:0|0:0,0:0:0:0:
144,309,69056,1,2,0:0:0:0:
262,361,69223,1,0,0:0:0:0:
381,313,69390,1,2,0:0:0:0:
446,209,69557,2,0,P|452:173|448:125,1,72,4|0,0:0|0:0,0:0:0:0:
257,182,69890,6,0,P|242:224|260:279,1,90,4|0,0:0|0:0,0:0:0:0:
397,356,70223,2,0,P|406:313|391:271,1,90,8|0,0:0|0:0,0:0:0:0:
257,182,70557,1,2,0:0:0:0:
130,278,70723,1,2,0:0:0:0:
217,89,70890,1,8,0:0:0:0:
302,277,71057,6,0,P|403:282|469:227,1,180,2|0,0:0|0:0,0:0:0:0:
360,158,71557,2,0,P|359:107|331:68,1,90,8|0,0:0|0:0,0:0:0:0:
302,277,71890,1,2,0:0:0:0:
223,177,72057,1,2,0:0:0:0:
373,372,72223,1,10,0:0:0:0:
373,372,72557,6,0,P|324:365|279:343,1,90,2|0,0:0|0:0,0:0:0:0:
362,197,72890,2,0,P|406:205|445:225,1,90,8|0,0:0|0:0,0:0:0:0:
230,257,73223,1,2,0:0:0:0:
362,97,73390,1,2,0:0:0:0:
384,303,73557,1,8,0:0:0:0:
230,130,73723,6,0,P|136:117|71:168,1,180,2|0,0:0|0:0,0:0:0:0:
6,273,74223,2,0,P|50:290|106:284,1,90,8|0,0:0|0:0,0:0:0:0:
280,201,74557,1,10,0:0:0:0:
93,288,74723,1,10,0:0:0:0:
86,23,74890,1,10,0:0:0:0:
86,23,75223,6,0,P|130:21|172:38,1,90,2|0,0:0|0:0,0:0:0:0:
219,197,75557,2,0,P|174:198|132:181,1,90,8|0,0:0|0:0,0:0:0:0:
86,23,75890,1,0,0:0:0:0:
219,197,76057,1,0,0:0:0:0:
256,62,76223,1,8,0:0:0:0:
54,160,76390,6,0,P|28:244|58:331,1,180,2|2,0:0|0:0,0:0:0:0:
157,366,76890,2,0,P|200:376|256:368,1,90,8|0,0:0|0:0,0:0:0:0:
209,242,77223,1,2,0:0:0:0:
370,130,77390,1,2,0:0:0:0:
191,42,77557,1,10,0:0:0:0:
191,42,77890,6,0,P|177:83|183:128,1,90,2|0,0:0|0:0,0:0:0:0:
324,215,78223,2,0,P|336:171|331:126,1,90,8|0,0:0|0:0,0:0:0:0:
191,42,78557,1,2,0:0:0:0:
324,215,78723,1,2,0:0:0:0:
184,216,78890,1,8,0:0:0:0:
331,44,79057,6,0,P|430:82|445:161,1,180,2|0,0:0|0:0,0:0:0:0:
440,253,79557,1,8,0:0:0:0:
360,325,79723,1,0,0:0:0:0:
266,367,79890,2,0,P|221:376|167:362,1,90
87,306,80223,1,8,0:0:0:0:
69,269,80307,1,8,0:0:0:0:
63,229,80390,1,8,0:0:0:0:
66,188,80473,1,8,0:0:0:0:
86,153,80557,5,4,0:0:0:0:
0,340,80723,1,2,0:0:0:0:
426,153,83223,5,2,0:0:0:0:
512,340,83389,1,2,0:0:0:0:
129,337,84390,6,0,P|191:346|247:320,1,125.999996154785,2|0,0:0|0:0,0:0:0:0:
175,234,84890,1,2,0:0:0:0:
287,123,85057,1,2,0:0:0:0:
129,146,85223,1,2,0:0:0:0:
129,146,85307,1,0,0:0:0:0:
129,146,85390,1,0,0:0:0:0:
271,221,85557,1,2,0:0:0:0:
200,78,85723,1,6,0:0:0:0:
256,192,85890,12,0,86890,0:0:0:0:
