osu file format v14

[General]
AudioFilename: 02.Miracle Fancy.mp3
AudioLeadIn: 1500
PreviewTime: 48556
Countdown: 0
SampleSet: Soft
StackLeniency: 0.7
Mode: 0
LetterboxInBreaks: 0
WidescreenStoryboard: 0

[Editor]
DistanceSpacing: 1.3
BeatDivisor: 4
GridSize: 4
TimelineZoom: 1

[Metadata]
Title:Miracle Fancy feat. LamazeP
TitleUnicode:ミラクルファンシー feat. ラマーズP
Artist:Jouhou Shoribu
ArtistUnicode:情報処理部
Creator:Setz
Version:Hard
Source:YUYUSHIKI
Tags:ゆゆ式 nonohara yuzuko ichii yui hinata yukari ookubo rumi tsuda minami taneda risa 大久保瑠美 津田美波 種田梨沙 No_Dap
BeatmapID:594991
BeatmapSetID:243368

[Difficulty]
HPDrainRate:6
CircleSize:4
OverallDifficulty:7
ApproachRate:8
SliderMultiplier:1.5
SliderTickRate:1

[Events]
//Background and Video events
0,0,"YBG2.png",0,0
//Break Periods
//Storyboard Layer 0 (Background)
//Storyboard Layer 1 (Fail)
//Storyboard Layer 2 (Pass)
//Storyboard Layer 3 (Foreground)
//Storyboard Sound Samples

[TimingPoints]
557,333.333333333333,4,2,2,90,1,0
557,-100,4,2,2,90,0,0
4723,-100,4,2,2,80,0,0
5890,-100,4,2,3,80,0,0
6056,-100,4,2,2,80,0,0
10890,-100,4,2,2,80,0,0
16306,-100,4,2,2,50,0,0
16556,-111.111111111111,4,2,3,65,0,0
16723,-125,4,2,2,65,0,0
26556,-125,4,2,2,80,0,0
26890,-125,4,2,2,35,0,0
27223,-105.263157894737,4,2,2,80,0,0
27306,-111.111111111111,4,2,2,80,0,0
31890,-111.111111111111,4,2,2,35,0,0
32140,-111.111111111111,4,2,2,80,0,0
36723,-100,4,2,3,80,0,0
36806,-100,4,2,2,80,0,0
47056,-100,4,2,3,80,0,0
47223,-100,4,2,2,80,0,0
48390,-100,4,2,2,20,0,0
48556,-100,4,2,2,80,0,1
53223,-100,4,2,2,50,0,1
53556,-100,4,2,2,80,0,1
53806,-100,4,2,2,80,0,0
53890,-100,4,2,2,80,0,1
58556,-100,4,2,2,50,0,1
59140,-100,4,2,3,80,0,0
59223,-100,4,2,2,80,0,1
64473,-100,4,2,2,80,0,0
64556,-100,4,2,2,80,0,1
68556,-111.111111111111,4,2,2,80,0,1
69556,-111.111111111111,4,2,3,80,0,1
69640,-125,4,2,2,80,0,1
69890,-100,4,2,2,80,0,0
74890,-100,4,2,2,80,0,0
80223,-100,4,2,2,50,0,0
80556,-100,4,2,3,80,0,0
80640,-100,4,2,2,80,0,0
85723,-100,4,2,3,80,0,0
85890,-100,4,2,1,10,0,0

[Colours]
Combo1 : 128,0,255
Combo2 : 255,128,255
Combo3 : 18,124,255
Combo4 : 242,24,57
Combo5 : 255,192,0

[HitObjects]
101,314,557,5,2,0:0:0:0:
101,314,723,1,2,0:0:0:0:
411,70,3223,5,2,0:0:0:0:
411,70,3389,1,2,0:0:0:0:
122,314,4390,6,0,P|100:240|125:169,1,150,2|2,0:0|0:0,0:0:0:0:
191,115,4890,2,0,P|200:78|193:35,1,75,2|2,0:0|0:0,0:0:0:0:
233,189,5223,2,0,P|242:226|235:269,1,75,2|2,0:0|0:0,0:0:0:0:
272,116,5556,2,0,P|310:101|359:98,1,75,2|2,0:0|0:0,0:0:0:0:
433,82,5890,6,0,L|443:173,1,75,4|0,0:0|0:0,0:0:0:0:
409,241,6223,2,0,L|419:332,1,75,8|0,0:0|0:0,0:0:0:0:
347,372,6556,1,2,0:0:0:0:
265,332,6723,1,2,0:0:0:0:
212,258,6890,1,8,0:0:0:0:
163,333,7056,6,0,P|123:264|145:199,1,150,2|0,0:0|0:0,0:0:0:0:
202,134,7556,2,0,P|238:121|275:121,1,75,8|0,0:0|0:0,0:0:0:0:
363,144,7890,2,0,P|362:103|347:68,1,75,2|2,0:0|0:0,0:0:0:0:
299,215,8223,1,10,0:0:0:0:
162,333,8556,6,0,P|126:340|87:333,1,75,2|0,0:0|0:0,0:0:0:0:
52,250,8890,2,0,P|88:243|125:250,1,75,8|0,0:0|0:0,0:0:0:0:
211,278,9223,1,2,0:0:0:0:
297,252,9390,1,2,0:0:0:0:
340,173,9556,1,8,0:0:0:0:
283,102,9723,6,0,P|349:82|415:123,1,150,2|0,0:0|0:0,0:0:0:0:
487,174,10223,2,0,P|497:138|494:94,1,75,8|0,0:0|0:0,0:0:0:0:
439,250,10556,2,0,P|429:286|432:330,1,75,10|10,0:0|0:0,0:0:0:0:
378,186,10890,1,10,0:0:0:0:
296,28,11223,6,0,L|283:101,1,75,2|0,0:0|0:0,0:0:0:0:
232,176,11556,2,0,P|266:190|321:184,1,75,8|0,0:0|0:0,0:0:0:0:
391,165,11890,1,2,0:0:0:0:
477,189,12056,1,2,0:0:0:0:
450,275,12223,1,8,0:0:0:0:
384,337,12390,6,0,B|371:352|356:366|356:366|305:366|271:350|242:365,1,150,2|0,0:0|0:0,0:0:0:0:
158,347,12890,2,0,L|141:268,1,75,8|0,0:0|0:0,0:0:0:0:
104,191,13223,2,0,L|121:112,1,75,2|2,0:0|0:0,0:0:0:0:
45,253,13556,1,10,0:0:0:0:
7,76,13890,6,0,P|41:60|84:61,1,75,2|0,0:0|0:0,0:0:0:0:
167,63,14223,2,0,P|200:67|248:54,1,75,8|0,0:0|0:0,0:0:0:0:
326,31,14556,1,2,0:0:0:0:
399,83,14723,1,2,0:0:0:0:
342,153,14890,1,8,0:0:0:0:
402,218,15056,6,0,P|326:240|266:198,1,150,2|0,0:0|0:0,0:0:0:0:
205,140,15556,2,0,P|171:120|124:122,1,75,8|0,0:0|0:0,0:0:0:0:
47,137,15890,2,0,P|32:173|33:220,1,75,2|0,0:0|0:0,0:0:0:0:
59,294,16223,2,0,L|30:318,2,37.5,2|8|8,0:0|0:0|0:0,0:0:0:0:
146,300,16556,6,0,P|179:308|235:302,1,67.4999979400635,4|0,0:0|0:0,0:0:0:0:
290,295,16890,2,0,P|349:286|417:310,1,120,0|0,0:0|0:0,0:0:0:0:
476,335,17390,2,0,L|491:263,1,60,0|2,0:0|0:0,0:0:0:0:
492,198,17723,1,2,0:0:0:0:
461,126,17890,6,0,P|402:94|344:91,1,120
272,95,18390,1,2,0:0:0:0:
214,147,18556,2,0,L|214:218,1,60,0|0,0:0|0:0,0:0:0:0:
140,235,18890,2,0,L|139:165,1,60,0|0,0:0|0:0,0:0:0:0:
84,289,19223,6,0,P|130:310|198:284,1,120,2|0,0:0|0:0,0:0:0:0:
259,247,19723,2,0,P|293:241|332:244,1,60,0|2,0:0|0:0,0:0:0:0:
396,249,20056,2,0,P|423:250|466:238,1,60,0|0,0:0|0:0,0:0:0:0:
499,177,20390,6,0,P|505:116|467:58,1,120,2|0,0:0|0:0,0:0:0:0:
411,24,20890,1,0,0:0:0:0:
345,65,21056,1,0,0:0:0:0:
273,96,21223,2,0,L|204:96,1,60,2|0,0:0|0:0,0:0:0:0:
144,135,21556,2,0,L|84:135,1,60,0|0,0:0|0:0,0:0:0:0:
210,187,21890,6,0,P|269:198|336:183,1,120,2|0,0:0|0:0,0:0:0:0:
399,156,22390,2,0,L|419:218,1,60,0|0,0:0|0:0,0:0:0:0:
378,280,22723,2,0,L|358:342,1,60,0|2,0:0|0:0,0:0:0:0:
285,362,23056,1,2,0:0:0:0:
210,338,23223,6,0,P|155:323|81:331,1,120,0|0,0:0|0:0,0:0:0:0:
16,345,23723,1,2,0:0:0:0:
38,270,23890,2,0,L|36:202,1,60,0|0,0:0|0:0,0:0:0:0:
102,144,24223,2,0,L|103:84,1,60,2|0,0:0|0:0,0:0:0:0:
109,219,24556,6,0,B|126:248|160:266,1,60,0|0,0:0|0:0,0:0:0:0:
224,289,24890,2,0,P|255:292|289:300,1,60,0|0,0:0|0:0,0:0:0:0:
359,315,25223,1,2,0:0:0:0:
435,332,25390,2,0,P|468:320|493:303,1,60,0|0,0:0|0:0,0:0:0:0:
499,228,25723,6,0,L|497:107,1,120,2|8,0:0|0:0,0:0:0:0:
463,37,26223,2,0,P|433:30|396:30,1,60,0|0,0:0|0:0,0:0:0:0:
324,33,26556,1,8,0:0:0:0:
256,70,26723,1,8,0:0:0:0:
314,121,26890,1,8,0:3:0:0:
246,158,27056,1,8,0:3:0:0:
308,216,27223,6,0,P|260:242|174:205,1,142.49999619484,4|8,0:0|0:0,0:0:0:0:
145,141,27723,2,0,L|134:68,1,67.4999979400635,0|0,0:0|0:0,0:0:0:0:
57,50,28056,2,0,L|69:127,1,67.4999979400635,0|8,0:0|0:0,0:0:0:0:
79,197,28390,6,0,B|91:216|108:231|108:231|136:231|168:217|200:231,1,134.999995880127,2|0,0:0|0:0,0:0:0:0:
271,261,28890,1,8,0:0:0:0:
352,244,29056,1,2,0:0:0:0:
309,174,29223,2,0,P|303:139|308:103,1,67.4999979400635,0|0,0:0|0:0,0:0:0:0:
396,17,29556,2,0,P|399:50|393:83,1,67.4999979400635,8|0,0:0|0:0,0:0:0:0:
309,174,29890,6,0,P|251:196|180:170,1,134.999995880127,2|8,0:0|0:0,0:0:0:0:
143,103,30390,2,0,P|114:130|104:178,1,67.4999979400635,0|2,0:0|0:0,0:0:0:0:
87,234,30723,2,0,L|88:318,1,67.4999979400635,0|8,0:0|0:0,0:0:0:0:
153,348,31056,6,0,P|225:347|288:358,1,134.999995880127,2|0,0:0|0:0,0:0:0:0:
367,370,31556,2,0,P|403:371|449:355,1,67.4999979400635,8|0,0:0|0:0,0:0:0:0:
466,288,31890,2,0,L|510:293,2,33.7499989700318,8|8|8,0:0|0:0|0:0,0:0:0:0:
403,235,32223,2,0,P|367:234|321:250,1,67.4999979400635,8|0,0:0|0:0,0:0:0:0:
478,180,32556,6,0,P|488:114|462:50,1,134.999995880127,2|8,0:0|0:0,0:0:0:0:
387,24,33056,2,0,P|353:28|311:24,1,67.4999979400635,0|0,0:0|0:0,0:0:0:0:
240,45,33390,2,0,P|206:43|168:48,1,67.4999979400635,0|8,0:0|0:0,0:0:0:0:
96,70,33723,1,0,0:0:0:0:
46,134,33890,6,0,P|59:197|41:273,1,134.999995880127,2|8,0:0|0:0,0:0:0:0:
18,342,34390,1,2,0:0:0:0:
97,328,34556,2,0,L|173:328,1,67.4999979400635,0|0,0:0|0:0,0:0:0:0:
212,248,34890,2,0,L|144:248,1,67.4999979400635,8|0,0:0|0:0,0:0:0:0:
283,203,35223,6,0,B|302:191|317:174|317:174|317:146|303:114|317:82,1,134.999995880127,2|8,0:0|0:0,0:0:0:0:
383,40,35723,1,0,0:0:0:0:
451,83,35890,2,0,P|457:117|459:155,1,67.4999979400635
449,230,36223,1,8,0:0:0:0:
446,311,36390,2,0,P|409:300|384:278,1,67.4999979400635,2|0,0:0|0:0,0:0:0:0:
283,203,36723,1,6,0:0:0:0:
149,39,37056,6,0,P|137:73|141:119,1,75
166,197,37390,1,0,0:0:0:0:
225,264,37556,2,0,P|257:274|312:265,1,75,0|0,0:0|0:0,0:0:0:0:
161,314,37890,6,0,P|96:307|17:271,1,150,4|8,0:0|0:0,0:0:0:0:
9,182,38390,1,0,0:0:0:0:
77,123,38556,2,0,P|119:123|156:106,1,75,0|0,0:0|0:0,0:0:0:0:
227,64,38890,1,8,0:0:0:0:
313,80,39056,6,0,P|345:146|320:230,1,150,2|0,0:0|0:0,0:0:0:0:
285,300,39556,1,8,0:0:0:0:
342,369,39723,1,0,0:0:0:0:
421,326,39890,1,0,0:0:0:0:
421,236,40056,1,0,0:0:0:0:
329,218,40223,2,0,L|240:203,1,75,8|0,0:0|0:0,0:0:0:0:
384,155,40556,6,0,B|377:133|364:114|364:114|337:107|295:113|262:83,1,150,2|8,0:0|0:0,0:0:0:0:
189,37,41056,1,0,0:0:0:0:
99,42,41223,2,0,P|93:80|99:123,1,75,2|0,0:0|0:0,0:0:0:0:
141,194,41556,1,8,0:0:0:0:
82,262,41723,6,0,P|139:285|222:233,1,150,2|0,0:0|0:0,0:0:0:0:
247,163,42223,1,8,0:0:0:0:
275,77,42390,1,0,0:0:0:0:
362,52,42556,2,0,P|369:90|362:127,1,75,2|2,0:0|0:0,0:0:0:0:
277,265,42890,2,0,P|270:227|278:179,1,75,10|2,0:0|0:0,0:0:0:0:
362,52,43223,6,0,P|431:40|498:85,1,150,4|8,0:0|0:0,0:0:0:0:
509,170,43723,1,0,0:0:0:0:
486,257,43890,2,0,P|466:297|433:322,1,75,2|0,0:0|0:0,0:0:0:0:
361,354,44223,1,8,0:0:0:0:
277,319,44390,2,0,P|246:304|200:301,1,75,2|0,0:0|0:0,0:0:0:0:
115,304,44723,6,0,P|77:301|44:285,1,75,0|8,0:0|0:0,0:0:0:0:
31,195,45056,1,2,0:0:0:0:
96,132,45223,2,0,P|133:134|166:150,1,75,0|0,0:0|0:0,0:0:0:0:
249,187,45556,2,0,P|290:195|330:185,1,75,8|0,0:0|0:0,0:0:0:0:
164,238,45890,6,0,P|76:233|29:193,1,150,2|8,0:0|0:0,0:0:0:0:
18,105,46390,1,0,0:0:0:0:
78,38,46556,2,0,P|166:43|213:83,1,150,0|8,0:0|0:0,0:0:0:0:
269,149,47056,1,4,0:0:0:0:
426,61,47390,6,0,P|434:99|426:142,1,75,2|2,0:0|0:0,0:0:0:0:
412,223,47723,1,2,0:0:0:0:
364,299,47890,2,0,P|329:318|282:323,1,75,2|2,0:0|0:0,0:0:0:0:
205,312,48223,2,0,B|168:303|141:272,1,75,2|8,0:0|0:0,0:0:0:0:
127,175,48556,6,0,L|121:99,1,75,4|0,0:0|0:0,0:0:0:0:
195,35,48890,2,0,P|231:28|275:31,1,75,8|0,0:0|0:0,0:0:0:0:
345,90,49223,2,0,L|339:164,1,75,0|0,0:0|0:0,0:0:0:0:
289,248,49556,2,0,L|294:322,1,75,8|2,0:0|0:0,0:0:0:0:
208,370,49890,5,2,0:0:0:0:
116,336,50056,1,0,0:0:0:0:
65,252,50223,2,0,P|57:214|65:166,1,75,8|2,0:0|0:0,0:0:0:0:
130,109,50556,2,0,P|166:104|203:112,1,75,0|0,0:0|0:0,0:0:0:0:
272,182,50890,2,0,P|312:191|348:185,1,75,8|0,0:0|0:0,0:0:0:0:
212,267,51223,6,0,P|130:271|62:251,1,150,2|8,0:0|0:0,0:0:0:0:
14,169,51723,1,0,0:0:0:0:
63,84,51890,2,0,P|101:61|140:58,1,75,2|0,0:0|0:0,0:0:0:0:
228,50,52223,1,8,0:0:0:0:
300,115,52390,6,0,P|370:131|459:114,1,150,2|0,0:0|0:0,0:0:0:0:
501,38,52890,1,8,0:0:0:0:
447,119,53056,1,2,0:0:0:0:
475,212,53223,2,0,L|512:212,2,37.5,8|8|8,0:0|0:0|0:0,0:0:0:0:
362,211,53556,1,10,0:0:0:0:
173,260,53890,6,0,P|182:297|175:340,1,75,4|0,0:0|0:0,0:0:0:0:
215,186,54223,2,0,P|224:149|217:106,1,75,8|0,0:0|0:0,0:0:0:0:
254,259,54556,2,0,P|292:274|341:277,1,75,0|2,0:0|0:0,0:0:0:0:
423,278,54890,1,8,0:0:0:0:
496,214,55056,6,0,P|438:181|358:206,1,150,2|0,0:0|0:0,0:0:0:0:
294,273,55556,2,0,L|292:371,1,75,8|0,0:0|0:0,0:0:0:0:
249,197,55890,2,0,B|240:167|226:148|226:148|194:148|159:166|129:144,1,150,2|8,0:0|0:0,0:0:0:0:
51,323,56556,6,0,P|91:333|127:333,1,75,2|0,0:0|0:0,0:0:0:0:
222,320,56890,1,8,0:0:0:0:
313,287,57056,1,0,0:0:0:0:
394,233,57223,2,0,P|414:163|383:81,1,150,2|8,0:0|0:0,0:0:0:0:
331,13,57723,1,2,0:0:0:0:
151,89,58056,6,0,P|131:159|162:241,1,150,2|0,0:0|0:0,0:0:0:0:
214,309,58556,1,8,0:0:0:0:
304,346,58723,1,8,0:0:0:0:
392,307,58890,2,0,P|397:270|387:211,1,75,8|8,0:0|0:0,0:0:0:0:
377,136,59223,6,0,P|349:106|311:95,1,75,4|0,0:0|0:0,0:0:0:0:
220,88,59556,2,0,P|181:90|137:80,1,75,8|0,0:0|0:0,0:0:0:0:
51,55,59890,2,0,P|32:85|34:134,1,75,0|0,0:0|0:0,0:0:0:0:
106,185,60223,2,0,P|150:192|189:210,1,75,8|2,0:0|0:0,0:0:0:0:
269,238,60556,5,2,0:0:0:0:
365,223,60723,1,2,0:0:0:0:
441,162,60890,2,0,P|457:193|462:236,1,75,8|2,0:0|0:0,0:0:0:0:
401,308,61223,1,0,0:0:0:0:
305,328,61390,1,0,0:0:0:0:
269,238,61556,2,0,L|264:156,1,75,8|0,0:0|0:0,0:0:0:0:
212,311,61890,6,0,P|131:324|65:292,1,150,2|8,0:0|0:0,0:0:0:0:
13,218,62390,1,0,0:0:0:0:
75,143,62556,2,0,P|115:142|154:118,1,75,2|0,0:0|0:0,0:0:0:0:
229,74,62890,1,8,0:0:0:0:
306,15,63056,2,0,P|325:78|278:158,1,150,2|0,0:0|0:0,0:0:0:0:
207,203,63556,2,0,P|171:216|130:214,1,75,8|2,0:0|0:0,0:0:0:0:
49,165,63890,2,0,L|36:77,1,75,8|8,0:0|0:0,0:0:0:0:
22,247,64223,1,10,0:0:0:0:
232,318,64556,6,0,L|314:319,1,75,4|0,0:0|0:0,0:0:0:0:
172,249,64890,2,0,L|94:248,1,75,8|0,0:0|0:0,0:0:0:0:
232,182,65223,2,0,P|269:182|306:183,1,75,0|2,0:0|0:0,0:0:0:0:
404,185,65556,1,8,0:0:0:0:
479,246,65723,6,0,P|419:282|334:255,1,150,2|0,0:0|0:0,0:0:0:0:
308,183,66223,2,0,L|298:93,1,75,8|0,0:0|0:0,0:0:0:0:
265,255,66556,2,0,B|247:277|231:296|231:296|183:287|156:276|133:287,1,150,2|8,0:0|0:0,0:0:0:0:
65,103,67223,6,0,P|101:90|147:101,1,75,0|0,0:0|0:0,0:0:0:0:
227,130,67556,1,0,0:0:0:0:
319,98,67723,1,0,0:0:0:0:
397,39,67890,2,0,P|413:73|413:118,1,75,0|0,0:0|0:0,0:0:0:0:
410,207,68223,2,0,L|457:218,2,37.5,0|0|0,0:0|0:0|0:0,0:0:0:0:
340,260,68556,6,0,P|265:281|194:273,1,134.999995880127,2|2,0:0|0:0,0:0:0:0:
125,249,69056,1,2,0:0:0:0:
64,184,69223,2,0,P|61:148|62:101,1,67.4999979400635,0|2,0:0|0:0,0:0:0:0:
100,37,69556,1,4,0:0:0:0:
280,27,69890,6,0,P|321:27|360:43,1,75,4|0,0:0|0:0,0:0:0:0:
429,84,70223,2,0,P|442:122|439:175,1,75,8|0,0:0|0:0,0:0:0:0:
374,215,70556,1,2,0:0:0:0:
313,144,70723,1,2,0:0:0:0:
280,228,70890,1,8,0:0:0:0:
223,158,71056,6,0,P|190:227|219:293,1,150,2|0,0:0|0:0,0:0:0:0:
295,334,71556,2,0,P|331:347|368:347,1,75,8|0,0:0|0:0,0:0:0:0:
440,292,71890,2,0,L|433:211,1,75,2|2,0:0|0:0,0:0:0:0:
473,363,72223,1,10,0:0:0:0:
295,334,72556,6,0,L|220:334,1,75,2|0,0:0|0:0,0:0:0:0:
131,314,72890,2,0,P|116:277|122:232,1,75,8|0,0:0|0:0,0:0:0:0:
151,158,73223,1,2,0:0:0:0:
218,97,73390,1,2,0:0:0:0:
274,166,73556,1,8,0:0:0:0:
208,228,73723,6,0,P|276:257|343:225,1,150,2|0,0:0|0:0,0:0:0:0:
418,181,74223,2,0,P|428:217|425:261,1,75,8|0,0:0|0:0,0:0:0:0:
350,104,74556,2,0,P|340:68|343:24,1,75,10|10,0:0|0:0,0:0:0:0:
309,169,74890,1,10,0:0:0:0:
249,338,75223,6,0,P|211:348|163:345,1,75,2|0,0:0|0:0,0:0:0:0:
89,319,75556,2,0,P|72:284|74:227,1,75,8|0,0:0|0:0,0:0:0:0:
75,157,75890,1,0,0:0:0:0:
128,84,76056,1,0,0:0:0:0:
206,39,76223,1,8,0:0:0:0:
283,85,76390,6,0,P|308:153|271:236,1,150,2|2,0:0|0:0,0:0:0:0:
217,285,76890,2,0,P|183:302|138:302,1,75,8|0,0:0|0:0,0:0:0:0:
84,238,77223,2,0,L|72:156,1,75,2|2,0:0|0:0,0:0:0:0:
46,314,77556,1,10,0:0:0:0:
217,285,77890,6,0,P|254:284|287:268,1,75,2|0,0:0|0:0,0:0:0:0:
359,211,78223,2,0,L|347:128,1,75,8|0,0:0|0:0,0:0:0:0:
306,57,78556,1,2,0:0:0:0:
220,26,78723,1,2,0:0:0:0:
162,95,78890,1,8,0:0:0:0:
85,141,79056,6,0,P|149:183|220:163,1,150,2|0,0:0|0:0,0:0:0:0:
295,122,79556,2,0,P|332:119|372:131,1,75,8|0,0:0|0:0,0:0:0:0:
451,165,79890,2,0,P|459:203|448:249,1,75,0|0,0:0|0:0,0:0:0:0:
419,322,80223,2,0,L|442:358,2,37.5,8|8|8,0:0|0:0|0:0,0:0:0:0:
374,243,80556,5,4,0:0:0:0:
374,243,80723,1,2,0:0:0:0:
138,141,83223,5,2,0:0:0:0:
138,141,83390,1,2,0:0:0:0:
445,328,84390,6,0,P|371:350|300:325,1,150,2|0,0:0|0:0,0:0:0:0:
246,259,84890,2,0,P|209:250|166:257,1,75,2|2,0:0|0:0,0:0:0:0:
324,213,85223,2,0,L|368:224,2,37.5,2|0|0,0:0|0:0|0:0,0:0:0:0:
247,164,85556,1,2,0:0:0:0:
323,116,85723,1,6,0:0:0:0:
256,192,85890,12,0,86890,0:0:0:0:
