osu file format v12

[General]
AudioFilename: yuyuyu.mp3
AudioLeadIn: 2000
PreviewTime: 66975
Countdown: 0
SampleSet: Soft
StackLeniency: 0.7
Mode: 0
LetterboxInBreaks: 0
WidescreenStoryboard: 0

[Editor]
DistanceSpacing: 1.2
BeatDivisor: 4
GridSize: 4

[Metadata]
Title:Se-no! (TV Size)
TitleUnicode:せーのっ! (TV Size)
Artist:Jouhou Shoribu (Ookubo Rumi, Tsuda Minami, Taneda Risa)
ArtistUnicode:情報処理部 (大久保瑠美、津田美波、種田梨沙)
Creator:alacat
Version:Insane
Source:Yuyushiki
Tags:opening Byakugan249 Gamu kusano manga time kirara
BeatmapID:252065
BeatmapSetID:93256

[Difficulty]
HPDrainRate:6
CircleSize:4
OverallDifficulty:8
ApproachRate:9
SliderMultiplier:1.8
SliderTickRate:2

[Events]
//Background and Video events
0,0,"bg.jpg",0,0
Video,-500,"yuyuyuyuop.flv"
//Break Periods
//Storyboard Layer 0 (Background)
//Storyboard Layer 1 (Fail)
//Storyboard Layer 2 (Pass)
//Storyboard Layer 3 (Foreground)
//Storyboard Sound Samples
//Background Colour Transformations
3,100,0,0,0

[TimingPoints]
83,344.827586206897,4,2,1,60,1,0
83,-125,4,2,1,60,0,0
169,-125,4,2,1,50,0,0
2841,-125,4,2,1,60,0,0
2927,-125,4,2,1,50,0,0
4910,-125,4,2,1,60,0,0
5600,-125,4,2,2,60,0,0
5686,-125,4,2,2,40,0,0
6117,-125,4,2,1,50,0,0
6203,-125,4,2,2,40,0,0
6462,-125,4,2,1,50,0,0
6548,-125,4,2,2,40,0,0
6807,-125,4,2,1,50,0,0
6893,-125,4,2,2,40,0,0
7151,-125,4,2,1,50,0,0
7238,-125,4,2,2,40,0,0
8358,-125,4,2,1,60,0,0
8703,-125,4,2,1,50,0,0
8876,-125,4,2,1,60,0,0
9220,-125,4,2,1,50,0,0
9393,-125,4,2,1,60,0,0
9738,-125,4,2,1,50,0,0
9910,-125,4,2,1,60,0,0
10255,-125,4,2,1,50,0,0
10427,-125,4,2,1,60,0,0
10772,-125,4,2,1,50,0,0
11117,-100,4,2,1,70,0,0
13186,-100,4,2,1,65,0,0
13531,-100,4,2,1,60,0,0
13876,-100,4,2,1,70,0,0
19048,-100,4,2,1,60,0,0
19393,-100,4,2,1,70,0,0
19738,-100,4,2,1,60,0,0
19910,-100,4,2,1,70,0,0
20255,-100,4,2,1,60,0,0
20427,-100,4,2,1,70,0,0
20772,-100,4,2,1,60,0,0
20945,-100,4,2,1,70,0,0
21289,-100,4,2,1,60,0,0
21462,-100,4,2,1,70,0,0
21807,-100,4,2,1,60,0,0
22151,-100,4,2,2,40,0,0
22324,-100,4,2,2,20,0,0
22496,-100,4,2,2,40,0,0
22841,344.827586206897,4,2,1,50,1,0
22927,-100,4,2,3,50,0,0
23531,-100,4,2,1,50,0,0
23617,-100,4,2,3,50,0,0
23962,-100,4,2,1,50,0,0
24307,-100,4,2,3,50,0,0
24910,-100,4,2,1,50,0,0
24997,-100,4,2,3,50,0,0
25600,-100,4,2,1,50,0,0
25859,-100,4,2,3,50,0,0
26117,-100,4,2,1,50,0,0
26376,-100,4,2,3,50,0,0
26979,-100,4,2,1,50,0,0
27066,-100,4,2,3,50,0,0
27669,-100,4,2,1,50,0,0
27928,-100,4,2,3,50,0,0
28445,-100,4,2,1,50,0,0
28617,-100,4,2,3,50,0,0
28876,-100,4,2,1,50,0,0
29135,-100,4,2,3,50,0,0
29738,-100,4,2,1,50,0,0
29824,-100,4,2,3,50,0,0
30428,-100,4,2,1,50,0,0
31462,-100,4,2,3,50,0,0
31807,-100,4,2,1,50,0,0
33014,-100,4,2,1,60,0,0
33876,-100,4,2,1,70,0,0
37152,-100,4,2,1,60,0,0
37842,-100,4,2,1,70,0,0
44566,-100,4,2,1,60,0,0
44910,-125,4,2,1,60,0,0
52496,-125,4,2,1,50,0,0
52582,-125,4,2,1,60,0,0
54392,-125,4,2,1,50,0,0
54478,-125,4,2,1,60,0,0
55945,-100,4,2,1,70,0,0
64221,-100,4,2,1,60,0,0
65428,-100,4,2,1,70,0,0
66117,-166.666666666667,4,2,1,50,0,0
66978,-100,4,2,1,80,0,1
67065,-100,4,2,1,70,0,1
68185,-100,4,2,1,80,0,1
68272,-100,4,2,3,60,0,1
68444,-100,4,2,1,70,0,1
69737,-100,4,2,1,80,0,1
69823,-100,4,2,1,70,0,1
70944,-100,4,2,1,80,0,1
71030,-100,4,2,3,60,0,1
71203,-100,4,2,1,70,0,1
72496,-100,4,2,1,80,0,1
72582,-100,4,2,1,70,0,1
73875,-100,4,2,1,80,0,1
73961,-100,4,2,1,70,0,1
75254,-100,4,2,1,80,0,1
75341,-100,4,2,1,70,0,1
76461,-100,4,2,1,80,0,1
76547,-100,4,2,1,70,0,1
78013,-100,4,2,1,80,0,1
78099,-100,4,2,1,70,0,1
79220,-100,4,2,1,80,0,1
79306,-100,4,2,1,70,0,1
80772,-100,4,2,1,80,0,1
80858,-100,4,2,1,70,0,1
81978,-100,4,2,1,80,0,1
82065,-100,4,2,1,70,0,1
83530,-100,4,2,1,80,0,1
83616,-100,4,2,1,70,0,1
84737,-100,4,2,1,80,0,1
84823,-100,4,2,1,70,0,1
86289,-100,4,2,1,80,0,1
87496,-100,4,2,1,85,0,1
88358,-100,4,2,1,80,0,0

[Colours]
Combo1 : 255,255,162
Combo2 : 255,164,119
Combo3 : 255,155,205
Combo4 : 113,184,255

[HitObjects]
88,304,83,2,0,P|108:232|88:168,1,144,4|2,0:0|0:0,0:0:0:0:
180,40,600,2,0,L|168:112,1,72,0|0,0:0|0:0,0:0:0:0:
232,180,945,2,0,L|244:252,1,72,0|2,0:0|0:0,0:0:0:0:
304,324,1289,2,0,P|376:328|424:280,1,144,0|0,0:0|0:0,0:0:0:0:
460,192,1807,5,2,0:0:0:0:
464,184,2151,1,0,0:0:0:0:
468,176,2496,1,2,0:0:0:0:
472,168,2841,6,0,P|420:124|344:116,1,144,4|2,0:0|0:0,0:0:0:0:
264,44,3358,2,0,P|222:98|218:174,1,144,0|0,0:0|0:0,0:0:0:0:
296,304,3876,1,2,0:0:0:0:
296,304,4048,2,0,L|152:280,1,144
68,228,4565,2,0,P|56:188|56:156,1,72,2|0,0:0|0:0,0:0:0:0:
120,80,4910,1,8,0:0:0:0:
220,104,5083,1,0,0:0:0:0:
220,104,5169,1,0,0:0:0:0:
220,104,5255,1,8,0:0:0:0:
428,296,5600,6,0,P|368:324|296:304,1,144,4|2,0:0|0:0,0:0:0:0:
372,160,6117,2,0,P|368:200|360:232,1,72,2|2,0:0|0:0,0:0:0:0:
204,304,6462,2,0,P|172:316|135:327,1,72,2|2,0:0|0:0,0:0:0:0:
36,288,6807,2,0,P|32:332|24:364,2,72,2|2|2,0:0|0:0|0:0,0:0:0:0:
100,184,7324,5,2,0:0:0:0:
104,176,7669,1,2,0:0:0:0:
108,168,8014,1,4,0:0:0:0:
200,100,8358,6,0,P|236:104|272:100,1,72,4|0,0:0|0:0,0:0:0:0:
356,60,8703,1,2,0:0:0:0:
468,252,8876,2,0,P|432:256|396:252,1,72,4|0,0:0|0:0,0:0:0:0:
312,212,9220,1,2,0:0:0:0:
176,348,9393,2,0,P|172:312|176:276,1,72,4|0,0:0|0:0,0:0:0:0:
216,192,9738,1,2,0:0:0:0:
280,52,9910,2,0,P|284:88|280:124,1,72,4|0,0:0|0:0,0:0:0:0:
216,192,10255,1,2,0:0:0:0:
124,168,10427,2,0,P|68:164|20:184,1,108,4|0,0:0|0:0,0:0:0:0:
8,220,10772,2,0,L|20:292,1,72,8|0,0:0|0:0,0:0:0:0:
148,332,11117,6,0,P|224:289|316:300,1,180,4|8,0:0|0:0,0:0:0:0:
400,348,11634,1,0,0:0:0:0:
488,300,11807,2,0,P|496:256|492:212,1,90,2|0,0:0|0:0,0:0:0:0:
436,128,12151,1,8,0:0:0:0:
344,168,12324,2,0,P|248:152|212:84,1,180,4|0,0:0|0:0,0:0:0:0:
344,168,12841,2,0,L|356:260,1,90,8|0,0:0|0:0,0:0:0:0:
265,348,13186,1,2,0:0:0:0:
142,328,13358,1,0,0:0:0:0:
220,268,13531,1,8,0:0:0:0:
98,248,13703,1,0,0:0:0:0:
20,204,13876,6,0,P|8:160|12:116,2,90,4|0|8,0:0|0:0|0:0,0:0:0:0:
153,176,14393,2,0,P|245:160|313:208,1,180,4|0,0:0|0:0,0:0:0:0:
220,268,14910,1,8,0:0:0:0:
160,152,15083,2,0,P|252:136|320:184,1,180,4|0,0:0|0:0,0:0:0:0:
348,280,15600,1,8,0:0:0:0:
508,340,15772,1,0,0:0:0:0:
444,264,15945,2,0,B|424:176|424:176|440:132,1,135,4|0,0:0|0:0,0:0:0:0:
456,104,16289,2,0,L|444:68,7,22.5,8|0|0|0|0|0|0|0,0:0|0:0|0:0|0:0|0:0|0:0|0:0|0:0,0:0:0:0:
440,60,16634,6,0,P|400:40|356:36,1,90,4|0,0:0|0:0,0:0:0:0:
272,88,16979,1,8,0:0:0:0:
188,144,17151,2,0,L|180:233,1,90,2|0,0:0|0:0,0:0:0:0:
80,66,17496,2,0,L|88:156,1,90,2|8,0:0|0:0,0:0:0:0:
288,192,17841,2,0,P|380:208|444:156,1,180,4|0,0:0|0:0,0:0:0:0:
352,104,18358,1,8,0:0:0:0:
188,144,18531,2,0,B|168:272|168:272|196:316,1,180,4|0,0:0|0:0,0:0:0:0:
312,352,19048,5,2,0:0:0:0:
336,340,19134,1,0,0:0:0:0:
364,336,19220,1,0,0:0:0:0:
392,336,19307,1,0,0:0:0:0:
420,340,19393,2,0,P|448:304|456:260,2,90,4|0|2,0:0|0:0|0:0,0:0:0:0:
332,216,19910,2,0,P|288:204|252:176,1,90,4|0,0:0|0:0,0:0:0:0:
224,84,20255,1,2,0:0:0:0:
136,124,20427,2,0,L|44:124,2,90,4|0|2,0:0|0:0|0:0,0:0:0:0:
328,108,20945,2,0,P|340:60|336:20,1,90,4|0,0:0|0:0,0:0:0:0:
224,84,21289,1,2,0:0:0:0:
176,208,21462,6,0,P|164:300|176:340,1,135,4|0,0:0|0:0,0:0:0:0:
200,368,21807,1,2,0:0:0:0:
296,340,21979,1,2,0:0:0:0:
392,312,22151,2,0,L|484:312,2,90,2|8|8,0:0|0:0|0:0,0:0:0:0:
176,208,22841,6,0,P|156:164|152:120,1,90,2|0,0:0|0:0,0:0:0:0:
220,52,23186,2,0,P|240:96|244:140,1,90,2|0,0:0|0:0,0:0:0:0:
72,56,23531,1,2,0:0:0:0:
36,156,23704,1,0,0:0:0:0:
84,248,23876,2,0,P|160:300|240:280,1,180,2|2,0:0|0:0,0:0:0:0:
308,208,24393,1,0,0:0:0:0:
308,208,24566,6,0,P|352:200|397:199,1,90,2|0,0:0|0:0,0:0:0:0:
232,144,24910,2,0,P|188:136|140:136,1,90,2|0,0:0|0:0,0:0:0:0:
362,288,25255,2,0,P|408:288|452:280,1,90,2|0,0:0|0:0,0:0:0:0:
288,352,25600,6,0,P|196:340|108:352,1,180,2|2,0:0|0:0,0:0:0:0:
0,224,26117,2,0,P|92:236|180:224,1,180,2|0,0:0|0:0,0:0:0:0:
268,184,26635,2,0,P|280:136|272:96,1,90,2|0,0:0|0:0,0:0:0:0:
180,132,26979,1,2,0:0:0:0:
332,264,27152,1,0,0:0:0:0:
432,252,27324,1,2,0:0:0:0:
288,352,27497,5,0,0:0:0:0:
196,312,27669,2,0,P|128:304|64:328,1,135,2|0,0:0|0:0,0:0:0:0:
44,344,28014,2,0,L|60:256,1,90,2|0,0:0|0:0,0:0:0:0:
152,48,28359,6,0,B|132:176|132:176|156:220,1,180,4|2,0:0|0:0,0:0:0:0:
240,296,28876,2,0,B|304:296|304:296|352:312|352:312|420:312,1,180,2|0,0:0|0:0,0:0:0:0:
508,220,29393,2,0,L|418:220,1,90,2|0,0:0|0:0,0:0:0:0:
312,200,29738,1,2,0:0:0:0:
276,100,29910,1,0,0:0:0:0:
380,124,30083,1,2,0:0:0:0:
204,192,30255,5,0,0:0:0:0:
40,304,30428,1,2,0:0:0:0:
124,252,30600,1,0,0:0:0:0:
36,204,30773,1,2,0:0:0:0:
128,348,30945,1,0,0:0:0:0:
216,300,31117,6,0,P|304:288|396:292,1,180,4|2,0:0|0:0,0:0:0:0:
488,256,31635,2,0,P|488:208|481:167,1,90,0|2,0:0|0:0,0:0:0:0:
468,348,31979,1,8,0:0:0:0:
388,204,32152,1,2,0:0:0:0:
296,168,32324,1,0,0:0:0:0:
116,152,32497,1,8,0:0:0:0:
204,192,32669,1,0,0:0:0:0:
204,192,32755,1,0,0:0:0:0:
204,192,32842,1,8,0:0:0:0:
36,204,33014,5,8,0:0:0:0:
116,152,33186,1,0,0:0:0:0:
40,304,33359,1,8,0:0:0:0:
204,192,33531,1,8,0:0:0:0:
24,108,33704,5,0,0:0:0:0:
24,108,33790,1,0,0:0:0:0:
24,108,33876,2,0,B|4:72|4:20,2,90,4|0|8,0:0|0:0|0:0,0:0:0:0:
204,192,34393,2,0,P|296:212|376:188,1,180,2|2,0:0|0:0,0:0:0:0:
472,156,34910,1,8,0:0:0:0:
472,156,35083,2,0,P|472:204|464:245,1,90,2|0,0:0|0:0,0:0:0:0:
412,332,35428,1,2,0:0:0:0:
320,372,35600,5,8,0:0:0:0:
224,344,35773,1,0,0:0:0:0:
224,344,35859,1,0,0:0:0:0:
224,344,35945,2,0,L|132:336,1,90,2|0,0:0|0:0,0:0:0:0:
36,208,36290,2,0,L|125:215,1,90,10|0,0:0|0:0,0:0:0:0:
216,252,36635,6,0,P|264:176|232:100,1,180,4|8,0:0|0:0,0:0:0:0:
140,64,37152,1,2,0:0:0:0:
304,292,37497,1,2,0:0:0:0:
444,48,37842,2,0,P|412:124|460:200,1,180,4|0,0:0|0:0,0:0:0:0:
504,120,38359,1,8,0:0:0:0:
332,68,38531,5,0,0:0:0:0:
332,68,38617,1,0,0:0:0:0:
332,68,38704,2,0,L|240:60,1,90,2|0,0:0|0:0,0:0:0:0:
80,144,39048,1,8,0:0:0:0:
140,64,39221,1,0,0:0:0:0:
156,204,39393,6,0,B|169:300|169:300|192:332,1,135,4|0,0:0|0:0,0:0:0:0:
220,352,39738,1,8,0:0:0:0:
320,312,39910,1,2,0:0:0:0:
368,216,40083,2,0,P|412:248|428:280,1,90,0|2,0:0|0:0,0:0:0:0:
264,228,40428,1,8,0:0:0:0:
264,228,40600,2,0,P|204:160|220:76,1,180,2|2,0:0|0:0,0:0:0:0:
312,20,41117,1,8,0:0:0:0:
416,56,41290,1,0,0:0:0:0:
416,56,41376,1,0,0:0:0:0:
416,56,41462,1,0,0:0:0:0:
420,168,41635,5,2,0:0:0:0:
512,120,41807,1,8,0:0:0:0:
488,252,41979,1,2,0:0:0:0:
368,268,42152,6,0,P|276:268|188:284,1,180,4|8,0:0|0:0,0:0:0:0:
68,320,42669,1,2,0:0:0:0:
60,328,43014,1,2,0:0:0:0:
52,336,43359,2,0,B|32:248|32:248|52:160,1,180,4|0,0:0|0:0,0:0:0:0:
128,96,43876,1,8,0:0:0:0:
224,112,44048,1,0,0:0:0:0:
316,40,44221,1,8,0:0:0:0:
412,56,44393,1,0,0:0:0:0:
480,136,44566,2,0,P|448:200|388:216,1,135,2|0,0:0|0:0,0:0:0:0:
356,200,44910,6,0,L|212:216,1,144,4|0,0:0|0:0,0:0:0:0:
124,188,45428,1,0,0:0:0:0:
124,188,45600,1,8,0:0:0:0:
376,324,45945,1,0,0:0:0:0:
376,324,46117,1,0,0:0:0:0:
460,280,46290,2,0,L|480:136,2,144,2|0|8,0:0|0:0|0:0,0:0:0:0:
256,348,47324,1,0,0:0:0:0:
48,248,47669,6,0,P|120:232|192:244,1,144,4|0,0:0|0:0,0:0:0:0:
384,160,48359,2,0,L|376:232,2,72,8|0|0,0:0|0:0|0:0,0:0:0:0:
344,76,48876,2,0,P|272:52|204:64,1,144,2|0,0:0|0:0,0:0:0:0:
128,116,49393,1,0,0:0:0:0:
44,72,49566,1,0,0:0:0:0:
44,72,49738,2,0,L|24:144,1,72,8|0,0:0|0:0,0:0:0:0:
92,208,50083,2,0,L|72:280,1,72,8|0,0:0|0:0,0:0:0:0:
192,200,50428,6,0,P|268:208|328:180,1,144,4|0,0:0|0:0,0:0:0:0:
396,116,50945,2,0,L|376:44,1,72,0|8,0:0|0:0,0:0:0:0:
472,272,51462,2,0,L|452:344,1,72
284,324,51807,1,2,0:0:0:0:
360,268,51979,1,0,0:0:0:0:
328,180,52152,1,8,0:0:0:0:
236,196,52324,1,0,0:0:0:0:
236,196,52497,2,0,L|164:184,1,72,12|0,0:0|0:0,0:0:0:0:
116,104,52842,2,0,L|44:92,1,72,8|0,0:0|0:0,0:0:0:0:
188,48,53186,6,0,L|336:72,1,144,4|8,0:0|0:0,0:0:0:0:
416,124,53704,2,0,P|432:160|436:192,1,72,2|0,0:0|0:0,0:0:0:0:
504,264,54048,2,0,P|481:296|456:316,1,72,2|8,0:0|0:0,0:0:0:0:
356,292,54393,2,0,P|280:292|220:320,1,144,4|0,0:0|0:0,0:0:0:0:
219,320,54910,1,8,0:0:0:0:
292,63,55255,1,2,0:0:0:0:
236,148,55428,1,0,0:0:0:0:
276,236,55600,1,8,0:0:0:0:
68,348,55945,6,0,P|12:276|24:192,1,180,4|8,0:0|0:0,0:0:0:0:
100,128,56462,1,0,0:0:0:0:
208,28,56635,2,0,P|212:72|200:116,1,90,2|0,0:0|0:0,0:0:0:0:
148,216,56979,1,8,0:0:0:0:
212,292,57152,2,0,L|304:300,1,90,2|0,0:0|0:0,0:0:0:0:
476,224,57497,2,0,L|386:231,1,90,2|8,0:0|0:0,0:0:0:0:
228,144,57842,2,0,P|140:112|64:152,1,180,2|0,0:0|0:0,0:0:0:0:
56,244,58359,1,8,0:0:0:0:
16,68,58531,1,0,0:0:0:0:
148,216,58704,6,0,P|208:248|272:240,1,135,2|0,0:0|0:0,0:0:0:0:
296,232,59048,2,0,L|387:248,1,90,8|0,0:0|0:0,0:0:0:0:
480,288,59393,2,0,L|492:380,1,90,2|0,0:0|0:0,0:0:0:0:
472,184,59738,1,8,0:0:0:0:
316,340,59910,2,0,B|184:360|184:360|140:344,1,180,4|0,0:0|0:0,0:0:0:0:
56,264,60428,2,0,B|40:312|40:312|44:352,1,90,8|0,0:0|0:0,0:0:0:0:
148,216,60773,1,2,0:0:0:0:
28,148,60945,1,0,0:0:0:0:
220,72,61117,1,8,0:0:0:0:
228,80,61462,6,0,P|272:84|316:76,1,90,4|0,0:0|0:0,0:0:0:0:
388,4,61807,2,0,P|356:88|396:164,1,180,8|0,0:0|0:0,0:0:0:0:
496,152,62324,1,0,0:0:0:0:
348,252,62497,1,8,0:0:0:0:
496,152,62669,2,0,P|528:236|488:312,1,180,4|0,0:0|0:0,0:0:0:0:
388,348,63186,1,8,0:0:0:0:
124,160,63531,2,0,P|104:244|176:276,1,180,4|8,0:0|0:0,0:0:0:0:
252,212,64048,1,0,0:0:0:0:
224,108,64221,5,8,0:0:0:0:
164,16,64393,1,0,0:0:0:0:
72,72,64566,1,8,0:0:0:0:
224,108,64738,1,0,0:0:0:0:
304,36,64910,1,8,0:0:0:0:
400,84,65083,2,0,P|444:84|488:72,1,90,2|8,0:0|0:0,0:0:0:0:
312,144,65428,6,0,B|296:236|296:236|316:320,1,180,4|4,0:0|0:0,0:0:0:0:
412,352,65945,1,4,0:0:0:0:
504,268,66117,1,2,0:0:0:0:
476,172,66290,2,0,L|488:120,1,53.9999983520508,2|0,0:0|0:0,0:0:0:0:
400,84,66635,2,0,L|412:32,1,53.9999983520508,2|0,0:0|0:0,0:0:0:0:
316,204,66979,6,0,P|228:220|168:156,1,180,4|8,0:0|0:0,0:0:0:0:
256,52,67497,2,0,P|264:96|256:140,1,90,0|8,0:0|0:0,0:0:0:0:
152,276,67842,1,0,0:0:0:0:
96,104,68014,1,8,0:0:0:0:
64,300,68186,2,0,P|122:359|210:343,1,180,4|0,0:0|0:0,0:0:0:0:
248,260,68704,2,0,L|236:168,1,90,8|0,0:0|0:0,0:0:0:0:
351,94,69048,2,0,L|340:184,1,90,8|0,0:0|0:0,0:0:0:0:
152,120,69393,2,0,L|140:30,1,90,8|0,0:0|0:0,0:0:0:0:
248,260,69738,6,0,P|328:304|408:280,1,180,4|8,0:0|0:0,0:0:0:0:
488,136,70255,2,0,L|499:225,1,90,0|8,0:0|0:0,0:0:0:0:
420,64,70600,1,0,0:0:0:0:
336,208,70773,1,8,0:0:0:0:
256,148,70945,2,0,P|160:148|76:156,1,180,4|0,0:0|0:0,0:0:0:0:
352,96,71462,2,0,P|356:52|352:4,1,90,8|0,0:0|0:0,0:0:0:0:
416,168,71807,2,0,P|418:260|425:303,1,135,8|0,0:0|0:0,0:0:0:0:
435,335,72152,2,0,P|388:351|344:354,1,90,8|0,0:0|0:0,0:0:0:0:
216,340,72497,5,4,0:0:0:0:
248,236,72669,1,0,0:0:0:0:
204,136,72842,2,0,P|200:92|204:44,1,90,8|0,0:0|0:0,0:0:0:0:
312,156,73186,1,8,0:0:0:0:
144,264,73359,1,0,0:0:0:0:
328,316,73531,1,8,0:0:0:0:
416,256,73704,2,0,P|424:212|416:168,1,90,0|4,0:0|0:0,0:0:0:0:
376,80,74048,5,0,0:0:0:0:
248,236,74221,1,8,0:0:0:0:
328,316,74393,1,0,0:0:0:0:
112,168,74566,2,0,P|104:124|108:80,1,90,8|0,0:0|0:0,0:0:0:0:
312,156,74910,2,0,L|404:168,1,90,8|0,0:0|0:0,0:0:0:0:
428,364,75255,6,0,L|248:336,1,180,4|8,0:0|0:0,0:0:0:0:
152,352,75773,1,4,0:0:0:0:
360,32,76117,1,4,0:0:0:0:
32,176,76462,2,0,P|124:188|212:188,1,180,4|0,0:0|0:0,0:0:0:0:
412,172,76979,1,8,0:0:0:0:
312,156,77152,1,0,0:0:0:0:
172,280,77324,1,4,0:0:0:0:
360,340,77669,5,0,0:0:0:0:
380,336,77755,1,0,0:0:0:0:
400,324,77842,1,0,0:0:0:0:
416,308,77928,1,0,0:0:0:0:
428,288,78014,2,0,P|436:244|432:200,1,90,4|0,0:0|0:0,0:0:0:0:
332,68,78359,1,8,0:0:0:0:
424,112,78531,2,0,L|512:96,1,90,2|0,0:0|0:0,0:0:0:0:
308,88,78876,2,0,L|220:104,1,90,2|8,0:0|0:0,0:0:0:0:
96,48,79221,6,0,P|72:140|96:220,1,180,4|0,0:0|0:0,0:0:0:0:
260,360,79738,2,0,P|267:316|255:272,1,90,8|0,0:0|0:0,0:0:0:0:
192,192,80083,1,2,0:0:0:0:
192,192,80255,1,0,0:0:0:0:
72,320,80428,2,0,P|115:327|159:315,1,90,8|0,0:0|0:0,0:0:0:0:
292,180,80773,6,0,L|276:92,1,90,4|0,0:0|0:0,0:0:0:0:
196,32,81117,1,8,0:0:0:0:
104,72,81290,1,2,0:0:0:0:
376,232,81635,1,2,0:0:0:0:
132,360,81979,6,0,P|92:284|100:192,1,180,4|0,0:0|0:0,0:0:0:0:
184,136,82497,1,8,0:0:0:0:
376,232,82669,1,0,0:0:0:0:
196,232,82842,1,2,0:0:0:0:
196,232,83014,1,0,0:0:0:0:
364,136,83186,1,8,0:0:0:0:
364,136,83359,1,0,0:0:0:0:
460,176,83531,6,0,P|472:264|412:328,1,180,4|8,0:0|0:0,0:0:0:0:
226,331,84048,2,0,L|316:320,1,90,2|0,0:0|0:0,0:0:0:0:
108,244,84393,2,0,L|197:232,1,90,2|8,0:0|0:0,0:0:0:0:
44,344,84738,2,0,B|12:260|12:260|24:168,1,180,4|0,0:0|0:0,0:0:0:0:
92,76,85255,1,8,0:0:0:0:
232,152,85428,1,0,0:0:0:0:
192,68,85600,1,2,0:0:0:0:
311,208,85773,1,0,0:0:0:0:
376,60,85945,1,8,0:0:0:0:
432,296,86290,6,0,P|456:252|460:212,2,90,4|0|0,0:0|0:0|0:0,0:0:0:0:
328,356,86807,1,8,0:0:0:0:
184,28,87152,1,8,0:0:0:0:
24,268,87497,2,0,P|84:340|164:340,1,180,4|4,0:0|0:0,0:0:0:0:
252,296,88014,1,0,0:0:0:0:
368,200,88186,1,12,0:0:0:0:
396,352,88359,1,4,0:0:0:0:
