osu file format v6

[General]
AudioFilename: Copy of dora the explorer.mp3
AudioLeadIn: 0
PreviewTime: -1
Countdown: 1
SampleSet: Normal
StackLeniency: 0.7
Mode: 0
LetterboxInBreaks: 1

[Editor]
Bookmarks: 5786,21892,25916,29933,33838,39749
DistanceSpacing: 0.800000011920929
BeatDivisor: 4
GridSize: 8

[Metadata]
Title:Dora the Explorer
Artist:Joshua Sitron, Billy Straus
Creator:Emdyion
Version:Swiper!
Source:Nick Jr.
Tags:

[Difficulty]
HPDrainRate:7
CircleSize:5
OverallDifficulty:7
SliderMultiplier:1.6
SliderTickRate:1

[Events]
//Background and Video events
0,0,"dora-the-explorer-bmore.jpg"
//Break Periods
//Storyboard Layer 0 (Background)
//Storyboard Layer 1 (Fail)
//Storyboard Layer 2 (Pass)
//Storyboard Layer 3 (Foreground)
//Storyboard Sound Samples
//Background Colour Transformations
3,100,255,0,0

[TimingPoints]
3744,501.918108651913,4,1,0,100,1,0
13822,-100,4,1,0,100,0,1
36947,495.867768595041,4,1,0,100,1,1

[HitObjects]
136,32,5751,1,12
136,96,6002,1,8
136,96,6128,1,8
192,96,6379,1,8
192,160,6630,1,8
192,160,6755,1,8
192,224,7006,1,8
192,288,7257,1,8
320,288,7759,5,12
320,224,8010,1,8
320,224,8135,1,8
320,160,8386,1,8
320,96,8637,1,8
320,96,8763,1,8
384,96,9014,1,8
384,32,9265,1,8
256,32,9767,5,12
256,96,10017,1,8
256,96,10143,1,8
256,160,10394,1,8
256,224,10645,1,8
256,224,10770,1,8
256,288,11021,1,8
256,352,11272,1,8
256,192,11774,12,4,13280
176,32,13782,6,8,B|264:136,1,80
288,96,14284,2,8,B|339:34,1,80
384,80,14786,2,8,B|332:141,1,80
288,184,15288,1,8
224,184,15539,1,8
176,136,15790,2,8,B|124:74,1,80
256,216,16793,5,4
256,216,17044,1,4
144,56,17797,6,2,B|264:56,1,80
288,56,18299,2,2,B|392:56,1,80
368,56,18676,2,2,B|304:192,1,120
288,224,19303,1,2
224,224,19554,1,2
208,192,19679,2,2,B|156:83,1,120
256,208,20683,5,8
256,208,20809,1,8
224,264,21060,1,8
288,264,21311,1,8
384,184,21813,5,4
320,184,22064,1,8
288,184,22189,1,8
224,184,22440,1,8
192,184,22565,1,8
128,184,22816,1,6
128,248,23067,5,2
128,312,23318,1,2
192,312,23569,1,2
256,312,23820,1,12
320,312,24071,1,8
384,312,24322,1,8
384,248,24573,1,8
384,184,24824,5,6
320,184,25075,1,2
288,184,25200,1,2
224,184,25451,1,2
192,184,25577,1,2
128,184,25828,1,6
128,56,26330,5,2
256,56,26832,1,2
384,56,27334,1,2
336,96,27585,2,2,B|152:96,1,160
256,272,28839,5,2
256,144,29341,1,6
192,32,29843,5,8
256,32,30094,1,8
320,32,30345,1,8
256,144,30847,1,2
256,144,30973,2,2,B|256:256,1,80,2|0
256,224,31349,1,2
256,288,31600,1,2
320,288,31851,5,8
256,288,32102,1,8
192,288,32353,1,8
256,176,32855,1,2
256,176,32980,2,2,B|256:64,1,80
256,96,33357,1,2
256,32,33608,1,2
192,32,33859,5,12
192,32,33984,1,8
192,32,34110,1,8
256,32,34361,1,0
288,32,34486,1,0
320,96,34862,5,2
320,96,34988,1,2
320,96,35113,1,2
256,96,35364,1,2
224,96,35490,1,2
160,168,35866,6,4,B|304:392,1,240
208,368,36947,2,4,B|337:166,1,240
256,192,37938,12,4,39426
