osu file format v9

[General]
AudioFilename: I am Princess.mp3
AudioLeadIn: 1500
PreviewTime: 37780
Countdown: 1
SampleSet: Normal
StackLeniency: 0.3
Mode: 0
LetterboxInBreaks: 1

[Editor]
Bookmarks: 125651,126048
DistanceSpacing: 0.9
BeatDivisor: 4
GridSize: 8

[Metadata]
Title:I am Princess
Artist:Joshi ko
Creator:Tonoko
Version:Normal
Source:Touhou
Tags:Festival lunatic princess

[Difficulty]
HPDrainRate:3
CircleSize:4
OverallDifficulty:4
ApproachRate:4
SliderMultiplier:1
SliderTickRate:2

[Events]
//Background and Video events
0,0,"kaguya.jpg"
//Break Periods
2,38453,49708
2,99228,110095
2,126712,128676
//Storyboard Layer 0 (Background)
//Storyboard Layer 1 (Fail)
//Storyboard Layer 2 (Pass)
//Storyboard Layer 3 (Foreground)
//Storyboard Sound Samples
//Background Colour Transformations
3,100,163,162,255

[TimingPoints]
1480,387.096774193548,4,1,1,60,1,0
15038,-100,4,2,0,60,0,0
29254,-100,4,1,1,60,0,0
32350,-100,4,2,0,60,0,0
35447,-100,4,1,1,60,0,0
62931,-100,4,2,0,60,0,0
71060,-200,4,2,0,60,0,0
72028,-100,4,2,0,60,0,0
77254,-100,4,1,1,60,0,0
80350,-100,4,2,0,60,0,0
83447,-100,4,1,1,60,0,0
98834,-100,4,2,1,60,0,0
136141,-100,4,1,1,60,0,0
160770,-100,4,1,1,0,0,0

[Colours]
Combo1 : 124,124,124
Combo2 : 0,238,244
Combo3 : 107,107,252
Combo4 : 251,70,70
Combo5 : 255,172,47

[HitObjects]
128,72,1480,2,0,B|184:48|232:72,1,100,0|8
240,160,2254,2,0,B|184:144|136:168,1,100,0|8
160,256,3028,2,0,B|208:272|264:248,2,100,0|0|8
144,344,4189,5,0
96,336,4383,1,0
56,312,4576,1,12
16,232,4963,1,0
48,152,5350,1,8
80,64,5738,1,0
168,64,6125,2,0,B|216:88|272:72,2,100,0|0|8
136,152,7286,1,0
104,232,7673,6,4,B|160:216|216:248,1,100,4|4
200,328,8447,2,0,B|248:352|312:328,1,100,4|0
304,240,9221,2,0,B|352:216|416:240,1,100,8|0
432,245,9802,1,2
464,264,9996,1,10
384,304,10383,6,0,B|288:336,1,100,2|10
128,320,11157,2,0,B|224:288,1,100,0|8
248,248,11738,2,0,B|312:224,2,50,2|0|0
256,192,12318,12,0,15028
384,72,15415,6,0,B|320:16|320:96,1,100,0|2
248,144,16189,2,0,B|272:224|320:144,1,100,0|2
400,184,16963,2,0,B|448:256|368:248,1,100,0|2
288,248,17738,1,0
128,176,18125,6,0,B|104:104|184:136,1,100,2|0
200,224,18899,1,2
264,160,19286,2,0,B|320:104|328:192,1,100,0|2
296,256,20060,2,4,B|308:334|364:278,2,100
360,200,21221,6,0,B|448:176|352:128,2,100,0|8|0
304,64,22383,2,0,B|264:128|232:48,1,100,8|2
152,96,23157,2,0,B|76:65|100:137,1,100,8|2
120,176,23738,1,0
144,208,23931,1,10
160,296,24318,5,0
184,336,24512,1,0
224,320,24705,1,10
312,304,25092,2,0,B|376:304,1,50,2|0
400,328,25479,2,0,B|424:272,1,50,10|0
456,256,25867,2,0,B|400:232,1,50,2|0
256,192,26254,12,2,27609
256,192,27802,12,2,29157
256,56,29350,6,0,B|200:56,1,50
184,96,29738,2,0,B|136:104,1,50
120,144,30125,2,0,B|72:160,3,50
232,192,31092,6,0,B|288:192,1,50
304,152,31479,2,0,B|352:144,1,50
376,104,31867,2,0,B|440:88,2,50,2|2|2
256,192,32447,12,2,33802
256,192,33996,12,2,35350
256,56,35544,6,0,B|256:112,1,50,2|0
216,128,35931,2,0,B|216:192,1,50,2|0
176,200,36318,2,0,B|176:248,3,50,0|2|0|2
256,328,37286,6,0,B|256:272,1,50
296,256,37673,2,0,B|296:192,1,50
336,184,38060,2,0,B|336:120,1,50,2|2
384,312,51028,6,0,B|328:336|280:312,1,100,0|8
360,264,51802,2,0,B|416:280|464:256,1,100,0|8
376,216,52576,2,0,B|328:200|272:224,2,100,0|8|8
368,128,53738,5,0
352,88,53931,1,0
312,64,54125,1,12
224,88,54512,1,0
272,160,54899,1,0
200,208,55286,1,0
152,136,55673,6,0,B|104:112|48:128,2,100
112,216,56834,1,0
72,296,57221,2,0,B|113:320|169:304,1,100,8|0
240,232,57996,2,0,B|192:208|128:232,1,100,8|0
200,136,58770,2,0,B|249:155|297:131,1,100,8|0
336,112,59350,1,2
376,112,59544,1,10
392,200,59931,6,0,B|356:243|297:231,1,100,2|2
216,224,60705,2,0,B|158:213|120:256,1,100,0|2
104,296,61286,2,0,B|40:320,2,50,2|0|2
256,192,61867,12,0,63028
128,112,63415,6,0,B|64:56|64:136,1,100,0|2
136,200,64189,2,0,B|160:280|208:200,1,100,0|2
264,144,64963,2,0,B|168:56|296:80,1,150,0|2
336,88,65738,1,0
368,216,66125,6,0,B|344:144|424:176,1,100,2|0
424,280,66899,1,0
288,320,67286,2,0,B|344:264|352:352,1,100
152,232,68060,2,0,B|164:310|220:254,2,100
96,160,69221,6,0,B|20:129|108:97,2,100
160,32,70383,2,0,B|189:105|229:41,1,100,0|2
360,56,71157,2,0,B|284:25|308:97,1,100,2|0
232,136,72318,1,0
184,136,72512,1,0
176,184,72705,1,0
120,296,73092,2,0,B|184:296,1,50
208,272,73480,2,0,B|208:328,1,50
248,296,73867,2,0,B|304:296,1,50
256,192,74254,12,2,75609
256,192,75802,12,2,77157
256,56,77350,6,0,B|312:56,1,50
328,96,77738,2,0,B|376:104,1,50
392,144,78125,2,0,B|440:160,3,50
280,192,79092,6,0,B|224:192,1,50
208,152,79480,2,0,B|160:144,1,50
136,104,79867,2,0,B|72:88,2,50,2|2|2
256,192,80447,12,2,81802
256,192,81996,12,2,83350
8,192,83544,6,0,B|64:192,1,50,2|0
80,232,83931,2,0,B|144:232,1,50,2|0
152,272,84318,2,0,B|200:272,3,50,0|2|0|2
240,192,85286,6,0,B|296:192,1,50
312,232,85673,2,0,B|376:232,1,50
384,272,86060,2,0,B|448:272,1,50,2|2
488,144,86641,6,0,B|432:144|432:144|416:128|416:128|296:128,1,200
248,128,87609,1,0
216,96,87802,1,2
168,96,87996,1,2
136,136,88189,6,0,B|16:136,2,100
136,184,89157,1,0
104,216,89350,1,0
104,264,89544,1,2
136,296,89738,5,8
248,336,90125,1,2
336,256,90512,1,8
224,224,90899,1,2
224,224,91092,2,0,B|224:160|224:160|216:144|216:144|216:24,1,200,2|2
256,48,92060,2,0,B|328:48,2,50,8|0|2
336,128,92834,6,0,B|336:184|336:184|320:200|320:200|320:320,1,200
272,320,93802,1,0
240,288,93996,1,2
192,288,94189,1,2
160,256,94383,6,0,B|40:256,2,100
136,216,95350,1,0
136,168,95544,1,0
112,128,95738,1,2
112,80,95931,5,8
200,80,96318,1,2
280,40,96705,1,8
368,40,97092,1,2
368,72,97286,2,0,B|368:120|368:120|384:144|384:144|384:272,1,200,2|2
352,296,98254,2,0,B|302:296,2,50,8|0|2
256,192,99028,5,4
160,80,111415,6,0,B|160:184,1,100,4|0
224,240,112189,2,0,B|224:136,1,100,4|0
352,304,112963,2,0,B|352:200,1,100,4|0
288,144,113738,2,0,B|288:248,1,100,4|0
200,240,114512,5,4
200,240,114705,1,4
200,240,114899,1,4
128,184,115286,1,4
128,184,115480,1,4
312,144,116060,5,4
312,144,116254,1,4
312,144,116447,1,4
384,200,116834,1,4
384,200,117028,1,4
144,96,117609,6,0,B|248:96,1,100,4|0
304,160,118383,2,0,B|200:160,1,100,4|0
368,288,119157,2,0,B|264:288,1,100,4|0
208,224,119931,2,0,B|312:224,1,100,4|0
400,224,120705,5,4
400,176,120899,1,0
368,144,121092,1,0
280,144,121480,1,4
232,144,121673,1,0
200,112,121867,1,0
152,192,122254,5,4
64,192,122641,1,4
24,112,123028,1,4
112,112,123415,1,4
200,112,123802,2,0,B|312:112,1,100
384,152,124576,2,0,B|272:152,1,100
200,184,125350,2,0,B|304:184,1,100
384,216,126125,2,0,B|312:216,2,50
312,272,129996,6,0,B|200:272,1,100
128,232,130770,2,0,B|240:232,1,100
312,200,131544,2,0,B|208:200,1,100
128,168,132318,6,0,B|200:168,2,50
208,120,133092,2,0,B|248:120,4,25
304,72,133867,2,0,B|280:72,4,25
256,192,134641,12,0,135802
144,112,136189,6,0,B|232:111|232:111|248:103|248:103|352:104,1,200
408,168,137350,1,0
368,272,137738,6,0,B|280:273|280:273|264:281|264:281|160:280,1,200
104,216,138899,1,0
128,128,139286,6,0,B|80:128|80:128|64:120|64:120|16:120,1,100
72,40,140060,2,0,B|106:40|106:40|122:48|122:48|170:48,1,100,0|0
224,120,140834,2,0,B|224:154|224:154|216:170|216:170|216:218,1,100,0|0
304,184,141609,2,0,B|304:136|304:136|312:120|312:120|312:85,1,100,0|0
400,96,142383,5,0
472,144,142770,1,0
472,232,143157,1,0
400,280,143544,1,0
312,280,143931,5,4
264,280,144125,1,0
232,248,144318,1,4
184,248,144512,1,0
136,248,144705,2,0,B|64:248,2,50
136,160,145480,5,0
224,160,145867,1,0
288,104,146254,1,0
376,104,146641,1,0
256,192,147028,12,0,148189
368,272,148576,6,0,B|280:273|280:273|264:281|264:281|160:280,1,200
104,216,149738,1,0
144,112,150125,6,0,B|232:111|232:111|248:103|248:103|352:104,1,200
408,168,151286,1,0
384,256,151673,6,0,B|432:256|432:256|448:264|448:264|496:264,1,100
440,344,152447,2,0,B|405:344|405:344|389:336|389:336|341:336,1,100,0|0
288,264,153221,2,0,B|288:229|288:229|296:213|296:213|296:165,1,100,0|0
208,200,153996,2,0,B|208:248|208:248|200:264|200:264|200:298,1,100,0|0
112,288,154770,5,0
40,240,155157,1,0
40,152,155544,1,0
112,104,155931,1,0
200,104,156318,5,4
248,104,156512,1,0
280,136,156705,1,4
328,136,156899,1,0
376,136,157092,2,0,B|448:136,2,50
376,224,157867,5,0
288,224,158254,1,0
224,280,158641,1,0
136,280,159028,1,0
256,192,159415,12,0,160576
256,192,160963,12,0,163092
