osu file format v12

[General]
AudioFilename: I am Princess.mp3
AudioLeadIn: 1500
PreviewTime: 37780
Countdown: 1
SampleSet: Normal
StackLeniency: 0.3
Mode: 0
LetterboxInBreaks: 1

[Editor]
Bookmarks: 126048
DistanceSpacing: 0.7
BeatDivisor: 4
GridSize: 8

[Metadata]
Title:I am Princess
TitleUnicode:
Artist:Joshi ko
ArtistUnicode:
Creator:Tonoko
Version:Lunatic
Source:Touhou
Tags:Festival lunatic princess
BeatmapID:80519
BeatmapSetID:22888

[Difficulty]
HPDrainRate:7
CircleSize:4
OverallDifficulty:8
ApproachRate:8
SliderMultiplier:1.9
SliderTickRate:1

[Events]
//Background and Video events
0,0,"kaguya.jpg",0,0
//Break Periods
2,38454,50278
//Storyboard Layer 0 (Background)
//Storyboard Layer 1 (Fail)
//Storyboard Layer 2 (Pass)
//Storyboard Layer 3 (Foreground)
//Storyboard Sound Samples
//Background Colour Transformations
3,100,163,162,255

[TimingPoints]
1480,387.096774193548,4,1,1,48,1,0
15038,-100,4,2,0,60,0,0
26070,-100,4,1,1,46,0,0
62844,-100,4,2,0,60,0,0
70973,-200,4,2,0,60,0,0
71941,-100,4,2,0,60,0,0
74070,-100,4,1,1,46,0,0
98747,-100,4,2,1,60,0,0
136054,-100,4,1,1,45,0,0

[Colours]
Combo1 : 124,124,124
Combo2 : 0,238,244
Combo3 : 107,107,252
Combo4 : 251,70,70
Combo5 : 255,172,47

[HitObjects]
160,48,1480,2,0,L|64:104|88:232,1,190,0|8,0:0|0:0,0:0:0:0:
352,336,2254,2,0,L|448:280|424:152,1,190,0|8,0:0|0:0,0:0:0:0:
344,48,3028,2,0,B|288:144,3,95,0|0|0|0,0:0|0:0|0:0|0:0,0:0:0:0:
256,192,3802,1,12,0:0:0:0:
176,320,4189,5,0,0:0:0:0:
176,320,4383,1,0,0:0:0:0:
216,256,4576,1,12,0:0:0:0:
120,192,4867,1,0,0:0:0:0:
120,192,4963,2,0,B|96:64,1,95
256,192,5350,2,0,B|256:304,1,95,4|0,0:0|0:0,0:0:0:0:
392,192,5738,2,0,B|416:64,1,95,4|0,0:0|0:0,0:0:0:0:
264,32,6125,5,8,0:0:0:0:
240,128,6318,1,8,0:0:0:0:
240,128,6415,1,0,0:0:0:0:
240,128,6512,1,8,0:0:0:0:
216,216,6705,1,8,0:0:0:0:
104,152,6899,2,0,L|24:216|56:328,1,190
216,216,7480,5,2,0:0:0:0:
336,272,7673,2,0,L|416:208|384:96,1,190,4|0,0:0|0:0,0:0:0:0:
256,16,8254,1,2,0:0:0:0:
96,56,8447,2,0,L|16:120|48:232,1,190,8|0,0:0|0:0,0:0:0:0:
168,320,9028,1,2,0:0:0:0:
320,280,9221,2,0,L|368:256|384:192,3,95,8|0|0|2,0:0|0:0|0:0|0:0,0:0:0:0:
400,64,9996,1,2,0:0:0:0:
256,64,10286,5,0,0:0:0:0:
256,64,10383,2,8,B|200:144,1,95,4|8,0:0|0:0,0:0:0:0:
184,320,10770,2,0,B|238:242,1,95,8|0,0:0|0:0,0:0:0:0:
392,176,11157,2,0,B|336:256,1,95,8|0,0:0|0:0,0:0:0:0:
256,128,11544,1,4,0:0:0:0:
80,192,11738,1,2,0:0:0:0:
80,192,11834,1,0,0:0:0:0:
80,192,11931,1,8,0:0:0:0:
256,256,12125,1,2,0:0:0:0:
432,192,12318,5,4,0:0:0:0:
256,128,12512,1,2,0:0:0:0:
256,128,12609,1,0,0:0:0:0:
256,128,12705,1,8,0:0:0:0:
256,256,12899,1,2,0:0:0:0:
256,256,12996,1,0,0:0:0:0:
256,256,13092,1,8,0:0:0:0:
432,192,13286,1,2,0:0:0:0:
432,192,13383,1,0,0:0:0:0:
432,192,13479,1,10,0:0:0:0:
256,192,13673,5,2,0:0:0:0:
80,192,13867,1,8,0:0:0:0:
80,192,13963,1,0,0:0:0:0:
80,192,14060,1,10,0:0:0:0:
256,192,14254,1,8,0:0:0:0:
256,192,14350,1,0,0:0:0:0:
256,192,14447,1,10,0:0:0:0:
432,192,14641,1,8,0:0:0:0:
432,192,14738,1,2,0:0:0:0:
432,192,14834,1,0,0:0:0:0:
432,192,14931,1,8,0:0:0:0:
432,192,15028,6,0,L|432:224|440:272|440:312,2,95,0|0|2,0:0|0:0|0:0,0:0:0:0:
400,120,15609,1,0,0:0:0:0:
360,48,15802,2,0,L|304:48|232:64|152:64,2,190,0|2|2,0:0|0:0|0:0,0:0:0:0:
152,336,16963,2,0,L|208:336|280:320|360:320,2,190,0|2|2,0:0|0:0|0:0,0:0:0:0:
256,32,18125,6,0,L|256:136,2,95,0|0|2,0:0|0:0|0:0,0:0:0:0:
88,296,18899,1,0,0:0:0:0:
88,296,19092,1,0,0:0:0:0:
88,296,19286,2,0,L|208:296,1,95,2|0,0:0|0:0,0:0:0:0:
416,256,19673,2,0,L|296:256,1,95,2|0,0:0|0:0,0:0:0:0:
256,192,20060,2,0,L|224:152|280:96|248:40,2,190,2|0|2,0:0|0:0|0:0,0:0:0:0:
384,192,21221,5,0,0:0:0:0:
320,304,21415,1,0,0:0:0:0:
200,304,21609,1,10,0:0:0:0:
128,192,21802,1,0,0:0:0:0:
192,80,21996,1,0,0:0:0:0:
320,80,22189,1,0,0:0:0:0:
256,192,22383,2,0,L|240:240|288:288|256:352,1,190,8|0,0:0|0:0,0:0:0:0:
256,192,23157,6,0,L|240:144|288:96|256:32,1,190,8|0,0:0|0:0,0:0:0:0:
256,32,23738,1,0,0:0:0:0:
256,32,23931,1,8,0:0:0:0:
392,56,24318,6,0,B|392:168,1,95
352,208,24705,2,0,L|368:280|320:312|336:376,1,190,8|0,0:0|0:0,0:0:0:0:
272,376,25286,1,0,0:0:0:0:
232,320,25479,1,8,0:0:0:0:
168,320,25673,1,0,0:0:0:0:
136,264,25867,1,0,0:0:0:0:
72,264,26060,1,0,0:0:0:0:
168,144,26254,5,8,0:0:0:0:
96,80,26447,1,0,0:0:0:0:
264,120,26641,1,8,0:0:0:0:
192,48,26834,1,0,0:0:0:0:
352,96,27028,1,8,0:0:0:0:
384,128,27125,1,0,0:0:0:0:
416,160,27221,1,0,0:0:0:0:
448,192,27318,1,0,0:0:0:0:
480,224,27415,1,8,0:0:0:0:
448,72,27609,1,4,0:0:0:0:
344,240,27802,5,8,0:0:0:0:
416,304,27996,1,0,0:0:0:0:
248,264,28189,1,8,0:0:0:0:
320,336,28383,1,0,0:0:0:0:
160,288,28576,1,8,0:0:0:0:
128,256,28673,1,0,0:0:0:0:
96,224,28770,1,8,0:0:0:0:
64,192,28867,1,0,0:0:0:0:
32,160,28963,1,8,0:0:0:0:
64,312,29157,1,4,0:0:0:0:
320,336,29350,5,0,0:0:0:0:
384,264,29544,1,0,0:0:0:0:
256,264,29738,1,0,0:0:0:0:
192,192,29931,1,0,0:0:0:0:
320,192,30125,1,0,0:0:0:0:
384,112,30318,1,0,0:0:0:0:
384,112,30415,1,0,0:0:0:0:
256,112,30609,1,0,0:0:0:0:
256,112,30705,2,0,L|208:112|112:88|64:88,1,190,2|2,0:0|0:0,0:0:0:0:
16,168,31286,5,0,0:0:0:0:
56,200,31383,1,0,0:0:0:0:
184,192,31576,1,0,0:0:0:0:
144,168,31673,1,0,0:0:0:0:
128,256,31867,2,0,B|208:320,2,95,2|2|2,0:0|0:0|0:0,0:0:0:0:
376,288,32447,5,8,0:0:0:0:
344,192,32641,1,0,0:0:0:0:
456,344,32834,1,0,0:0:0:0:
264,136,33028,1,0,0:0:0:0:
320,64,33221,1,8,0:0:0:0:
360,88,33318,1,0,0:0:0:0:
408,88,33415,1,0,0:0:0:0:
456,88,33512,1,0,0:0:0:0:
488,120,33609,1,0,0:0:0:0:
488,240,33802,1,0,0:0:0:0:
280,224,33996,5,8,0:0:0:0:
80,208,34189,1,2,0:0:0:0:
384,264,34383,1,0,0:0:0:0:
176,248,34576,1,2,0:0:0:0:
288,328,34770,1,8,0:0:0:0:
96,312,34963,1,2,0:0:0:0:
392,360,35157,1,2,0:0:0:0:
192,344,35350,1,2,0:0:0:0:
472,224,35544,6,0,L|456:200|456:112|432:80,1,142.5,8|0,0:0|0:0,0:0:0:0:
408,120,35931,2,0,L|392:136|288:136|264:152,1,142.5
248,104,36318,2,0,L|224:88|176:88|128:88,3,95,8|2|0|2,0:0|0:0|0:0|0:0,0:0:0:0:
40,160,37092,6,0,L|56:184|56:272|80:304,1,142.5,8|0,0:0|0:0,0:0:0:0:
104,264,37479,2,0,L|120:248|224:248|248:232,1,142.5
264,280,37867,2,0,L|288:296|336:296|384:296,2,95,8|2|2,0:0|0:0|0:0,0:0:0:0:
416,192,51028,6,0,L|320:248|344:376,1,190,0|8,0:0|0:0,0:0:0:0:
96,192,51802,2,0,L|192:136|168:8,1,190,0|8,0:0|0:0,0:0:0:0:
208,216,52576,2,0,B|152:312,1,95,0|0,0:0|0:0,0:0:0:0:
296,168,52963,2,0,B|344:80,1,95,8|0,0:0|0:0,0:0:0:0:
256,192,53350,1,8,0:0:0:0:
256,384,53738,5,0,0:0:0:0:
256,384,53931,1,0,0:0:0:0:
256,288,54125,1,8,0:0:0:0:
120,192,54415,1,0,0:0:0:0:
120,192,54512,2,0,B|160:296,1,95
256,191,54899,2,0,B|256:96,1,95,4|0,0:0|0:0,0:0:0:0:
392,192,55286,2,0,B|344:320,1,95,4|0,0:0|0:0,0:0:0:0:
448,320,55673,5,4,0:0:0:0:
488,232,55867,1,8,0:0:0:0:
504,192,55963,1,0,0:0:0:0:
488,144,56060,1,8,0:0:0:0:
448,56,56254,1,0,0:0:0:0:
352,40,56447,2,0,L|272:104|304:216,1,190,8|0,0:0|0:0,0:0:0:0:
208,160,57028,5,2,0:0:0:0:
113,116,57221,2,0,L|144:224|64:288,1,190,8|0,0:0|0:0,0:0:0:0:
120,360,57802,1,2,0:0:0:0:
192,304,57996,2,0,L|299:273|363:353,1,190,8|0,0:0|0:0,0:0:0:0:
440,312,58576,1,2,0:0:0:0:
384,240,58770,2,0,L|432:216|448:152,3,95,8|0|0|0,0:0|0:0|0:0|0:0,0:0:0:0:
440,72,59544,1,2,0:0:0:0:
256,32,59931,6,0,B|200:112,1,95,8|0,0:0|0:0,0:0:0:0:
394,272,60318,2,0,B|353:183,1,95,6|0,0:0|0:0,0:0:0:0:
117,272,60705,2,0,B|214:280,1,95,12|0,0:0|0:0,0:0:0:0:
256,128,61092,5,2,0:0:0:0:
80,192,61286,1,2,0:0:0:0:
80,192,61383,1,0,0:0:0:0:
80,192,61479,1,8,0:0:0:0:
256,256,61673,1,2,0:0:0:0:
432,192,61867,1,2,0:0:0:0:
256,128,62060,1,2,0:0:0:0:
256,128,62157,1,0,0:0:0:0:
256,128,62254,1,8,0:0:0:0:
256,256,62447,1,2,0:0:0:0:
256,256,62544,1,0,0:0:0:0:
256,256,62641,1,8,0:0:0:0:
256,256,62834,1,2,0:0:0:0:
416,256,63028,6,0,B|360:256|336:192|360:128|416:128,2,190,0|0|8,0:0|0:0|0:0,0:0:0:0:
256,192,63996,1,0,0:0:0:0:
96,128,64189,2,0,B|152:128|176:192|152:256|96:256,1,190,0|8,0:0|0:0,0:0:0:0:
256,192,64770,1,0,0:0:0:0:
320,352,64963,2,0,B|320:299|256:275|192:299|192:355,1,190,0|8,0:0|0:0,0:0:0:0:
256,192,65544,1,0,0:0:0:0:
256,192,65738,1,0,0:0:0:0:
424,192,66125,6,0,B|368:192|344:128|368:64|424:64,1,190,8|0,0:0|0:0,0:0:0:0:
256,120,66705,1,0,0:0:0:0:
191,220,66899,2,0,B|192:276|256:300|320:276|320:224,1,190,8|0,0:0|0:0,0:0:0:0:
256,120,67479,1,0,0:0:0:0:
96,96,67673,2,0,B|72:96|32:120|72:144|96:144,1,95,8|0,0:0|0:0,0:0:0:0:
48,296,68060,2,0,B|56:248|96:232|136:248|144:312,1,142.5,4|0,0:0|0:0,0:0:0:0:
160,264,68447,2,0,B|168:312|208:328|248:304|256:256,1,142.5,12|0,0:0|0:0,0:0:0:0:
272,296,68834,2,0,B|271:241|335:217|399:241|400:312,1,190,4|8,0:0|0:0,0:0:0:0:
448,192,69415,5,0,0:0:0:0:
496,96,69609,2,0,B|488:48|448:32|408:48|400:104,1,142.5
402,92,69996,1,8,0:0:0:0:
304,192,70189,1,0,0:0:0:0:
352,296,70383,2,0,B|343:341|303:357|263:341|255:293,1,142.5
256,296,70770,1,8,0:0:0:0:
256,192,70963,1,0,0:0:0:0:
280,80,71157,2,0,B|280:56|256:16|232:56|232:80,2,95,0|8|0,0:0|0:0|0:0,0:0:0:0:
416,64,72318,5,8,0:0:0:0:
416,192,72512,1,0,0:0:0:0:
320,288,72705,1,8,0:0:0:0:
192,288,72899,1,0,0:0:0:0:
96,192,73092,1,8,0:0:0:0:
96,64,73286,1,0,0:0:0:0:
224,63,73480,6,0,B|278:63|302:127|278:191|224:192,1,190,0|8,0:0|0:0,0:0:0:0:
160,128,74060,1,4,0:0:0:0:
285,319,74254,2,0,B|233:320|209:256|233:192|288:192,1,190,8|0,0:0|0:0,0:0:0:0:
344,256,74834,1,0,0:0:0:0:
112,192,75028,5,8,0:0:0:0:
152,216,75125,1,0,0:0:0:0:
168,256,75221,1,0,0:0:0:0:
152,296,75318,1,0,0:0:0:0:
112,320,75415,1,2,0:0:0:0:
16,256,75609,1,2,0:0:0:0:
208,168,75802,1,8,0:0:0:0:
168,144,75899,1,0,0:0:0:0:
152,104,75996,1,2,0:0:0:0:
168,64,76092,1,0,0:0:0:0:
208,40,76189,1,0,0:0:0:0:
272,192,76383,5,2,0:0:0:0:
312,200,76480,1,0,0:0:0:0:
352,192,76576,1,8,0:0:0:0:
352,16,76770,1,2,0:0:0:0:
312,8,76867,1,0,0:0:0:0:
272,16,76963,1,0,0:0:0:0:
96,104,77157,5,2,0:0:0:0:
232,256,77350,1,8,0:0:0:0:
32,216,77544,1,0,0:0:0:0:
216,128,77738,1,0,0:0:0:0:
120,304,77931,1,0,0:0:0:0:
136,208,78125,1,8,0:0:0:0:
136,208,78221,1,0,0:0:0:0:
136,208,78415,1,0,0:0:0:0:
136,208,78512,1,0,0:0:0:0:
368,104,78705,6,0,B|280:103|256:167|280:231|366:232,1,237.5,2|0,0:0|0:0,0:0:0:0:
400,232,79286,2,0,B|448:240|464:280|448:320|384:328,1,142.5,2|0,0:0|0:0,0:0:0:0:
368,328,79673,2,0,B|273:328,2,95,8|0|2,0:0|0:0|0:0,0:0:0:0:
400,168,80447,6,0,B|455:168|479:104|455:40|403:41,1,190,8|0,0:0|0:0,0:0:0:0:
256,104,81028,1,2,0:0:0:0:
120,168,81221,1,8,0:0:0:0:
80,144,81318,1,0,0:0:0:0:
64,104,81415,1,0,0:0:0:0:
80,64,81512,1,0,0:0:0:0:
120,40,81609,1,2,0:0:0:0:
256,168,81802,1,2,0:0:0:0:
400,296,81996,5,8,0:0:0:0:
440,272,82092,1,0,0:0:0:0:
456,232,82189,1,0,0:0:0:0:
440,192,82286,1,0,0:0:0:0:
400,168,82383,1,2,0:0:0:0:
256,232,82576,1,2,0:0:0:0:
216,224,82673,1,0,0:0:0:0:
176,232,82770,1,8,0:0:0:0:
256,232,82963,1,0,0:0:0:0:
296,240,83060,1,0,0:0:0:0:
336,232,83157,1,2,0:0:0:0:
256,32,83350,1,2,0:0:0:0:
168,72,83544,5,4,0:0:0:0:
80,112,83738,1,0,0:0:0:0:
120,200,83931,1,4,0:0:0:0:
32,240,84125,1,0,0:0:0:0:
72,328,84318,1,2,0:0:0:0:
112,312,84415,1,0,0:0:0:0:
208,312,84609,1,0,0:0:0:0:
248,296,84705,1,2,0:0:0:0:
336,264,84899,6,0,B|424:265|448:201|424:137|338:136,1,237.5,2|0,0:0|0:0,0:0:0:0:
304,104,85480,2,0,B|256:108|240:148|256:188|304:196,1,142.5,2|0,0:0|0:0,0:0:0:0:
352,200,85867,2,0,B|447:200,2,95,8|2|2,0:0|0:0|0:0,0:0:0:0:
48,112,86641,6,0,L|112:112|192:88|272:88,1,190,12|0,0:0|0:0,0:0:0:0:
336,88,87221,1,2,0:0:0:0:
432,24,87415,1,8,0:0:0:0:
472,48,87512,1,0,0:0:0:0:
488,88,87609,1,0,0:0:0:0:
472,128,87705,1,0,0:0:0:0:
432,152,87802,1,2,0:0:0:0:
432,264,87996,1,2,0:0:0:0:
344,208,88189,6,0,L|304:208|288:224|224:224|208:208|160:208,1,190,8|0,0:0|0:0,0:0:0:0:
72,208,88770,1,2,0:0:0:0:
72,208,88963,1,8,0:0:0:0:
72,328,89157,1,2,0:0:0:0:
120,328,89254,1,0,0:0:0:0:
168,328,89350,1,8,0:0:0:0:
232,256,89544,5,2,0:0:0:0:
176,160,89738,1,12,0:0:0:0:
256,72,89931,1,0,0:0:0:0:
360,136,90125,1,12,0:0:0:0:
336,240,90318,1,0,0:0:0:0:
440,264,90512,1,12,0:0:0:0:
440,264,90609,1,0,0:0:0:0:
464,160,90802,1,0,0:0:0:0:
464,160,90899,1,8,0:0:0:0:
432,56,91092,6,0,L|384:56|368:80|280:80|264:56|200:56,1,237.5,2|0,0:0|0:0,0:0:0:0:
192,40,91673,2,0,B|144:48|128:88|144:128|192:136,1,142.5,2|0,0:0|0:0,0:0:0:0:
168,160,92060,2,0,B|168:256,3,95,8|0|2|2,0:0|0:0|0:0|0:0,0:0:0:0:
264,128,92834,5,8,0:0:0:0:
264,224,93028,1,2,0:0:0:0:
264,128,93221,1,2,0:0:0:0:
264,224,93415,1,0,0:0:0:0:
368,136,93609,1,8,0:0:0:0:
408,160,93705,1,0,0:0:0:0:
424,200,93802,1,0,0:0:0:0:
408,240,93899,1,0,0:0:0:0:
368,264,93996,1,2,0:0:0:0:
368,360,94189,1,2,0:0:0:0:
264,320,94383,5,12,0:0:0:0:
264,320,94576,1,0,0:0:0:0:
160,272,94770,1,4,0:0:0:0:
160,272,94963,1,0,0:0:0:0:
160,176,95157,1,12,0:0:0:0:
56,128,95350,1,0,0:0:0:0:
56,24,95544,1,4,0:0:0:0:
160,72,95738,1,0,0:0:0:0:
264,120,95931,6,0,L|312:120|368:144|432:144,1,142.5,8|0,0:0|0:0,0:0:0:0:
448,144,96318,2,0,B|490:150|506:190|490:230|442:238,1,142.5,2|0,0:0|0:0,0:0:0:0:
392,240,96705,2,0,B|280:240,3,95,8|0|2|2,0:0|0:0|0:0|0:0,0:0:0:0:
184,336,97480,6,0,B|136:328|120:288|136:248|184:240,1,142.5,8|0,0:0|0:0,0:0:0:0:
224,240,97867,2,0,B|272:232|288:192|272:152|224:144,1,142.5,2|0,0:0|0:0,0:0:0:0:
224,96,98254,2,0,B|129:96,2,95,8|2|2,0:0|0:0|0:0,0:0:0:0:
256,352,99028,5,4,0:0:0:0:
256,32,100576,1,4,0:0:0:0:
32,192,102125,1,4,0:0:0:0:
480,192,103673,1,4,0:0:0:0:
256,32,104447,1,4,0:0:0:0:
32,192,105221,1,4,0:0:0:0:
256,360,105996,1,4,0:0:0:0:
256,24,106770,5,4,0:0:0:0:
184,88,106963,1,0,0:0:0:0:
256,144,107157,1,0,0:0:0:0:
328,208,107350,1,0,0:0:0:0:
256,272,107544,1,4,0:0:0:0:
184,208,107738,1,0,0:0:0:0:
256,144,107931,1,0,0:0:0:0:
160,96,108318,5,4,0:0:0:0:
160,288,108705,1,0,0:0:0:0:
352,288,109092,1,4,0:0:0:0:
352,96,109480,1,0,0:0:0:0:
256,192,109673,1,0,0:0:0:0:
256,256,109867,1,6,0:0:0:0:
256,264,109963,1,0,0:0:0:0:
256,272,110060,1,0,0:0:0:0:
256,280,110157,1,0,0:0:0:0:
256,288,110254,1,6,0:0:0:0:
256,296,110350,1,0,0:0:0:0:
256,304,110447,1,0,0:0:0:0:
256,312,110544,1,0,0:0:0:0:
256,320,110641,1,6,0:0:0:0:
256,328,110738,1,0,0:0:0:0:
256,336,110834,1,0,0:0:0:0:
256,344,110931,1,0,0:0:0:0:
256,352,111028,1,6,0:0:0:0:
256,88,111415,5,4,0:0:0:0:
144,192,111802,1,4,0:0:0:0:
256,296,112189,1,4,0:0:0:0:
368,192,112576,1,4,0:0:0:0:
96,128,112963,1,4,0:0:0:0:
192,352,113350,1,4,0:0:0:0:
416,256,113738,1,4,0:0:0:0:
320,32,114125,1,4,0:0:0:0:
160,288,114512,5,4,0:0:0:0:
160,288,114705,1,4,0:0:0:0:
160,288,114899,1,4,0:0:0:0:
352,288,115286,1,4,0:0:0:0:
352,288,115480,1,4,0:0:0:0:
352,96,116060,5,4,0:0:0:0:
352,96,116254,1,4,0:0:0:0:
352,96,116447,1,4,0:0:0:0:
160,96,116834,1,4,0:0:0:0:
160,96,117028,1,4,0:0:0:0:
256,296,117609,5,4,0:0:0:0:
368,192,117996,1,4,0:0:0:0:
256,88,118383,1,4,0:0:0:0:
144,192,118770,1,4,0:0:0:0:
416,256,119157,1,4,0:0:0:0:
320,32,119544,1,4,0:0:0:0:
96,128,119931,1,4,0:0:0:0:
192,352,120318,1,4,0:0:0:0:
352,288,120705,5,4,0:0:0:0:
416,296,120899,1,0,0:0:0:0:
448,352,121092,1,0,0:0:0:0:
160,96,121480,1,4,0:0:0:0:
96,88,121673,1,0,0:0:0:0:
64,32,121867,1,0,0:0:0:0:
160,288,122254,5,4,0:0:0:0:
64,352,122641,1,4,0:0:0:0:
352,96,123028,1,4,0:0:0:0:
448,32,123415,1,4,0:0:0:0:
336,32,123802,5,6,0:0:0:0:
296,32,123899,1,0,0:0:0:0:
256,40,123996,1,0,0:0:0:0:
216,48,124092,1,0,0:0:0:0:
184,64,124189,1,10,0:0:0:0:
176,352,124576,1,6,0:0:0:0:
216,352,124673,1,0,0:0:0:0:
256,344,124770,1,0,0:0:0:0:
296,336,124867,1,0,0:0:0:0:
328,320,124963,1,10,0:0:0:0:
88,160,125350,5,6,0:0:0:0:
88,160,125447,1,0,0:0:0:0:
88,160,125544,1,2,0:0:0:0:
88,160,125641,2,0,L|152:192|200:192,1,95,4|0,0:0|0:0,0:0:0:0:
208,208,125931,2,0,L|248:192|416:192,1,190,6|4,0:0|0:0,0:0:0:0:
432,48,126512,5,2,0:0:0:0:
464,64,126609,1,0,0:0:0:0:
496,80,126705,1,0,0:0:0:0:
496,112,126802,1,0,0:0:0:0:
496,144,126899,1,2,0:0:0:0:
496,176,126996,1,0,0:0:0:0:
472,200,127092,1,2,0:0:0:0:
472,232,127189,1,0,0:0:0:0:
472,264,127286,1,14,0:0:0:0:
88,48,127673,5,2,0:0:0:0:
56,64,127770,1,0,0:0:0:0:
24,80,127867,1,2,0:0:0:0:
24,112,127963,1,0,0:0:0:0:
24,144,128060,2,4,L|24:176|56:208|56:320,1,190,8|2,0:0|0:0,0:0:0:0:
88,320,128544,1,0,0:0:0:0:
120,320,128641,1,2,0:0:0:0:
152,304,128738,1,0,0:0:0:0:
184,304,128834,2,4,L|240:304|272:336|368:336,2,190,8|0|8,0:0|0:0|0:0,0:0:0:0:
192,136,129899,5,2,0:0:0:0:
224,128,129996,2,0,L|288:112|336:80|424:56,1,190,0|8,0:0|0:0,0:0:0:0:
320,248,130673,1,2,0:0:0:0:
288,256,130770,2,0,L|224:272|176:304|88:328,1,190,0|8,0:0|0:0,0:0:0:0:
136,136,131544,6,0,L|128:64|176:32,1,95,2|0,0:0|0:0,0:0:0:0:
376,248,131931,2,0,L|384:320|336:352,1,95,2|0,0:0|0:0,0:0:0:0:
312,72,132318,2,0,L|384:64|416:112,1,95,2|0,0:0|0:0,0:0:0:0:
200,312,132705,2,0,L|128:320|96:272,1,95,2|0,0:0|0:0,0:0:0:0:
128,176,133092,5,8,0:0:0:0:
136,176,133189,1,0,0:0:0:0:
144,176,133286,1,2,0:0:0:0:
152,176,133383,1,0,0:0:0:0:
160,176,133480,2,0,L|208:176|304:200|352:200,1,190,8|8,0:0|0:0,0:0:0:0:
352,200,133963,1,0,0:0:0:0:
360,200,134060,1,2,0:0:0:0:
368,200,134157,1,0,0:0:0:0:
376,200,134254,1,8,0:0:0:0:
256,24,134641,6,0,L|256:320,1,285,4|0,0:0|0:0,0:0:0:0:
216,288,135318,6,0,L|88:288,1,95,2|2,0:0|0:0,0:0:0:0:
288,216,135609,6,0,L|400:216,1,95,2|2,0:0|0:0,0:0:0:0:
248,136,135899,6,0,L|144:136,1,95,2|2,0:0|0:0,0:0:0:0:
296,40,136189,6,8,L|296:144|368:200,1,190,4|0,0:0|0:0,0:0:0:0:
224,200,136770,1,2,0:0:0:0:
431,198,136963,2,0,L|432:296|360:368,1,190,4|8,0:0|0:0,0:0:0:0:
224,200,137544,1,2,0:0:0:0:
160,96,137738,6,0,L|112:96|72:120,1,95,4|2,0:0|0:0,0:0:0:0:
96,256,138125,2,0,L|120:296|120:344,1,95,8|2,0:0|0:0,0:0:0:0:
288,320,138512,2,0,L|336:320|376:296,1,95,4|2,0:0|0:0,0:0:0:0:
416,128,138899,2,0,L|392:96|392:40,1,95,8|2,0:0|0:0,0:0:0:0:
216,40,139286,6,0,L|216:136|136:208,1,190,4|8,0:0|0:0,0:0:0:0:
288,200,139867,1,2,0:0:0:0:
81,198,140060,2,0,L|80:296|152:368,1,190,4|8,0:0|0:0,0:0:0:0:
288,200,140641,1,2,0:0:0:0:
320,32,140834,6,0,L|384:64|384:160,1,142.5
352,128,141221,2,0,L|352:200|416:256,1,142.5,2|0,0:0|0:0,0:0:0:0:
408,280,141609,1,8,0:0:0:0:
408,312,141705,1,0,0:0:0:0:
384,336,141802,1,2,0:0:0:0:
360,352,141899,1,0,0:0:0:0:
328,352,141996,1,8,0:0:0:0:
296,352,142092,1,0,0:0:0:0:
272,328,142189,1,2,0:0:0:0:
240,328,142286,1,0,0:0:0:0:
208,328,142383,6,0,L|120:328|48:256,1,190,8|2,0:0|0:0,0:0:0:0:
328,288,142963,1,2,0:0:0:0:
48,328,143157,2,0,L|120:256|216:256,1,190,8|2,0:0|0:0,0:0:0:0:
320,192,143738,5,0,0:0:0:0:
256,88,143931,1,4,0:0:0:0:
192,192,144125,1,0,0:0:0:0:
320,192,144318,1,4,0:0:0:0:
256,88,144512,1,0,0:0:0:0:
160,256,144705,1,4,0:0:0:0:
352,256,144899,1,0,0:0:0:0:
256,88,145092,1,4,0:0:0:0:
88,328,145480,5,8,0:0:0:0:
96,320,145576,1,0,0:0:0:0:
104,312,145673,1,0,0:0:0:0:
112,304,145770,1,0,0:0:0:0:
120,296,145867,1,2,0:0:0:0:
424,328,146254,1,8,0:0:0:0:
416,320,146350,1,0,0:0:0:0:
408,312,146447,1,0,0:0:0:0:
400,304,146544,1,0,0:0:0:0:
392,296,146641,1,2,0:0:0:0:
256,48,147028,5,0,0:0:0:0:
256,56,147125,1,0,0:0:0:0:
256,64,147221,1,2,0:0:0:0:
256,72,147318,1,0,0:0:0:0:
256,80,147415,1,8,0:0:0:0:
256,88,147512,1,0,0:0:0:0:
256,96,147609,1,2,0:0:0:0:
256,104,147705,1,0,0:0:0:0:
256,112,147802,1,8,0:0:0:0:
256,120,147899,1,0,0:0:0:0:
256,128,147996,1,2,0:0:0:0:
256,136,148092,1,0,0:0:0:0:
256,144,148189,1,10,0:0:0:0:
216,344,148576,6,8,L|216:248|136:176,1,190,4|0,0:0|0:0,0:0:0:0:
288,184,149157,1,2,0:0:0:0:
208,20,149350,2,0,L|143:86|144:184,1,190,4|8,0:0|0:0,0:0:0:0:
288,184,149931,1,2,0:0:0:0:
352,288,150125,6,0,L|400:288|440:264,1,95,4|2,0:0|0:0,0:0:0:0:
416,128,150512,2,0,L|416:80|392:40,1,95,8|2,0:0|0:0,0:0:0:0:
224,64,150899,2,0,L|176:64|136:88,1,95,4|2,0:0|0:0,0:0:0:0:
96,256,151286,2,0,L|96:304|120:344,1,95,8|2,0:0|0:0,0:0:0:0:
296,344,151673,6,0,L|368:272|368:160,1,190,4|8,0:0|0:0,0:0:0:0:
224,184,152254,1,2,0:0:0:0:
368,184,152447,2,0,L|296:120|296:24,1,190,4|8,0:0|0:0,0:0:0:0:
224,184,153028,1,2,0:0:0:0:
192,352,153221,6,0,L|128:320|128:224,1,142.5
160,264,153609,2,0,L|96:232|96:136,1,142.5,2|0,0:0|0:0,0:0:0:0:
96,128,153996,1,8,0:0:0:0:
96,96,154092,1,0,0:0:0:0:
120,72,154189,1,2,0:0:0:0:
144,56,154286,1,0,0:0:0:0:
168,40,154383,1,8,0:0:0:0:
200,40,154480,1,0,0:0:0:0:
232,40,154576,1,2,0:0:0:0:
256,64,154673,1,0,0:0:0:0:
280,88,154770,6,0,L|368:88|440:160,1,190,8|2,0:0|0:0,0:0:0:0:
320,192,155350,1,2,0:0:0:0:
256,296,155544,2,0,L|354:297|426:225,1,190,8|2,0:0|0:0,0:0:0:0:
320,192,156125,5,0,0:0:0:0:
256,296,156318,1,4,0:0:0:0:
192,192,156512,1,0,0:0:0:0:
320,192,156705,1,4,0:0:0:0:
256,296,156899,1,0,0:0:0:0:
160,128,157092,1,4,0:0:0:0:
352,128,157286,1,0,0:0:0:0:
256,296,157480,1,4,0:0:0:0:
88,328,157867,5,8,0:0:0:0:
96,320,157963,1,0,0:0:0:0:
104,312,158060,1,0,0:0:0:0:
112,304,158157,1,0,0:0:0:0:
120,296,158254,1,2,0:0:0:0:
424,328,158641,1,8,0:0:0:0:
416,320,158738,1,0,0:0:0:0:
408,312,158834,1,0,0:0:0:0:
400,304,158931,1,0,0:0:0:0:
392,296,159028,1,2,0:0:0:0:
256,336,159415,5,10,0:0:0:0:
256,328,159512,1,0,0:0:0:0:
256,320,159609,1,2,0:0:0:0:
256,312,159705,1,0,0:0:0:0:
256,304,159802,1,8,0:0:0:0:
256,296,159899,1,0,0:0:0:0:
256,288,159996,1,2,0:0:0:0:
256,280,160092,1,0,0:0:0:0:
256,272,160189,1,8,0:0:0:0:
256,264,160286,1,0,0:0:0:0:
256,256,160383,1,0,0:0:0:0:
256,248,160480,1,0,0:0:0:0:
256,240,160576,1,10,0:0:0:0:
256,96,160963,5,6,0:0:0:0:
256,96,161350,1,6,0:0:0:0:
256,96,161738,1,6,0:0:0:0:
256,96,161931,1,6,0:0:0:0:
256,96,162318,1,6,0:0:0:0:
256,96,162705,1,6,0:0:0:0:
256,96,163092,1,6,0:0:0:0:
