osu file format v13

[General]
AudioFilename: track.mp3
AudioLeadIn: 0
PreviewTime: 56157
Countdown: 0
SampleSet: Soft
StackLeniency: 0.7
Mode: 0
LetterboxInBreaks: 0
EpilepsyWarning: 1
WidescreenStoryboard: 1

[Editor]
DistanceSpacing: 1.4
BeatDivisor: 4
GridSize: 4
TimelineZoom: 0.4999999

[Metadata]
Title:Szep karacsony
TitleUnicode:Szép karácsony
Artist:Josh & Jutta
ArtistUnicode:Josh és Jutta
Creator:Kazuya
Version:Slow
Source:
Tags:christmas teleton 2007 magyar hungarian xmas kazuya-sama
BeatmapID:534002
BeatmapSetID:229524

[Difficulty]
HPDrainRate:2
CircleSize:2
OverallDifficulty:2
ApproachRate:3
SliderMultiplier:0.99999990463257
SliderTickRate:2

[Events]
//Background and Video events
0,0,"fa.jpg",0,0
//Break Periods
2,27107,28467
2,54107,55467
2,81107,82467
2,108107,109467
2,159107,160467
//Storyboard Layer 0 (Background)
//Storyboard Layer 1 (Fail)
//Storyboard Layer 2 (Pass)
//Storyboard Layer 3 (Foreground)
//Storyboard Sound Samples

[TimingPoints]
2907,750,4,2,1,50,1,0
56907,-100,4,2,1,90,0,1
80907,-100,4,2,1,50,0,0
110907,-100,4,2,1,90,0,1
134907,-100,4,2,1,50,0,0
161907,-100,4,2,1,90,0,1
185907,-100,4,2,1,5,0,0

[Colours]
Combo1 : 255,200,95
Combo2 : 145,160,255
Combo3 : 10,195,205
Combo4 : 250,130,110
SliderBorder : 255,255,255

[HitObjects]
128,112,2907,6,0,P|76:118|20:92,2,99.999990463257,6|2|2,0:0|0:0|0:0,0:0:0:0:
256,56,5157,1,2,0:0:0:0:
384,112,5907,2,0,P|435:118|492:92,2,99.999990463257,2|2|2,0:0|0:0|0:0,0:0:0:0:
256,56,8157,1,2,0:0:0:0:
172,168,8907,6,0,L|164:232,1,49.9999952316285,2|0,0:0|0:0,0:0:0:0:
161,287,9657,2,0,P|196:316|264:324,1,99.999990463257,2|2,0:0|0:0,0:0:0:0:
384,292,11157,1,2,0:0:0:0:
468,180,11907,2,0,L|480:120,1,49.9999952316285,2|0,0:0|0:0,0:0:0:0:
466,62,12657,2,0,P|420:44|368:52,1,99.999990463257,2|2,0:0|0:0,0:0:0:0:
256,130,14157,1,2,0:0:0:0:
129,190,14907,38,0,P|117:242|129:290,1,99.999990463257,6|2,0:0|0:0,0:0:0:0:
257,339,16407,1,2,0:0:0:0:
377,267,17157,2,0,L|437:271,1,49.9999952316285,2|0,0:0|0:0,0:0:0:0:
485,231,17907,2,0,P|509:167|505:123,2,99.999990463257,2|2|2,0:0|0:0|0:0,0:0:0:0:
369,152,20157,1,2,0:0:0:0:
254,72,20907,6,0,B|190:56|190:56|146:60,2,99.999990463257,2|2|2,0:0|0:0|0:0,0:0:0:0:
369,152,23157,1,2,0:0:0:0:
298,273,23907,2,0,P|268:282|230:281,1,49.9999952316285,2|0,0:0|0:0,0:0:0:0:
179,282,24657,2,0,L|69:276,1,99.999990463257,2|2,0:0|0:0,0:0:0:0:
12,153,26157,1,2,0:0:0:0:
132,80,26907,1,2,0:0:0:0:
132,80,29907,38,0,L|248:64,2,99.999990463257,4|0|0,0:0|0:0|0:0,0:0:0:0:
48,192,32157,1,8,0:0:0:0:
120,312,32907,2,0,P|168:300|224:304,1,99.999990463257
352,344,34407,2,0,P|401:346|450:334,1,99.999990463257,0|8,0:0|0:0,0:0:0:0:
500,204,35907,5,0,0:0:0:0:
428,84,36657,1,0,0:0:0:0:
344,196,37407,2,0,L|352:264,2,49.9999952316285,0|0|8,0:0|0:0|0:0,0:0:0:0:
260,84,38907,2,0,P|212:68|152:72,1,99.999990463257
140,208,40407,2,0,P|188:224|248:220,1,99.999990463257,0|8,0:0|0:0,0:0:0:0:
366,168,41907,37,4,0:0:0:0:
444,284,42657,2,0,L|448:340,2,49.9999952316285,0|0|0,0:0|0:0|0:0,0:0:0:0:
366,168,44157,1,8,0:0:0:0:
256,255,44907,1,0,0:0:0:0:
148,344,45657,2,0,P|123:336|92:332,1,49.9999952316285
33,310,46407,2,0,P|17:266|25:206,1,99.999990463257,0|8,0:0|0:0,0:0:0:0:
132,128,47907,6,0,P|180:144|236:144,1,99.999990463257,0|0,0:0|0:0,0:0:0:0:
348,72,49407,2,0,L|344:16,2,49.9999952316285,0|0|8,0:0|0:0|0:0,0:0:0:0:
356,212,50907,2,0,B|320:228|320:228|240:220,1,99.999990463257
128,172,52407,2,0,B|64:168|64:168|30:182,1,99.999990463257,0|8,0:0|0:0,0:0:0:0:
92,308,53907,1,2,0:0:0:0:
92,308,56907,6,0,P|140:292|196:296,1,99.999990463257,4|8,0:0|0:0,0:0:0:0:
324,332,58407,2,0,P|373:334|420:318,1,99.999990463257,0|8,0:0|0:0,0:0:0:0:
472,188,59907,2,0,L|464:88,2,99.999990463257,0|8|0,0:0|0:0|0:0,0:0:0:0:
420,320,62157,1,8,0:0:0:0:
308,236,62907,6,0,P|281:229|252:232,1,49.9999952316285
189,238,63657,2,0,P|139:246|80:236,1,99.999990463257,8|0,0:0|0:0,0:0:0:0:
24,116,65157,1,8,0:0:0:0:
148,52,65907,2,0,P|177:60|200:60,1,49.9999952316285
266,55,66657,2,0,P|314:47|378:55,1,99.999990463257,8|0,0:0|0:0,0:0:0:0:
480,132,68157,1,8,0:0:0:0:
424,260,68907,38,0,L|432:360,2,99.999990463257,4|8|0,0:0|0:0|0:0,0:0:0:0:
352,140,71157,1,8,0:0:0:0:
240,224,71907,2,0,P|212:224|188:228,1,49.9999952316285
125,252,72657,2,0,P|73:252|28:236,1,99.999990463257,8|0,0:0|0:0,0:0:0:0:
20,96,74157,1,8,0:0:0:0:
148,40,74907,5,0,0:0:0:0:
256,129,75657,2,0,L|256:189,2,49.9999952316285,8|0|0,0:0|0:0|0:0,0:0:0:0:
364,40,77157,1,8,0:0:0:0:
448,152,77907,2,0,L|444:208,1,49.9999952316285
435,272,78657,2,0,P|387:292|331:292,1,99.999990463257,8|0,0:0|0:0,0:0:0:0:
256,181,80157,1,8,0:0:0:0:
172,293,80907,1,2,0:0:0:0:
148,92,83907,6,0,B|104:68|104:68|48:80,2,99.999990463257,4|0|0,0:0|0:0|0:0,0:0:0:0:
256,184,86157,1,8,0:0:0:0:
364,92,86907,2,0,B|408:68|408:68|464:80,1,99.999990463257,0|0,0:0|0:0,0:0:0:0:
472,218,88407,2,0,B|428:242|428:242|379:231,1,99.999990463257,0|8,0:0|0:0,0:0:0:0:
256,164,89907,6,0,P|210:141|156:152,2,99.999990463257,0|0|0,0:0|0:0|0:0,0:0:0:0:
368,248,92157,1,8,0:0:0:0:
256,332,92907,1,0,0:0:0:0:
144,248,93657,2,0,L|140:192,1,49.9999952316285
134,128,94407,2,0,P|178:108|230:116,1,99.999990463257,0|8,0:0|0:0,0:0:0:0:
348,188,95907,37,0,0:0:0:0:
460,104,96657,2,0,L|448:48,2,49.9999952316285,0|0|0,0:0|0:0|0:0,0:0:0:0:
492,240,98157,1,8,0:0:0:0:
380,324,98907,1,0,0:0:0:0:
327,194,99657,2,0,P|297:193|271:198,1,49.9999952316285
218,234,100407,2,0,P|169:240|120:232,1,99.999990463257,0|8,0:0|0:0,0:0:0:0:
31,124,101907,6,0,L|19:20,2,99.999990463257,0|0|0,0:0|0:0|0:0,0:0:0:0:
120,232,104157,1,8,0:0:0:0:
224,325,104907,1,0,0:0:0:0:
352,268,105657,2,0,L|358:205,1,49.9999952316285
364,148,106407,2,0,P|321:128|252:138,1,99.999990463257,0|8,0:0|0:0,0:0:0:0:
144,194,107907,1,2,0:0:0:0:
48,336,110907,6,0,B|28:292|28:292|32:240,1,99.999990463257,4|8,0:0|0:0,0:0:0:0:
140,152,112407,1,0,0:0:0:0:
224,264,113157,2,0,P|271:281|328:276,2,99.999990463257,8|0|8,0:0|0:0|0:0,0:0:0:0:
140,152,115407,1,0,0:0:0:0:
256,72,116157,2,0,L|316:76,1,49.9999952316285,8|0,0:0|0:0,0:0:0:0:
372,52,116907,6,0,P|420:32|488:44,2,99.999990463257,0|8|0,0:0|0:0|0:0,0:0:0:0:
300,172,119157,1,8,0:0:0:0:
228,292,119907,2,0,L|176:296,1,49.9999952316285
108,296,120657,2,0,P|60:268|40:216,1,99.999990463257,8|0,0:0|0:0,0:0:0:0:
84,96,122157,1,8,0:0:0:0:
208,160,122907,38,0,P|256:168|308:160,1,99.999990463257,4|8,0:0|0:0,0:0:0:0:
412,68,124407,1,0,0:0:0:0:
496,180,125157,1,8,0:0:0:0:
418,296,125907,2,0,L|362:292,1,49.9999952316285
306,260,126657,2,0,P|257:253|206:260,1,99.999990463257,8|0,0:0|0:0,0:0:0:0:
72,296,128157,6,0,L|60:192,1,99.999990463257,8|0,0:0|0:0,0:0:0:0:
48,57,129657,2,0,P|96:41|152:49,1,99.999990463257,8|0,0:0|0:0,0:0:0:0:
256,131,131157,1,8,0:0:0:0:
387,81,131907,2,0,P|394:104|395:141,1,49.9999952316285
407,199,132657,2,0,P|395:247|395:299,2,99.999990463257,8|0|8,0:0|0:0|0:0,0:0:0:0:
492,88,134907,5,4,0:0:0:0:
368,24,135657,1,0,0:0:0:0:
256,108,136407,2,0,P|208:120|152:116,1,99.999990463257,0|8,0:0|0:0,0:0:0:0:
32,56,137907,2,0,P|19:106|24:164,1,99.999990463257
145,222,139407,2,0,P|159:271|192:319,1,99.999990463257,0|8,0:0|0:0,0:0:0:0:
326,313,140907,6,0,P|352:270|366:222,1,99.999990463257,4|0,0:0|0:0,0:0:0:0:
392,85,142407,1,0,0:0:0:0:
256,50,143157,1,8,0:0:0:0:
120,85,143907,2,0,P|108:136|116:184,1,99.999990463257
213,283,145407,1,0,0:0:0:0:
321,192,146157,1,8,0:0:0:0:
400,76,146907,37,4,0:0:0:0:
512,160,147657,1,0,0:0:0:0:
433,276,148407,2,0,L|448:344,2,49.9999952316285,0|0|8,0:0|0:0|0:0,0:0:0:0:
321,192,149907,2,0,P|272:181|211:199,1,99.999990463257
152,312,151407,2,0,P|103:322|42:304,1,99.999990463257,0|8,0:0|0:0,0:0:0:0:
40,172,152907,6,0,L|48:72,2,99.999990463257,4|0|0,0:0|0:0|0:0,0:0:0:0:
56,312,155157,1,8,0:0:0:0:
176,240,155907,1,0,0:0:0:0:
304,296,156657,2,0,L|424:312,2,99.999990463257,0|0|8,0:0|0:0|0:0,0:0:0:0:
176,240,158907,1,4,0:0:0:0:
488,112,161907,6,0,B|440:104|440:104|388:120,1,99.999990463257,4|8,0:0|0:0,0:0:0:0:
308,232,163407,2,0,B|258:247|258:247|210:239,1,99.999990463257,0|8,0:0|0:0,0:0:0:0:
120,132,164907,2,0,L|116:24,2,99.999990463257,0|8|0,0:0|0:0|0:0,0:0:0:0:
211,239,167157,1,8,0:0:0:0:
328,316,167907,6,0,L|388:312,1,49.9999952316285
440,280,168657,2,0,P|464:228|460:176,1,99.999990463257,8|0,0:0|0:0,0:0:0:0:
388,68,170157,1,8,0:0:0:0:
260,124,170907,2,0,P|228:130|208:128,1,49.9999952316285
144,108,171657,2,0,P|96:96|48:108,1,99.999990463257,8|0,0:0|0:0,0:0:0:0:
16,244,173157,1,8,0:0:0:0:
128,328,173907,38,0,L|236:320,1,99.999990463257,4|8,0:0|0:0,0:0:0:0:
312,208,175407,1,0,0:0:0:0:
440,264,176157,1,8,0:0:0:0:
420,125,176907,2,0,L|404:24,2,99.999990463257,0|8|0,0:0|0:0|0:0,0:0:0:0:
440,264,179157,1,8,0:0:0:0:
300,272,179907,6,0,L|188:280,1,99.999990463257,0|8,0:0|0:0,0:0:0:0:
68,232,181407,1,0,0:0:0:0:
36,96,182157,1,8,0:0:0:0:
168,48,182907,2,0,P|216:64|276:56,1,99.999990463257,0|8,0:0|0:0,0:0:0:0:
400,24,184407,1,0,0:0:0:0:
484,136,185157,1,8,0:0:0:0:
256,192,185907,12,0,188907,0:0:0:0:
