osu file format v12

[General]
AudioFilename: Jose Manuel - Invencible! (TV Size).mp3
AudioLeadIn: 1000
PreviewTime: 25803
Countdown: 0
SampleSet: Normal
StackLeniency: 0.7
Mode: 1
LetterboxInBreaks: 0
WidescreenStoryboard: 0

[Editor]
DistanceSpacing: 1
BeatDivisor: 4
GridSize: 4
TimelineZoom: 1.8

[Metadata]
Title:Invencible Soy (TV Size)
TitleUnicode:Invencible Soy (TV Size)
Artist:Jose Manuel
ArtistUnicode:Jose Manuel
Creator:[Yue]
Version:LTL's Muzukashii
Source:Pokemon: Batalla Avanzada
Tags:Advanced Battle Opening Satoshi Pikachu Ash May Max Brock Treecko Torchic Mudkip Gero Lost The Lights
BeatmapID:340968
BeatmapSetID:136207

[Difficulty]
HPDrainRate:4
CircleSize:4
OverallDifficulty:4
ApproachRate:9
SliderMultiplier:1.4
SliderTickRate:1

[Events]
//Background and Video events
0,0,"Pokemon BG.png",0,0
//Break Periods
//Storyboard Layer 0 (Background)
//Storyboard Layer 1 (Fail)
//Storyboard Layer 2 (Pass)
//Storyboard Layer 3 (Foreground)
//Storyboard Sound Samples
//Background Colour Transformations
3,100,163,162,255

[TimingPoints]
540,394.736842105263,4,1,0,55,1,0
25803,-100,4,1,0,65,0,1
35276,-100,4,1,0,55,0,0
41592,-100,4,1,0,65,0,1
49487,-100,4,1,0,55,0,0
50079,-100,4,1,0,40,0,0
50967,-100,4,1,0,55,0,0
52645,-100,4,1,0,65,0,1
55803,-100,4,1,0,55,0,0

[Colours]
Combo1 : 115,230,0
Combo2 : 255,124,62
Combo3 : 0,126,253

[HitObjects]
256,192,3697,5,12,0:0:0:0:
256,192,3895,1,0,0:0:0:0:
256,192,4092,1,0,0:0:0:0:
256,192,4289,1,8,0:0:0:0:
256,192,4487,1,0,0:0:0:0:
256,192,4684,1,0,0:0:0:0:
256,192,4882,1,8,0:0:0:0:
256,192,5079,1,0,0:0:0:0:
256,192,5276,1,4,0:0:0:0:
256,192,5671,1,8,0:0:0:0:
256,192,5868,1,0,0:0:0:0:
256,192,6066,1,0,0:0:0:0:
256,192,6461,1,8,0:0:0:0:
256,192,6658,1,0,0:0:0:0:
256,192,7053,1,0,0:0:0:0:
256,192,7250,1,8,0:0:0:0:
256,192,7645,1,0,0:0:0:0:
256,192,7842,1,0,0:0:0:0:
256,192,8039,1,8,0:0:0:0:
256,192,8434,1,0,0:0:0:0:
256,192,8829,1,8,0:0:0:0:
256,192,9026,1,0,0:0:0:0:
256,192,9224,1,0,0:0:0:0:
256,192,9618,1,8,0:0:0:0:
256,192,9816,1,0,0:0:0:0:
256,192,10211,1,0,0:0:0:0:
256,192,10408,1,8,0:0:0:0:
256,192,10803,1,0,0:0:0:0:
256,192,11000,1,0,0:0:0:0:
256,192,11197,1,8,0:0:0:0:
256,192,11395,1,8,0:0:0:0:
256,192,11592,1,0,0:0:0:0:
256,192,11987,1,8,0:0:0:0:
256,192,12184,1,0,0:0:0:0:
256,192,12382,1,8,0:0:0:0:
256,192,12579,1,8,0:0:0:0:
256,192,12974,1,0,0:0:0:0:
256,192,13171,1,8,0:0:0:0:
256,192,13368,1,8,0:0:0:0:
256,192,13763,1,8,0:0:0:0:
256,192,14158,1,0,0:0:0:0:
256,192,14355,1,8,0:0:0:0:
256,192,14750,1,0,0:0:0:0:
256,192,15145,1,8,0:0:0:0:
256,192,15539,1,0,0:0:0:0:
256,192,15737,1,0,0:0:0:0:
256,192,15934,1,8,0:0:0:0:
256,192,16132,1,0,0:0:0:0:
256,192,16329,1,8,0:0:0:0:
256,192,16526,1,8,0:0:0:0:
256,192,16724,1,0,0:0:0:0:
256,192,17118,1,8,0:0:0:0:
256,192,17513,1,8,0:0:0:0:
256,192,17711,1,8,0:0:0:0:
256,192,17908,1,4,0:0:0:0:
256,192,18303,1,8,0:0:0:0:
256,192,18500,1,0,0:0:0:0:
256,192,18895,1,0,0:0:0:0:
256,192,19092,1,8,0:0:0:0:
256,192,19289,1,0,0:0:0:0:
256,192,19684,1,0,0:0:0:0:
256,192,19882,1,8,0:0:0:0:
256,192,20276,1,0,0:0:0:0:
256,192,20474,1,0,0:0:0:0:
256,192,20671,1,8,0:0:0:0:
256,192,21066,1,4,0:0:0:0:
256,192,21263,1,0,0:0:0:0:
256,192,21461,1,8,0:0:0:0:
256,192,21658,1,0,0:0:0:0:
256,192,22053,1,0,0:0:0:0:
256,192,22250,1,8,0:0:0:0:
256,192,22447,1,0,0:0:0:0:
256,192,22842,1,0,0:0:0:0:
256,192,23039,1,8,0:0:0:0:
256,192,23237,1,0,0:0:0:0:
256,192,23632,1,0,0:0:0:0:
256,192,23829,1,8,0:0:0:0:
256,192,24026,1,0,0:0:0:0:
256,192,24224,1,8,0:0:0:0:
256,192,24618,1,8,0:0:0:0:
256,192,25013,2,0,P|256:56|200:56,1,210
256,192,25803,1,12,0:0:0:0:
256,192,26197,1,8,0:0:0:0:
256,192,26395,1,0,0:0:0:0:
256,192,26592,1,0,0:0:0:0:
256,192,26987,1,8,0:0:0:0:
256,192,27184,1,0,0:0:0:0:
256,192,27579,1,0,0:0:0:0:
256,192,27776,1,8,0:0:0:0:
256,192,28171,1,0,0:0:0:0:
256,192,28368,1,0,0:0:0:0:
256,192,28566,1,8,0:0:0:0:
256,192,28763,1,8,0:0:0:0:
256,192,28961,1,0,0:0:0:0:
256,192,29355,1,8,0:0:0:0:
256,192,29553,1,8,0:0:0:0:
256,192,29750,1,8,0:0:0:0:
256,192,30145,1,4,0:0:0:0:
256,192,30539,1,12,0:0:0:0:
256,192,30737,1,12,0:0:0:0:
256,192,30934,1,4,0:0:0:0:
256,192,31132,1,4,0:0:0:0:
256,192,31329,1,12,0:0:0:0:
256,192,31526,1,12,0:0:0:0:
256,192,31724,2,0,L|256:44,1,140
256,192,32513,1,8,0:0:0:0:
256,192,32711,1,0,0:0:0:0:
256,192,32908,1,0,0:0:0:0:
256,192,33303,1,8,0:0:0:0:
256,192,33500,1,0,0:0:0:0:
256,192,33895,1,0,0:0:0:0:
256,192,34092,1,8,0:0:0:0:
256,192,34487,1,0,0:0:0:0:
256,192,34684,1,0,0:0:0:0:
256,192,34882,1,8,0:0:0:0:
256,192,35079,1,8,0:0:0:0:
256,192,35276,1,4,0:0:0:0:
256,192,35671,1,8,0:0:0:0:
256,192,35868,1,0,0:0:0:0:
256,192,36066,1,0,0:0:0:0:
256,192,36461,1,8,0:0:0:0:
256,192,36658,1,0,0:0:0:0:
256,192,36855,1,0,0:0:0:0:
256,192,37250,1,8,0:0:0:0:
256,192,37447,1,0,0:0:0:0:
256,192,37842,1,0,0:0:0:0:
256,192,38039,1,8,0:0:0:0:
256,192,38434,1,4,0:0:0:0:
256,192,38829,1,8,0:0:0:0:
256,192,39026,1,0,0:0:0:0:
256,192,39421,1,8,0:0:0:0:
256,192,39618,1,8,0:0:0:0:
256,192,39816,1,0,0:0:0:0:
256,192,40211,1,0,0:0:0:0:
256,192,40408,1,8,0:0:0:0:
256,192,40605,1,0,0:0:0:0:
256,192,40803,1,8,0:0:0:0:
256,192,41000,1,0,0:0:0:0:
256,192,41197,1,8,0:0:0:0:
256,192,41395,1,8,0:0:0:0:
256,192,41592,1,4,0:0:0:0:
256,192,41987,1,8,0:0:0:0:
256,192,42184,1,0,0:0:0:0:
256,192,42382,1,0,0:0:0:0:
256,192,42776,1,8,0:0:0:0:
256,192,42974,1,0,0:0:0:0:
256,192,43368,1,0,0:0:0:0:
256,192,43566,1,8,0:0:0:0:
256,192,43961,1,0,0:0:0:0:
256,192,44158,1,0,0:0:0:0:
256,192,44355,1,8,0:0:0:0:
256,192,44553,1,8,0:0:0:0:
256,192,44750,1,0,0:0:0:0:
256,192,45145,1,8,0:0:0:0:
256,192,45342,1,8,0:0:0:0:
256,192,45539,1,8,0:0:0:0:
256,192,45934,1,4,0:0:0:0:
256,192,46329,1,12,0:0:0:0:
256,192,46526,1,12,0:0:0:0:
256,192,46724,1,4,0:0:0:0:
256,192,46921,1,4,0:0:0:0:
256,192,47118,1,12,0:0:0:0:
256,192,47316,1,12,0:0:0:0:
256,192,47908,1,4,0:0:0:0:
256,192,48303,1,8,0:0:0:0:
256,192,48500,1,0,0:0:0:0:
256,192,48697,1,0,0:0:0:0:
256,192,49092,1,8,0:0:0:0:
256,192,49289,1,0,0:0:0:0:
256,192,49684,1,0,0:0:0:0:
256,192,49882,1,8,0:0:0:0:
256,192,50276,1,8,0:0:0:0:
256,192,50474,1,0,0:0:0:0:
256,192,50671,1,8,0:0:0:0:
256,192,51066,1,12,0:0:0:0:
256,192,51263,1,0,0:0:0:0:
256,192,51461,1,0,0:0:0:0:
256,192,51658,1,8,0:0:0:0:
256,192,51855,1,0,0:0:0:0:
256,192,52053,1,0,0:0:0:0:
256,192,52250,1,8,0:0:0:0:
256,192,52447,1,0,0:0:0:0:
256,192,52645,1,8,0:0:0:0:
256,192,53039,1,0,0:0:0:0:
256,192,53434,1,8,0:0:0:0:
256,192,53829,1,0,0:0:0:0:
256,192,54026,1,8,0:0:0:0:
256,192,54421,1,0,0:0:0:0:
256,192,54618,1,8,0:0:0:0:
256,192,55013,1,0,0:0:0:0:
256,192,55211,1,0,0:0:0:0:
256,192,55408,1,8,0:0:0:0:
256,192,55803,1,4,0:0:0:0:
256,192,56197,1,4,0:0:0:0:
256,192,56592,1,8,0:0:0:0:
256,192,56987,1,8,0:0:0:0:
256,192,57382,1,4,0:0:0:0:
256,192,57579,1,4,0:0:0:0:
256,192,57776,1,12,0:0:0:0:
256,192,58171,1,0,0:0:0:0:
256,192,58368,1,4,0:0:0:0:
256,192,58566,1,12,0:0:0:0:
256,192,58763,1,12,0:0:0:0:
