osu file format v12

[General]
AudioFilename: Jose Manuel - Invencible! (TV Size).mp3
AudioLeadIn: 1000
PreviewTime: 25803
Countdown: 0
SampleSet: Soft
StackLeniency: 0.4
Mode: 0
LetterboxInBreaks: 0
WidescreenStoryboard: 0

[Editor]
DistanceSpacing: 1.1
BeatDivisor: 4
GridSize: 4
TimelineZoom: 2.2

[Metadata]
Title:Invencible Soy (TV Size)
TitleUnicode:Invencible Soy (TV Size)
Artist:Jose Manuel
ArtistUnicode:Jose Manuel
Creator:[Yue]
Version:Gero's Hard
Source:Pokemon: Batalla Avanzada
Tags:Advanced Battle Opening Satoshi Pikachu Ash May Max Brock Treecko Torchic Mudkip Gero Lost The Lights
BeatmapID:340924
BeatmapSetID:136207

[Difficulty]
HPDrainRate:6
CircleSize:4
OverallDifficulty:6
ApproachRate:8
SliderMultiplier:1.6
SliderTickRate:2

[Events]
//Background and Video events
0,0,"Pokemon BG.png",0,0
//Break Periods
//Storyboard Layer 0 (Background)
//Storyboard Layer 1 (Fail)
//Storyboard Layer 2 (Pass)
//Storyboard Layer 3 (Foreground)
//Storyboard Sound Samples
//Background Colour Transformations
3,100,163,162,255

[TimingPoints]
540,394.736842105263,4,2,1,50,1,0
540,-100,4,2,1,50,0,0
3697,-100,4,1,1,50,0,0
12678,-100,4,1,2,40,0,0
12875,-100,4,1,1,50,0,0
25803,-83.3333333333333,4,1,1,50,0,1
32020,-83.3333333333333,4,1,1,50,0,0
32118,-83.3333333333333,4,1,1,50,0,1
41493,-83.3333333333333,4,1,1,50,0,0
41592,-83.3333333333333,4,1,1,50,0,1
47809,-83.3333333333333,4,1,1,50,0,0
47908,-83.3333333333333,4,1,1,50,0,1
49487,-100,4,1,1,50,0,0

[Colours]
Combo1 : 115,230,0
Combo2 : 255,124,62
Combo3 : 0,126,253

[HitObjects]
256,339,540,6,0,P|329:366|406:344,1,160,2|2,0:0|0:0,0:0:0:0:
440,271,1132,1,0,0:0:0:0:
360,271,1329,2,0,P|406:344|475:344,1,160,2|2,0:0|0:0,0:0:0:0:
440,271,1921,2,0,P|394:198|325:198,1,160,2|2,0:0|0:0,0:0:0:0:
277,259,2513,6,0,B|356:117,1,160,2|2,0:0|0:0,0:0:0:0:
470,51,3105,2,0,L|434:123,1,80,0|2,0:0|0:0,0:0:0:0:
182,297,3697,6,0,P|195:259|183:219,1,80,4|2,0:3|0:2,0:0:0:0:
122,159,4092,2,0,P|109:121|121:81,1,80,2|8,0:2|0:3,0:0:0:0:
181,21,4487,1,2,0:2:0:0:
198,38,4586,1,2,0:2:0:0:
214,54,4684,1,2,0:2:0:0:
276,116,4882,2,0,B|318:116|318:116|346:143,1,80,2|2,0:2|0:2,0:0:0:0:
407,204,5276,6,0,P|437:276|407:348,1,160,4|8,0:0|0:0,0:0:0:0:
354,276,5868,1,0,0:0:0:0:
296,209,6066,2,0,L|214:209,1,80,0|8,0:0|0:3,0:0:0:0:
158,276,6461,1,8,0:0:0:0:
104,347,6658,2,0,P|75:275|105:204,1,160,8|8,0:3|0:3,0:0:0:0:
140,124,7250,1,8,0:0:0:0:
66,76,7447,2,0,B|95:37|139:37|139:37|218:37,1,160,8|8,0:3|0:3,0:0:0:0:
301,37,8039,2,0,B|374:37|374:37|418:37|447:76,1,160,8|8,0:0|0:3,0:0:0:0:
411,248,8829,6,0,L|411:328,1,80,8|8,0:0|0:3,0:0:0:0:
322,248,9224,2,0,L|322:155,1,80,8|8,0:3|0:3,0:0:0:0:
397,122,9618,1,8,0:0:0:0:
469,72,9816,2,0,P|400:104|331:66,1,160,8|8,0:3|0:3,0:0:0:0:
256,20,10408,1,8,0:0:0:0:
180,66,10605,2,0,P|113:103|43:72,1,160,8|8,0:3|0:3,0:0:0:0:
110,14,11197,5,8,0:0:0:0:
180,66,11395,1,8,0:3:0:0:
196,82,11493,1,8,0:3:0:0:
213,99,11592,1,4,0:0:0:0:
276,161,11789,1,0,0:0:0:0:
260,247,11987,2,0,P|298:247|335:224,1,80,8|8,0:0|0:3,0:0:0:0:
362,143,12382,1,0,0:0:0:0:
276,161,12579,2,0,L|321:324,1,160,8|8,0:3|0:3,0:0:0:0:
424,371,13171,6,0,L|404:294,1,80,8|0,0:3|0:0,0:0:0:0:
424,208,13566,1,8,0:0:0:0:
453,124,13763,2,0,P|429:73|335:52,1,160,8|8,0:3|0:3,0:0:0:0:
248,71,14355,2,0,B|214:71|214:71|202:79|202:79|171:79,1,80,8|8,0:0|0:3,0:0:0:0:
99,130,14750,1,8,0:3:0:0:
36,192,14947,5,0,0:0:0:0:
99,254,15145,2,0,P|139:254|175:274,1,80,8|8,0:0|0:3,0:0:0:0:
256,301,15539,1,0,0:0:0:0:
256,301,15737,1,8,0:3:0:0:
338,272,15934,2,0,P|373:253|413:254,2,80,8|8|8,0:0|0:3|0:3,0:0:0:0:
311,356,16526,1,8,0:3:0:0:
395,329,16724,2,0,L|353:174,1,160,8|8,0:0|0:3,0:0:0:0:
405,112,17316,1,0,0:0:0:0:
466,48,17513,6,0,P|435:28|393:24,1,80,8|8,0:0|0:3,0:0:0:0:
393,24,17809,1,8,0:3:0:0:
393,24,17908,1,4,0:0:0:0:
405,112,18105,1,8,0:3:0:0:
429,198,18303,1,8,0:0:0:0:
440,285,18500,2,0,P|382:334|315:299,1,160,8|8,0:3|0:3,0:0:0:0:
256,232,19092,1,8,0:0:0:0:
196,166,19289,6,0,P|128:131|71:180,1,160,8|8,0:3|0:3,0:0:0:0:
95,265,19882,1,8,0:0:0:0:
131,344,20079,2,0,L|300:362,1,160,8|8,0:3|0:3,0:0:0:0:
377,374,20671,5,8,0:0:0:0:
439,311,20868,1,8,0:3:0:0:
501,248,21066,2,0,L|462:164,2,80,4|8|8,0:0|0:3|0:0,0:0:0:0:
439,311,21658,2,0,L|366:161,1,160,8|8,0:3|0:3,0:0:0:0:
299,112,22250,6,0,P|326:83|365:76,2,80,8|8|0,0:0|0:3|0:0,0:0:0:0:
256,189,22842,1,8,0:3:0:0:
223,270,23039,1,8,0:0:0:0:
223,270,23237,2,0,P|173:213|188:134,1,160,8|8,0:3|0:3,0:0:0:0:
256,189,23829,2,0,P|291:213|309:246,1,80,8|8,0:0|0:3,0:0:0:0:
223,270,24224,6,0,L|345:160,1,160,2|2,0:2|0:2,0:0:0:0:
442,76,24914,1,8,0:3:0:0:
459,59,25013,1,8,0:3:0:0:
487,142,25211,1,8,0:3:0:0:
426,205,25408,1,8,0:3:0:0:
408,222,25507,1,8,0:3:0:0:
391,238,25605,1,8,0:3:0:0:
373,255,25704,1,8,0:3:0:0:
355,272,25803,5,4,0:0:0:0:
279,330,26000,1,0,0:0:0:0:
187,361,26197,2,0,P|140:361|105:331,1,95.9999970703126,8|8,0:0|0:3,0:0:0:0:
279,330,26592,2,0,P|326:329|361:359,2,95.9999970703126,8|8|8,0:3|0:3|0:0,0:0:0:0:
219,254,27184,6,0,B|219:171|301:171|301:88,1,191.999994140625,8|8,0:3|0:3,0:0:0:0:
211,88,27776,2,0,B|211:171|293:171|293:254,1,191.999994140625,8|8,0:0|0:3,0:0:0:0:
381,216,28368,1,0,0:0:0:0:
464,176,28566,2,0,P|476:221|461:266,1,95.9999970703126,8|8,0:0|0:3,0:0:0:0:
381,216,28961,2,0,P|365:171|378:125,1,95.9999970703126,8|0,0:3|0:0,0:0:0:0:
446,57,29355,5,8,0:0:0:0:
351,39,29553,1,8,0:3:0:0:
322,44,29651,1,8,0:3:0:0:
293,49,29750,1,8,0:3:0:0:
198,67,29947,1,8,0:3:0:0:
103,84,30145,5,8,0:0:0:0:
179,216,30342,1,8,0:3:0:0:
198,67,30539,1,0,0:0:0:0:
97,177,30737,1,8,0:3:0:0:
247,147,30934,5,8,0:0:0:0:
103,84,31132,1,8,0:3:0:0:
179,216,31329,1,8,0:3:0:0:
198,67,31526,1,8,0:3:0:0:
97,177,31724,1,8,0:0:0:0:
247,147,31921,1,8,0:3:0:0:
103,84,32118,6,0,P|27:114|15:216,1,191.999994140625,4|8,0:0|0:0,0:0:0:0:
89,274,32711,1,8,0:3:0:0:
168,328,32908,2,0,B|256:366|256:366|344:328,1,191.999994140625,8|8,0:3|0:0,0:0:0:0:
344,232,33500,2,0,B|256:194|256:194|168:232,1,191.999994140625,8|8,0:3|0:3,0:0:0:0:
97,177,34092,5,8,0:0:0:0:
180,129,34289,1,8,0:3:0:0:
256,71,34487,1,0,0:0:0:0:
332,129,34684,1,8,0:3:0:0:
415,177,34882,1,8,0:0:0:0:
344,232,35079,1,8,0:3:0:0:
415,177,35276,6,0,P|426:128|415:85,1,95.9999970703126,4|8,0:0|0:3,0:0:0:0:
332,129,35671,2,0,B|284:129|284:129|249:163,2,95.9999970703126,8|8|0,0:0|0:3|0:0,0:0:0:0:
415,85,36263,1,8,0:3:0:0:
333,34,36461,2,0,L|232:34,1,95.9999970703126,8|8,0:0|0:3,0:0:0:0:
140,34,36855,1,4,0:0:0:0:
62,90,37053,1,8,0:3:0:0:
29,181,37250,1,8,0:0:0:0:
29,181,37447,6,0,P|42:273|128:311,1,191.999994140625,8|8,0:3|0:3,0:0:0:0:
209,265,38039,1,8,0:0:0:0:
304,265,38237,1,8,0:3:0:0:
387,311,38434,2,0,P|470:272|483:181,1,191.999994140625,4|8,0:0|0:0,0:0:0:0:
438,95,39026,2,0,B|368:95|368:95|323:66|323:66|255:66,1,191.999994140625,8|8,0:3|0:3,0:0:0:0:
158,66,39618,2,0,P|112:66|71:94,1,95.9999970703126,8|8,0:0|0:3,0:0:0:0:
140,160,40013,2,0,B|176:192|176:192|140:224,1,95.9999970703126,8|8,0:0|0:3,0:0:0:0:
71,290,40408,2,0,P|110:317|158:318,1,95.9999970703126,8|8,0:0|0:3,0:0:0:0:
251,295,40803,1,8,0:0:0:0:
344,272,41000,5,8,0:3:0:0:
357,247,41099,1,8,0:3:0:0:
368,221,41197,1,8,0:3:0:0:
380,195,41296,1,8,0:3:0:0:
393,170,41395,1,8,0:3:0:0:
405,145,41493,1,8,0:3:0:0:
419,120,41592,5,4,0:0:0:0:
351,52,41789,1,8,0:3:0:0:
257,31,41987,2,0,P|210:31|175:61,1,95.9999970703126,8|8,0:0|0:3,0:0:0:0:
43,174,42382,2,0,P|90:175|126:145,2,95.9999970703126,0|8|8,0:0|0:3|0:0,0:0:0:0:
53,78,42974,6,0,B|126:268,1,191.999994140625,8|8,0:3|0:3,0:0:0:0:
215,281,43566,2,0,B|146:101,1,191.999994140625,8|8,0:0|0:3,0:0:0:0:
210,30,44158,1,8,0:3:0:0:
305,30,44355,2,0,B|352:30|352:30|389:67,1,95.9999970703126,8|8,0:0|0:3,0:0:0:0:
454,132,44750,2,0,L|415:228,1,95.9999970703126,0|8,0:0|0:3,0:0:0:0:
350,289,45145,5,8,0:0:0:0:
272,345,45342,1,8,0:3:0:0:
243,340,45441,1,8,0:3:0:0:
214,335,45539,1,8,0:3:0:0:
121,309,45737,1,8,0:3:0:0:
28,282,45934,6,0,P|2:192|26:98,1,191.999994140625,8|8,0:0|0:3,0:0:0:0:
119,77,46526,1,0,0:0:0:0:
212,54,46724,2,0,B|256:54|256:54|292:91,2,95.9999970703126,8|8|0,0:0|0:3|0:0,0:0:0:0:
219,150,47316,1,8,0:3:0:0:
237,244,47513,1,8,0:0:0:0:
214,335,47711,1,8,0:3:0:0:
243,340,47809,1,8,0:3:0:0:
271,345,47908,6,0,P|367:345|428:273,1,191.999994140625,4|8,0:0|0:0,0:0:0:0:
471,192,48500,1,8,0:3:0:0:
426,106,48697,2,0,P|364:37|271:39,1,191.999994140625,8|8,0:3|0:0,0:0:0:0:
186,85,49289,1,8,0:3:0:0:
104,127,49487,2,0,B|104:168|104:168|83:205,1,80,4|2,0:0|2:0,0:0:0:0:
18,143,49882,6,0,L|180:185,1,160,2|2,2:0|2:0,2:0:0:0:
258,205,50474,1,2,2:0:0:0:
340,233,50671,2,0,P|380:298|347:369,1,160,2|4,2:0|0:0,2:0:0:0:
256,328,51263,5,8,0:3:0:0:
164,368,51461,1,0,0:0:0:0:
147,351,51559,1,0,0:0:0:0:
129,333,51658,1,8,0:3:0:0:
191,270,51855,1,0,0:0:0:0:
258,205,52053,1,8,0:3:0:0:
241,188,52151,1,0,0:0:0:0:
223,170,52250,1,8,0:3:0:0:
160,107,52447,1,8,0:3:0:0:
222,44,52645,6,0,P|301:44|370:93,1,160,4|8,0:0|0:0,0:0:0:0:
309,146,53237,1,8,0:3:0:0:
258,205,53434,2,0,P|323:249|402:249,1,160,8|8,0:3|0:0,0:0:0:0:
445,172,54026,1,8,0:3:0:0:
484,93,54224,2,0,L|412:41,1,80,0|8,0:0|0:3,0:0:0:0:
332,30,54618,2,0,B|256:54|256:54|180:30,1,160,8|8,1:0|0:3,2:0:0:0:
92,46,55211,1,0,0:0:0:0:
92,46,55408,6,0,L|28:93,2,80,8|8|8,1:0|2:3|0:3,2:0:0:0:
256,112,56197,1,8,0:3:0:0:
419,46,56592,2,0,L|484:93,1,80,2|0,2:0|2:0,2:0:0:0:
421,155,56987,2,0,L|485:201,1,80,2|0,2:0|2:0,2:0:0:0:
510,286,57382,5,8,1:3:0:0:
510,286,57579,1,2,2:0:0:0:
430,324,57776,2,0,B|350:324|351:365|270:365,1,160,2|0,1:2|2:0,2:0:0:0:
214,302,58368,5,2,2:0:0:0:
256,225,58566,1,0,2:0:0:0:
299,148,58763,1,4,1:0:0:0:
