osu file format v12

[General]
AudioFilename: Jose Manuel - Invencible! (TV Size).mp3
AudioLeadIn: 1000
PreviewTime: 25803
Countdown: 0
SampleSet: Soft
StackLeniency: 0.4
Mode: 0
LetterboxInBreaks: 0
WidescreenStoryboard: 0

[Editor]
DistanceSpacing: 1
BeatDivisor: 4
GridSize: 4
TimelineZoom: 1

[Metadata]
Title:Invencible Soy (TV Size)
TitleUnicode:Invencible Soy (TV Size)
Artist:Jose Manuel
ArtistUnicode:Jose Manuel
Creator:[Yue]
Version:Gero's Easy
Source:Pokemon: Batalla Avanzada
Tags:Advanced Battle Opening Satoshi Pikachu Ash May Max Brock Treecko Torchic Mudkip Gero Lost The Lights
BeatmapID:340967
BeatmapSetID:136207

[Difficulty]
HPDrainRate:2
CircleSize:3
OverallDifficulty:2
ApproachRate:3
SliderMultiplier:0.8
SliderTickRate:1

[Events]
//Background and Video events
0,0,"Pokemon BG.png",0,0
//Break Periods
//Storyboard Layer 0 (Background)
//Storyboard Layer 1 (Fail)
//Storyboard Layer 2 (Pass)
//Storyboard Layer 3 (Foreground)
//Storyboard Sound Samples
//Background Colour Transformations
3,100,163,162,255

[TimingPoints]
540,394.736842105263,4,2,1,50,1,0
540,-100,4,2,1,50,0,0
3697,-100,4,1,1,50,0,0
10309,-100,4,1,2,40,0,0
10507,-100,4,1,1,50,0,0
11888,-100,4,1,2,40,0,0
12086,-100,4,1,1,50,0,0
13467,-100,4,1,2,40,0,0
13664,-100,4,1,1,50,0,0
17414,-100,4,1,2,40,0,0
17612,-100,4,1,1,50,0,0
21362,-100,4,1,2,40,0,0
21559,-100,4,1,1,50,0,0
22941,-100,4,1,2,40,0,0
23138,-100,4,1,1,50,0,0
25803,-83.3333333333333,4,1,1,50,0,1
26888,-83.3333333333333,4,1,2,40,0,1
27086,-83.3333333333333,4,1,1,50,0,1
30046,-83.3333333333333,4,1,2,40,0,1
30243,-83.3333333333333,4,1,1,50,0,1
32020,-83.3333333333333,4,1,1,50,0,0
32118,-83.3333333333333,4,1,1,50,0,1
32414,-83.3333333333333,4,1,2,40,0,1
32612,-83.3333333333333,4,1,1,50,0,1
33204,-83.3333333333333,4,1,2,40,0,1
33401,-83.3333333333333,4,1,1,50,0,1
41493,-83.3333333333333,4,1,1,50,0,0
41592,-83.3333333333333,4,1,1,50,0,1
41888,-83.3333333333333,4,1,2,40,0,1
42086,-83.3333333333333,4,1,1,50,0,1
45836,-83.3333333333333,4,1,2,40,0,1
46033,-83.3333333333333,4,1,1,50,0,1
47809,-83.3333333333333,4,1,1,50,0,0
47908,-83.3333333333333,4,1,1,50,0,1
48204,-83.3333333333333,4,1,2,40,0,1
48401,-83.3333333333333,4,1,1,50,0,1
48993,-83.3333333333333,4,1,2,40,0,1
49191,-83.3333333333333,4,1,1,50,0,1
49487,-100,4,1,1,50,0,0
52941,-100,4,1,2,40,0,0
53138,-100,4,1,1,50,0,0
53730,-100,4,1,2,40,0,0
53928,-100,4,1,1,50,0,0

[Colours]
Combo1 : 115,230,0
Combo2 : 255,124,62
Combo3 : 0,126,253

[HitObjects]
302,340,540,6,0,B|381:340|381:340|432:340|452:303,2,160,2|2|0,0:0|0:0|0:0,0:0:0:0:
230,288,2513,2,0,B|259:251|299:252|299:252|378:252,1,160,2|2,0:0|0:0,0:0:0:0:
378,164,3697,6,0,L|251:164,2,120,4|8|2,0:3|0:3|0:2,0:0:0:0:
440,101,5276,1,4,0:0:0:0:
377,38,5671,2,0,L|217:38,1,160,8|8,0:0|0:0,0:0:0:0:
128,38,6855,1,0,0:0:0:0:
54,86,7250,2,0,B|54:160|5:160|5:237,2,160,8|8|8,0:0|0:0|0:0,0:0:0:0:
128,38,9224,5,8,0:3:0:0:
215,30,9618,2,0,B|270:29|270:29|322:80,2,120,8|8|0,0:0|0:3|0:0,0:0:0:0:
229,116,11197,1,8,0:0:0:0:
254,200,11592,6,0,P|254:267|325:322,1,160,4|0,0:0|0:0,0:0:0:0:
340,235,12776,1,8,0:0:0:0:
415,280,13171,2,0,B|436:249|425:208|425:208|457:176,2,120,8|8|8,0:3|0:3|0:0,0:0:0:0:
340,235,14750,1,8,0:3:0:0:
258,200,15145,6,0,B|217:200|217:200|184:224,1,80,8|0,0:0|0:0,0:0:0:0:
115,169,15934,2,0,L|180:121,1,80,8|8,0:0|0:3,0:0:0:0:
252,72,16724,1,8,0:0:0:0:
326,24,17118,2,0,P|388:24|443:98,1,160,8|4,0:3|0:0,0:0:0:0:
355,105,18303,6,0,B|360:154|406:179|406:179|341:203,1,160,8|8,0:0|0:0,0:0:0:0:
256,188,19487,1,0,0:0:0:0:
168,201,19882,2,0,B|106:179|106:179|152:154|157:105,1,160,8|8,0:0|0:0,0:0:0:0:
212,36,21066,6,0,P|157:17|101:35,2,120,4|8|8,0:0|0:3|0:0,0:0:0:0:
300,36,22645,2,0,P|355:17|411:35,2,120,0|8|8,0:0|0:3|0:0,0:0:0:0:
256,192,24224,12,4,25803,0:0:0:0:
184,177,26592,6,0,P|256:124|328:177,1,191.999994140625,8|0,0:3|0:0,0:0:0:0:
396,245,27776,1,8,0:0:0:0:
328,312,28171,1,8,0:3:0:0:
256,376,28566,1,8,0:0:0:0:
184,312,28961,1,8,0:3:0:0:
116,245,29355,5,8,0:0:0:0:
172,167,29750,2,0,B|256:213|256:213|340:167,1,191.999994140625,8|0,0:3|0:0,0:0:0:0:
256,120,30934,2,0,B|256:96|256:96|252:80|252:80|260:80|260:80|256:64|256:64|256:32,2,95.9999970703126,8|8|8,0:0|0:3|0:0,0:0:0:0:
172,167,32118,6,0,P|256:304|340:167,1,383.99998828125,4|0,0:0|0:0,0:0:0:0:
256,211,34092,1,8,0:0:0:0:
256,115,34487,2,0,L|256:18,2,95.9999970703126,0|8|4,0:0|0:0|0:0,0:0:0:0:
172,167,35671,6,0,L|10:275,1,191.999994140625,8|8,0:0|0:0,0:0:0:0:
99,324,36855,1,4,0:0:0:0:
180,365,37250,2,0,L|342:257,1,191.999994140625,8|8,0:0|0:0,0:0:0:0:
421,207,38434,5,4,0:0:0:0:
476,128,38829,2,0,P|487:81|470:38,1,95.9999970703126,8|0,0:0|0:0,0:0:0:0:
387,89,39618,2,0,L|281:88,1,95.9999970703126,8|8,0:0|0:0,0:0:0:0:
201,129,40408,2,0,P|189:83|207:38,2,95.9999970703126,8|8|8,0:0|0:0|0:3,0:0:0:0:
256,207,41592,6,0,B|270:239|252:271|231:306|256:346,2,143.999995605469,4|8|8,0:0|0:3|0:0,0:0:0:0:
324,138,43171,1,0,0:0:0:0:
391,70,43566,2,0,B|440:70|440:70|477:98,1,95.9999970703126,8|8,0:0|0:3,0:0:0:0:
497,192,44355,1,8,0:0:0:0:
477,285,44750,1,0,0:0:0:0:
389,323,45145,5,8,0:0:0:0:
293,310,45539,2,0,B|215:255|215:255|118:255,1,191.999994140625,8|8,0:3|0:3,0:0:0:0:
76,168,46724,2,0,P|64:120|76:76,2,95.9999970703126,8|0|8,0:0|0:0|0:0,0:0:0:0:
160,120,47908,6,0,B|224:168|320:94|328:28|256:-8|184:28|192:94|288:168|352:120,1,383.99998828125,4|4,0:0|0:0,0:0:0:0:
200,300,51066,6,0,P|256:282|312:300,2,120,4|8|8,0:0|0:3|0:3,0:0:0:0:
179,214,52645,2,0,P|256:194|333:214,2,160,4|8|0,0:0|0:3|0:0,0:0:0:0:
116,276,54618,5,8,1:0:0:0:
178,338,55013,1,8,0:3:0:0:
256,297,55408,1,8,1:0:0:0:
334,338,55803,5,8,0:3:0:0:
396,276,56197,1,8,0:3:0:0:
256,192,56592,12,4,58763,0:0:0:0:
