osu file format v12

[General]
AudioFilename: Jose Manuel - Invencible! (TV Size).mp3
AudioLeadIn: 1000
PreviewTime: 25803
Countdown: 0
SampleSet: Normal
StackLeniency: 0.7
Mode: 0
LetterboxInBreaks: 0
WidescreenStoryboard: 0

[Editor]
DistanceSpacing: 1
BeatDivisor: 2
GridSize: 4
TimelineZoom: 1

[Metadata]
Title:Invencible Soy (TV Size)
TitleUnicode:Invencible Soy (TV Size)
Artist:Jose Manuel
ArtistUnicode:Jose Manuel
Creator:[Yue]
Version:Normal
Source:Pokemon: Batalla Avanzada
Tags:Advanced Battle Opening Satoshi Pikachu Ash May Max Brock Treecko Torchic Mudkip Gero Lost The Lights
BeatmapID:340970
BeatmapSetID:136207

[Difficulty]
HPDrainRate:4
CircleSize:3
OverallDifficulty:4
ApproachRate:5
SliderMultiplier:1.2
SliderTickRate:1

[Events]
//Background and Video events
0,0,"Pokemon BG.png",0,0
//Break Periods
//Storyboard Layer 0 (Background)
//Storyboard Layer 1 (Fail)
//Storyboard Layer 2 (Pass)
//Storyboard Layer 3 (Foreground)
//Storyboard Sound Samples
//Background Colour Transformations
3,100,163,162,255

[TimingPoints]
540,394.736842105263,4,2,1,60,1,0
540,-100,4,2,1,45,0,0
3697,-100,4,1,1,60,0,0
25803,-100,4,1,1,70,0,1
32020,-100,4,1,1,70,0,0
32118,-100,4,1,1,70,0,1
41493,-100,4,1,1,70,0,0
41592,-100,4,1,1,70,0,1
47809,-100,4,1,1,70,0,0
47908,-100,4,1,1,70,0,1
49487,-100,4,2,1,60,0,0
51066,-100,4,1,1,70,0,0

[Colours]
Combo1 : 115,230,0
Combo2 : 255,124,62
Combo3 : 0,126,253

[HitObjects]
272,164,540,6,0,P|368:104|464:168,2,240,2|2|0,0:0|0:0|0:0,0:0:0:0:
204,264,2513,2,0,P|160:312|108:328,1,120,2|0,0:0|0:0,0:0:0:0:
44,228,3303,1,2,0:0:0:0:
256,192,3697,12,0,5276,0:0:0:0:
368,264,5671,5,8,0:0:0:0:
248,252,6066,1,0,0:0:0:0:
172,160,6461,2,0,L|172:100,1,60,8|0,0:0|0:0,0:0:0:0:
276,40,7053,2,0,L|340:40,1,60,0|8,0:0|0:0,0:0:0:0:
440,96,7645,1,0,0:0:0:0:
439,220,8039,2,0,P|394:258|336:272,1,120,8|0,0:0|0:0,0:0:0:0:
340,148,8829,5,8,0:0:0:0:
216,96,9224,2,0,L|92:72,1,120,0|8,0:0|0:0,0:0:0:0:
68,124,9816,2,0,L|68:244,1,120
92,300,10408,2,0,L|209:277,1,120,8|0,0:0|0:0,0:0:0:0:
292,192,11197,2,0,L|420:192,1,120,8|4,0:0|0:0,0:0:0:0:
484,96,11987,6,0,P|440:56|376:44,2,120,8|0|8,0:0|0:0|0:0,0:0:0:0:
384,164,13171,1,0,0:0:0:0:
280,104,13566,2,0,P|221:113|168:145,1,120,8|0,0:0|0:0,0:0:0:0:
256,228,14355,1,8,0:0:0:0:
168,312,14750,6,0,P|112:332|48:336,1,120,0|8,0:0|0:0,0:0:0:0:
52,216,15539,2,0,P|52:156|70:95,1,120,0|8,0:0|0:0,0:0:0:0:
184,64,16329,1,0,0:0:0:0:
300,100,16724,1,8,0:0:0:0:
216,184,17118,1,0,0:0:0:0:
128,264,17513,1,8,0:0:0:0:
160,312,17711,1,0,0:0:0:0:
216,336,17908,5,4,0:0:0:0:
336,348,18303,2,0,P|386:317|415:265,1,120,8|0,0:0|0:0,0:0:0:0:
300,232,19092,1,8,0:0:0:0:
376,140,19487,1,0,0:0:0:0:
256,120,19882,2,0,P|208:96|140:92,1,120,8|0,0:0|0:0,0:0:0:0:
172,208,20671,1,8,0:0:0:0:
172,328,21066,5,4,0:0:0:0:
292,312,21461,1,8,0:0:0:0:
292,192,21855,1,0,0:0:0:0:
360,92,22250,2,0,P|420:108|472:144,2,120,8|0|8,0:0|0:0|0:0,0:0:0:0:
240,80,23434,1,0,0:0:0:0:
128,124,23829,1,8,0:0:0:0:
128,244,24224,5,2,0:0:0:0:
240,292,24618,2,0,P|347:262|331:146,1,240,2|8,0:0|0:0,0:0:0:0:
300,40,25803,6,0,P|404:84|460:196,1,240,4|0,0:0|0:0,0:0:0:0:
432,308,26987,2,0,P|396:355|342:381,1,120,8|0,0:0|0:0,0:0:0:0:
284,368,27579,1,0,0:0:0:0:
240,324,27776,1,8,0:0:0:0:
160,236,28171,2,0,P|200:192|260:172,1,120,0|8,0:0|0:0,0:0:0:0:
328,80,28961,6,0,L|452:80,2,120,0|8|0,0:0|0:0|0:0,0:0:0:0:
336,200,30145,1,10,0:0:0:0:
256,288,30539,2,0,L|188:288,1,60,2|0,0:0|0:0,0:0:0:0:
136,276,30934,2,0,L|112:216,1,60,10|0,0:0|0:0,0:0:0:0:
96,164,31329,2,0,L|152:128,1,60,2|0,0:0|0:0,0:0:0:0:
184,84,31724,1,8,0:0:0:0:
240,188,32118,6,0,P|283:223|348:232,2,120,4|8|0,0:0|0:0|0:0,0:0:0:0:
332,112,33303,2,0,L|368:64,1,60,8|0,0:0|0:0,0:0:0:0:
484,100,33895,2,0,L|484:160,1,60,0|8,0:0|0:0,0:0:0:0:
392,240,34487,1,0,0:0:0:0:
272,220,34882,1,8,0:0:0:0:
156,244,35276,6,0,P|128:300|80:332,1,120,4|8,0:0|0:0,0:0:0:0:
40,220,36066,1,0,0:0:0:0:
104,120,36461,2,0,P|132:64|180:32,1,120,8|4,0:0|0:0,0:0:0:0:
236,140,37250,2,0,L|292:176,2,60,8|0|0,0:0|0:0|0:0,0:0:0:0:
308,44,38039,1,8,0:0:0:0:
428,44,38434,5,4,0:0:0:0:
416,164,38829,2,0,P|444:212|500:240,2,120,8|0|8,0:0|0:0|0:0,0:0:0:0:
328,84,40013,1,0,0:0:0:0:
228,152,40408,1,8,0:0:0:0:
196,268,40803,2,0,P|172:320|108:332,1,120,8|8,0:0|0:0,0:0:0:0:
36,244,41592,6,0,P|44:128|145:68,1,240,4|0,0:0|0:0,0:0:0:0:
264,68,42776,2,0,L|388:68,1,120,8|0,0:0|0:0,0:0:0:0:
432,104,43368,1,0,0:0:0:0:
448,160,43566,1,8,0:0:0:0:
380,260,43961,2,0,L|260:260,1,120,0|8,0:0|0:0,0:0:0:0:
140,244,44750,6,0,P|79:223|55:171,1,120,0|8,0:0|0:0,0:0:0:0:
116,72,45539,1,0,0:0:0:0:
232,44,45934,2,0,L|300:80,1,60,8|0,0:0|0:0,0:0:0:0:
340,100,46329,2,0,L|376:152,1,60,2|0,0:0|0:0,0:0:0:0:
352,204,46724,1,10,0:0:0:0:
252,268,47118,2,0,P|192:262|142:230,1,120,0|8,0:0|0:0,0:0:0:0:
232,152,47908,5,4,0:0:0:0:
320,72,48303,2,0,P|271:40|209:35,1,120,8|0,0:0|0:0,0:0:0:0:
96,76,49092,2,0,L|48:124,1,60,8|0,0:0|0:0,0:0:0:0:
168,156,49684,5,0,0:0:0:0:
224,172,49882,1,0,0:0:0:0:
344,184,50276,2,0,P|380:230|390:288,1,120,2|2,0:0|0:0,0:0:0:0:
268,296,51066,2,0,L|144:352,2,120,0|0|0,0:0|0:0|0:0,0:0:0:0:
188,204,52250,1,0,0:0:0:0:
252,104,52645,5,4,0:0:0:0:
368,76,53039,2,0,L|484:32,2,120,8|0|8,0:0|0:0|0:0,0:0:0:0:
332,192,54224,1,0,0:0:0:0:
260,288,54618,1,8,0:0:0:0:
140,304,55013,2,0,P|80:300|32:264,1,120,0|8,0:0|0:0,0:0:0:0:
132,196,55803,1,2,0:0:0:0:
32,128,56197,1,2,0:0:0:0:
144,84,56592,6,0,P|200:67|260:68,1,120,2|0,0:0|0:0,0:0:0:0:
360,140,57382,1,2,0:0:0:0:
392,192,57579,1,0,0:0:0:0:
384,252,57776,2,0,P|328:268|264:276,1,120,2|0,0:0|0:0,0:0:0:0:
236,224,58368,2,0,L|188:188,2,60,2|0|4,0:0|0:0|0:0,0:0:0:0:
