osu file format v12

[General]
AudioFilename: Jose Manuel - Invencible! (TV Size).mp3
AudioLeadIn: 1000
PreviewTime: 25803
Countdown: 0
SampleSet: Normal
StackLeniency: 0.7
Mode: 0
LetterboxInBreaks: 0
WidescreenStoryboard: 0

[Editor]
DistanceSpacing: 1.1
BeatDivisor: 4
GridSize: 4
TimelineZoom: 2.5

[Metadata]
Title:Invencible Soy (TV Size)
TitleUnicode:Invencible Soy (TV Size)
Artist:Jose Manuel
ArtistUnicode:Jose Manuel
Creator:[Yue]
Version:Insane
Source:Pokemon: Batalla Avanzada
Tags:Advanced Battle Opening Satoshi Pikachu Ash May Max Brock Treecko Torchic Mudkip Gero Lost The Lights
BeatmapID:340925
BeatmapSetID:136207

[Difficulty]
HPDrainRate:7
CircleSize:4
OverallDifficulty:7
ApproachRate:8
SliderMultiplier:2
SliderTickRate:2

[Events]
//Background and Video events
0,0,"Pokemon BG.png",0,0
//Break Periods
//Storyboard Layer 0 (Background)
//Storyboard Layer 1 (Fail)
//Storyboard Layer 2 (Pass)
//Storyboard Layer 3 (Foreground)
//Storyboard Sound Samples
//Background Colour Transformations
3,100,163,162,255

[TimingPoints]
540,394.736842105263,4,2,1,60,1,0
540,-133.333333333333,4,2,1,45,0,0
3697,-100,4,1,1,60,0,0
25803,-100,4,1,1,70,0,1
32020,-100,4,1,1,70,0,0
32118,-100,4,1,1,70,0,1
41493,-100,4,1,1,70,0,0
41592,-100,4,1,1,70,0,1
47809,-100,4,1,1,70,0,0
47908,-100,4,1,1,70,0,1
49487,-100,4,2,1,60,0,0
51066,-100,4,1,1,70,0,0

[Colours]
Combo1 : 115,230,0
Combo2 : 255,124,62
Combo3 : 0,126,253

[HitObjects]
64,108,540,6,0,P|88:176|160:204,1,150.000005722046,2|0,0:0|0:0,0:0:0:0:
196,132,1132,1,0,0:0:0:0:
280,136,1329,2,0,P|352:140|400:196,1,150.000005722046,2|0,0:0|0:0,0:0:0:0:
356,268,1921,2,0,L|308:328,1,75.0000028610231,2|0,0:0|0:0,0:0:0:0:
232,296,2316,5,2,0:0:0:0:
164,248,2513,2,0,L|120:104,1,150.000005722046,2|0,0:0|0:0,0:0:0:0:
176,44,3105,1,2,0:0:0:0:
228,108,3303,2,0,L|304:108,1,75.0000028610231,0|0,0:0|0:0,0:0:0:0:
412,124,3697,6,0,L|380:224,1,100,4|0,0:0|0:0,0:0:0:0:
348,324,4092,1,8,0:0:0:0:
236,328,4289,1,0,0:0:0:0:
132,288,4487,2,0,P|85:256|64:216,1,100
20,116,4882,1,8,0:0:0:0:
44,68,4980,1,0,0:0:0:0:
92,40,5079,1,0,0:0:0:0:
148,40,5178,1,0,0:0:0:0:
192,72,5276,6,0,P|224:116|264:136,1,100,4|0,0:0|0:0,0:0:0:0:
356,195,5671,2,0,P|327:235|284:259,1,100,8|0,0:0|0:0,0:0:0:0:
176,236,6066,1,0,0:0:0:0:
216,340,6263,1,0,0:0:0:0:
108,328,6461,1,8,0:0:0:0:
68,224,6658,2,0,P|96:132|188:100,1,200
263,179,7250,2,0,P|312:170|353:143,1,100,8|0,0:0|0:0,0:0:0:0:
456,184,7645,1,0,0:0:0:0:
412,284,7842,1,0,0:0:0:0:
316,336,8039,2,0,P|264:312|238:274,1,100,8|0,0:0|0:0,0:0:0:0:
180,184,8434,6,0,P|149:145|103:125,1,100,0|0,0:0|0:0,0:0:0:0:
84,232,8829,2,0,L|13:302,1,100,8|0,0:0|0:0,0:0:0:0:
116,344,9224,2,0,L|220:344,1,100
320,312,9618,1,8,0:0:0:0:
236,240,9816,1,0,0:0:0:0:
340,208,10013,2,0,P|390:193|427:162,1,100
360,76,10408,2,0,P|310:91|273:122,1,100,8|0,0:0|0:0,0:0:0:0:
192,192,10803,1,0,0:0:0:0:
84,172,11000,1,0,0:0:0:0:
48,68,11197,2,0,P|98:56|146:64,1,100,8|0,0:0|0:0,0:0:0:0:
256,88,11592,5,0,0:0:0:0:
256,196,11789,1,0,0:0:0:0:
200,292,11987,1,8,0:0:0:0:
312,292,12184,1,0,0:0:0:0:
256,196,12382,1,0,0:0:0:0:
144,192,12579,1,0,0:0:0:0:
204,96,12776,1,8,0:0:0:0:
256,196,12974,1,0,0:0:0:0:
308,96,13171,1,0,0:0:0:0:
364,192,13368,1,0,0:0:0:0:
256,196,13566,1,8,0:0:0:0:
256,308,13763,6,0,P|144:336|72:296,1,200
164,236,14355,2,0,L|164:132,1,100,8|0,0:0|0:0,0:0:0:0:
348,136,14750,2,0,L|348:236,1,100,0|0,0:0|0:0,0:0:0:0:
256,308,15145,1,8,0:0:0:0:
256,200,15342,1,0,0:0:0:0:
256,92,15539,2,0,L|328:20,2,100,0|0|8,0:0|0:0|0:0,0:0:0:0:
160,144,16132,1,0,0:0:0:0:
160,252,16329,6,0,L|88:324,1,100
76,212,16724,2,0,L|4:140,1,100,8|0,0:0|0:0,0:0:0:0:
84,64,17118,1,0,0:0:0:0:
84,64,17217,1,0,0:0:0:0:
84,64,17316,1,0,0:0:0:0:
160,144,17513,1,8,0:0:0:0:
268,172,17711,5,8,0:0:0:0:
320,196,17809,1,0,0:0:0:0:
336,248,17908,2,0,P|376:280|424:292,1,100,4|0,0:0|0:0,0:0:0:0:
472,192,18303,2,0,L|472:92,1,100,8|0,0:0|0:0,0:0:0:0:
372,48,18697,2,0,P|320:48|272:64,1,100,0|0,0:0|0:0,0:0:0:0:
268,172,19092,1,8,0:0:0:0:
296,280,19289,5,0,0:0:0:0:
200,332,19487,1,0,0:0:0:0:
112,268,19684,1,0,0:0:0:0:
88,160,19882,2,0,L|172:104,1,100,8|0,0:0|0:0,0:0:0:0:
216,72,20178,1,0,0:0:0:0:
264,48,20276,2,0,L|364:48,1,100
372,160,20671,6,0,P|360:212|336:252,1,100,8|0,0:0|0:0,0:0:0:0:
260,332,21066,1,4,0:0:0:0:
224,228,21263,1,0,0:0:0:0:
144,304,21461,1,8,0:0:0:0:
112,200,21658,1,0,0:0:0:0:
196,132,21855,2,0,L|264:52,1,100
340,132,22250,1,8,0:0:0:0:
436,80,22447,1,0,0:0:0:0:
444,188,22645,6,0,P|448:244|440:292,1,100
340,332,23039,2,0,P|288:328|236:300,1,100,8|0,0:0|0:0,0:0:0:0:
244,252,23336,1,0,0:0:0:0:
264,200,23434,2,0,P|235:159|194:131,1,100
212,80,23730,1,0,0:0:0:0:
256,40,23829,1,8,0:0:0:0:
8,52,24224,5,2,0:0:0:0:
480,48,24618,1,2,0:0:0:0:
256,224,25013,1,8,0:0:0:0:
256,208,25112,1,0,0:0:0:0:
256,192,25211,1,0,0:0:0:0:
256,176,25309,1,0,0:0:0:0:
256,159,25408,1,8,0:0:0:0:
256,144,25507,1,0,0:0:0:0:
256,128,25605,1,8,0:0:0:0:
256,112,25704,1,0,0:0:0:0:
256,96,25803,6,0,L|152:96,1,100,4|0,0:0|0:0,0:0:0:0:
69,166,26197,1,8,0:0:0:0:
60,276,26395,1,0,0:0:0:0:
148,340,26592,1,0,0:0:0:0:
256,344,26789,1,0,0:0:0:0:
364,340,26987,1,8,0:0:0:0:
452,276,27184,1,0,0:0:0:0:
452,276,27283,1,0,0:0:0:0:
452,276,27382,1,0,0:0:0:0:
443,166,27579,5,0,0:0:0:0:
372,84,27776,2,0,P|328:56|276:56,1,100,8|0,0:0|0:0,0:0:0:0:
296,164,28171,2,0,P|252:192|200:192,1,100,0|0,0:0|0:0,0:0:0:0:
152,288,28566,1,8,0:0:0:0:
44,300,28763,1,0,0:0:0:0:
12,256,28862,1,0,0:0:0:0:
44,212,28961,2,0,L|44:112,1,100
148,80,29355,2,0,P|194:63|233:32,2,100,8|0|0,0:0|0:0|0:0,0:0:0:0:
256,132,29947,1,0,0:0:0:0:
352,208,30145,6,0,L|352:108,1,100,10|0,0:0|0:0,0:0:0:0:
160,108,30539,2,0,L|160:208,1,100,2|2,0:0|0:0,0:0:0:0:
448,208,30934,2,0,L|448:108,1,100,10|2,0:0|0:0,0:0:0:0:
64,108,31329,2,0,L|64:208,1,100,2|2,0:0|0:0,0:0:0:0:
64,264,31625,1,0,0:0:0:0:
84,316,31724,1,8,0:0:0:0:
136,324,31822,1,0,0:0:0:0:
184,296,31921,1,0,0:0:0:0:
260,216,32118,6,0,P|296:176|344:164,1,100,4|0,0:0|0:0,0:0:0:0:
436,212,32513,1,8,0:0:0:0:
348,276,32711,1,0,0:0:0:0:
416,104,32908,2,0,P|380:64|332:52,1,100,0|0,0:0|0:0,0:0:0:0:
228,52,33303,1,8,0:0:0:0:
172,52,33401,1,0,0:0:0:0:
116,52,33500,2,0,P|68:66|36:104,1,100,0|4,0:0|0:0,0:0:0:0:
80,204,33895,5,0,0:0:0:0:
32,304,34092,2,0,P|80:316|128:304,1,100,8|0,0:0|0:0,0:0:0:0:
220,244,34487,1,0,0:0:0:0:
328,240,34684,1,0,0:0:0:0:
328,240,34783,1,0,0:0:0:0:
328,240,34882,2,0,L|328:340,1,100,8|0,0:0|0:0,0:0:0:0:
220,344,35276,6,0,L|120:344,1,100,4|0,0:0|0:0,0:0:0:0:
32,280,35671,2,0,P|80:268|124:240,1,100,8|0,0:0|0:0,0:0:0:0:
160,128,36066,1,0,0:0:0:0:
256,192,36263,1,0,0:0:0:0:
256,64,36461,1,8,0:0:0:0:
256,192,36658,1,0,0:0:0:0:
352,128,36855,1,4,0:0:0:0:
256,192,37053,5,0,0:0:0:0:
256,320,37250,1,8,0:0:0:0:
256,192,37447,1,0,0:0:0:0:
256,192,37546,1,0,0:0:0:0:
256,192,37645,1,0,0:0:0:0:
256,64,37842,1,0,0:0:0:0:
352,256,38039,6,0,L|456:256,1,100,8|0,0:0|0:0,0:0:0:0:
160,128,38434,2,0,L|56:128,1,100,4|0,0:0|0:0,0:0:0:0:
352,128,38829,2,0,L|452:128,1,100,8|0,0:0|0:0,0:0:0:0:
160,256,39224,2,0,L|60:256,1,100
368,292,39618,2,0,L|438:221,1,100,8|0,0:0|0:0,0:0:0:0:
144,92,40013,2,0,L|73:162,1,100,0|0,0:0|0:0,0:0:0:0:
256,40,40408,1,8,0:0:0:0:
256,140,40605,2,0,L|256:240,1,100,0|8,0:0|0:0,0:0:0:0:
100,260,41000,5,8,0:0:0:0:
128,296,41099,1,0,0:0:0:0:
168,316,41197,1,8,0:0:0:0:
212,328,41296,1,8,0:0:0:0:
256,328,41395,1,8,0:0:0:0:
300,324,41493,1,8,0:0:0:0:
340,304,41592,6,0,P|376:265|390:221,1,100,4|0,0:0|0:0,0:0:0:0:
284,196,41987,1,8,0:0:0:0:
200,124,42184,1,0,0:0:0:0:
308,96,42382,2,0,L|380:24,1,100
472,84,42776,1,8,0:0:0:0:
472,84,42875,1,0,0:0:0:0:
472,84,42974,1,0,0:0:0:0:
436,188,43171,2,0,L|364:260,1,100
256,264,43566,5,8,0:0:0:0:
152,304,43763,1,0,0:0:0:0:
88,216,43961,2,0,P|108:168|144:136,1,100,0|0,0:0|0:0,0:0:0:0:
216,56,44355,1,8,0:0:0:0:
268,40,44454,1,0,0:0:0:0:
324,44,44553,2,0,P|380:48|416:72,1,100
432,180,44947,1,0,0:0:0:0:
348,248,45145,2,0,P|308:284|264:296,2,100,8|0|0,0:0|0:0|0:0,0:0:0:0:
256,188,45737,1,0,0:0:0:0:
88,62,45934,6,0,P|111:106|147:139,1,100,10|0,0:0|0:0,0:0:0:0:
423,62,46329,2,0,P|400:106|364:139,1,100,2|2,0:0|0:0,0:0:0:0:
88,321,46724,2,0,P|111:277|147:244,1,100,10|2,0:0|0:0,0:0:0:0:
423,321,47118,2,0,P|400:277|364:244,1,100,2|2,0:0|0:0,0:0:0:0:
256,32,47513,2,0,L|256:132,1,100,8|0,0:0|0:0,0:0:0:0:
256,244,47908,5,4,0:0:0:0:
256,352,48105,1,0,0:0:0:0:
256,244,48303,2,0,L|156:244,1,100,8|0,0:0|0:0,0:0:0:0:
156,244,48697,1,0,0:0:0:0:
48,316,48895,1,0,0:0:0:0:
48,316,48993,1,0,0:0:0:0:
48,316,49092,1,8,0:0:0:0:
52,208,49289,2,0,P|88:172|144:160,1,100,0|4,0:0|0:0,0:0:0:0:
244,164,49684,5,2,0:0:0:0:
320,84,49882,1,2,0:0:0:0:
212,60,50079,2,0,L|108:60,1,100,0|2,0:0|0:0,0:0:0:0:
56,156,50474,1,0,0:0:0:0:
56,156,50572,1,0,0:0:0:0:
56,156,50671,1,2,0:0:0:0:
80,264,50868,1,0,0:0:0:0:
263,225,51066,6,0,P|231:264|188:288,1,100,4|0,0:0|0:0,0:0:0:0:
168,168,51461,1,0,0:0:0:0:
252,96,51658,2,0,P|283:57|327:33,1,100,4|0,0:0|0:0,0:0:0:0:
352,140,52053,1,0,0:0:0:0:
440,72,52250,1,0,0:0:0:0:
444,128,52349,1,0,0:0:0:0:
444,184,52447,2,0,L|444:284,1,100
348,340,52842,5,0,0:0:0:0:
300,240,53039,1,8,0:0:0:0:
256,344,53237,2,0,P|200:344|156:328,1,100
6,250,53632,2,0,P|54:234|104:236,1,100,0|8,0:0|0:0,0:0:0:0:
256,148,54026,2,0,P|200:148|156:164,2,100
352,204,54618,1,8,0:0:0:0:
436,276,54816,1,0,0:0:0:0:
332,312,55013,1,0,0:0:0:0:
352,204,55211,1,0,0:0:0:0:
244,228,55408,2,0,L|160:168,1,100,8|0,0:0|0:0,0:0:0:0:
32,192,55803,5,2,0:0:0:0:
480,192,56197,1,2,0:0:0:0:
256,32,56592,2,0,L|256:136,1,100,2|0,0:0|0:0,0:0:0:0:
256,244,56987,2,0,P|224:280|168:296,1,100,2|0,0:0|0:0,0:0:0:0:
83,232,57382,1,2,0:0:0:0:
80,176,57480,1,0,0:0:0:0:
96,124,57579,1,2,0:0:0:0:
184,188,57776,1,2,0:0:0:0:
292,168,57974,2,0,L|396:168,1,100
400,280,58368,5,2,0:0:0:0:
208,340,58566,1,2,0:0:0:0:
232,140,58763,1,6,0:0:0:0:
