osu file format v5

[General]
AudioFilename: one_step_at_a_time.mp3
AudioLeadIn: 3000
PreviewTime: -1
Countdown: 1
SampleSet: Soft
StackLeniency: 1
Mode: 0
LetterboxInBreaks: 1

[Metadata]
Title:One step at a time
Artist:Jordin Sparks
Creator:caza
Version:Easy
Source:
Tags:

[Difficulty]
HPDrainRate:2
CircleSize:2
OverallDifficulty:2
SliderMultiplier:1.4
SliderTickRate:1

[Events]
//Background and Video events
0,0,"jordonsparks.jpg"
//Break Periods
//Storyboard Layer 0 (Background)
//Storyboard Layer 1 (Failing)
//Storyboard Layer 2 (Passing)
//Storyboard Layer 3 (Foreground)
//Storyboard Sound Samples
//Background Colour Transformations
3,100,163,162,255

[TimingPoints]
2555,593.258575618319,4,2,0,100,1
12000,587.188805114969,4,2,0,100,1
30784,586.546868192701,4,2,0,100,1
68000,577.97900009633,4,2,0,100,1
108000,593.237097093138,4,2,0,100,1

[Colours]
Combo1 : 255,255,140
Combo2 : 5,240,5
Combo3 : 5,5,240
Combo4 : 240,5,5
Combo5 : 255,150,0

[HitObjects]
64,64,2554,1,0
64,64,3148,1,0
64,160,3741,5,0
64,160,4334,1,0
64,256,4928,5,0
64,256,5521,1,0
160,256,6114,5,0
160,256,6707,1,0
160,160,7301,5,0
160,160,7894,1,0
160,64,8487,5,0
160,64,9080,1,0
160,160,9674,5,0
160,160,10267,1,0
160,256,10860,5,0
160,256,11453,1,0
256,256,12000,5,0
256,256,12587,1,8
256,160,13174,5,0
256,160,13761,1,8
256,64,14348,5,0
256,64,14935,1,8
352,64,15523,5,0
352,64,16110,1,8
352,160,16697,5,0
352,160,17284,1,8
352,256,17871,5,0
352,256,18459,1,8
352,160,19046,6,0,B|288:96|224:96|160:96|96:160,1,280
96,256,20807,5,0
96,256,21395,1,8
192,256,21982,5,0
192,256,22569,1,8
192,128,23156,5,0
192,128,23743,1,8
64,128,24330,5,0
64,128,24918,1,8
64,256,25505,5,0
64,256,26092,1,8
192,256,26679,5,0
192,256,27266,1,8
192,128,27854,5,0
192,128,28441,1,8
320,128,29028,5,0
320,128,29615,1,8
320,256,30202,5,0
352,320,30784,2,8,B|192:384|23:291|3:181|64:32,1,490
96,64,33130,5,0
160,64,33423,6,8,B|384:96|416:224|288:320|224:288,1,420
128,288,35476,5,8
128,128,36062,5,0
128,128,36649,1,8
256,128,37236,5,0
256,128,37822,1,8
224,224,38409,5,0
256,224,38995,1,8
160,224,39582,5,0
96,32,40168,6,0,B|384:32|480:160|416:288|171:375|224:320,1,560
160,320,42710,1,0
160,224,43101,5,8
160,224,43688,1,0
160,128,44274,5,8
160,128,44861,1,0
224,160,45447,1,0
128,96,47060,6,0,B|352:128|416:288|384:224,1,280
96,128,48673,5,0
224,128,48966,1,0
224,128,49260,1,0
224,128,49553,1,0
288,128,49846,1,0
352,128,50140,1,0
416,128,50433,1,0
192,128,51753,5,0
128,96,54392,6,0,B|448:96|448:320,1,420
352,320,56445,6,0,B|192:352|128:288|96:192|128:96,1,385
160,128,59524,5,0
160,128,60111,1,8
256,128,60697,5,0
256,128,61284,1,8
320,64,61724,6,8,B|448:192|416:320|256:320,1,350
128,96,67003,6,0,B|384:96|416:275|416:275,1,350
256,288,69155,6,0,L|96:288,1,140
256,288,70311,2,0,L|96:256,1,140
256,288,71467,2,0,L|128:224,1,140
256,288,72623,2,0,L|256:128,1,140
256,288,73779,2,0,L|352:160,1,140
256,288,74935,2,0,L|384:224,1,140
256,288,76091,2,0,L|416:288,1,140
256,288,77247,2,0,L|96:288,1,140
128,224,78114,5,0
128,160,78403,1,0
192,160,78692,1,0
160,128,80426,5,0
224,128,80715,1,0
224,192,81004,1,0
160,160,82882,5,0
224,160,83171,1,0
288,160,83460,1,0
128,128,84616,5,0
192,128,84905,1,0
256,128,85194,1,0
320,128,85483,1,0
384,128,85772,1,0
352,128,87506,5,0
352,192,87795,1,0
352,256,88084,1,0
352,256,89385,5,0
256,256,89674,1,0
160,256,89963,1,0
64,256,90252,1,0
64,160,90541,1,0
64,64,90974,1,0
128,64,91841,6,0,L|448:96|252:292|252:292,1,595
192,128,95020,5,0
256,128,95309,1,0
256,128,95598,1,0
256,128,95887,1,0
256,128,96176,1,0
