osu file format v8

[General]
AudioFilename: 24. Sticks & Stones (performed by Jonsi).mp3
AudioLeadIn: 0
PreviewTime: 41819
Countdown: 0
SampleSet: Normal
StackLeniency: 0.7
Mode: 0
LetterboxInBreaks: 1

[Editor]
DistanceSpacing: 1.29999995231628
BeatDivisor: 2
GridSize: 8

[Metadata]
Title:Sticks & Stones
Artist:Jonsi
Creator:Mr Gaddy
Version:Easy
Source:How To Train Your Dragon
Tags:Dreamworks Jon Thor Birgisson IceBeam

[Difficulty]
HPDrainRate:2
CircleSize:3
OverallDifficulty:2
ApproachRate:2
SliderMultiplier:0.5
SliderTickRate:1

[Events]
//Background and Video events
0,0,"stayclosebysharpie91.JPG"
//Break Periods
2,61435,67740
2,105345,126525
//Storyboard Layer 0 (Background)
//Storyboard Layer 1 (Fail)
//Storyboard Layer 2 (Pass)
//Storyboard Layer 3 (Foreground)
//Storyboard Sound Samples
//Background Colour Transformations
3,100,163,162,255

[TimingPoints]
4781,358.444351514427,4,2,0,60,1,0
16145,-100,4,1,0,60,0,0
40983,-100,4,1,0,40,0,0
54963,-100,4,1,0,60,0,0
59963,-100,4,1,0,40,0,0
61576,-100,4,1,0,60,0,0
71970,-100,4,1,0,40,0,0
74837,-100,4,1,0,60,0,0
83439,-100,4,1,0,40,0,0
85948,-100,4,1,0,60,0,0
128080,-100,4,1,1,60,0,1
128601,-100,4,1,0,60,0,1
128959,-100,4,1,1,60,0,1
131468,-100,4,1,0,60,0,1
132543,-100,4,1,1,60,0,1
133619,-100,4,1,0,60,0,1
136128,-100,4,1,1,60,0,1
137221,-100,4,1,0,60,0,1
138278,-100,4,1,1,60,0,1
138636,-100,4,1,0,60,0,1
139730,-100,4,1,1,60,0,1
140088,-100,4,1,0,60,0,1
148314,-100,4,1,1,60,0,1
148672,-100,4,1,0,60,0,1
149748,-100,4,1,1,60,0,1
150106,-100,4,1,0,60,0,1
151181,-100,4,1,1,60,0,1
151540,-100,4,1,0,60,0,1
152615,-100,4,1,1,60,0,1
152973,-100,4,1,0,60,0,1
155482,-100,4,1,1,60,0,1
155841,-100,4,1,0,60,0,1
158350,-100,4,1,1,60,0,1
159425,-100,4,1,0,60,0,1
168206,-100,4,1,2,0,0,0

[Colours]
Combo1 : 55,115,49
Combo2 : 108,57,57
Combo3 : 12,2,130

[HitObjects]
208,144,4780,6,0,B|139:59|72:56,2,150,0|0|2
256,192,7290,1,2
304,232,7648,6,0,B|373:317|440:320,2,150
176,136,10516,6,0,B|136:120|120:72,2,75,2|0|2
232,168,11949,1,4
320,208,12487,1,4
408,168,13025,1,2
320,72,13742,1,0
256,200,14458,5,12
256,264,14817,2,0,B|256:344,2,75,14|2|0
256,200,16251,5,0
192,213,16609,1,0
128,200,16968,1,0
148,138,17326,2,0,B|195:163|249:136,1,100,8|8
200,88,18401,1,4
200,24,18760,1,4
144,63,19118,6,0,B|80:72|74:135,2,100
196,96,20910,1,0
149,138,21269,1,0
192,256,21986,6,0,B|192:304|216:352|248:352,1,100,4|0
280,317,23061,1,8
272,256,23420,5,4
288,192,23778,1,0
272,128,24136,1,0
280,64,24495,2,0,B|224:64|208:80|208:120,1,100,12|0
328,168,25929,5,8
384,200,26287,2,0,B|440:224|448:248,2,75,4|8|2
256,240,28079,1,8
256,112,28796,1,0
192,112,29155,6,0,B|128:112,1,50,0|0
144,48,29872,2,0,B|208:48,1,50,0|8
247,84,30588,1,4
315,152,31126,1,4
383,83,31664,1,4
415,142,32022,6,0,B|472:248|408:288|344:176,1,200,12|4
104,112,34890,6,0,B|192:112,2,75,0|0|0
88,176,36324,1,4
144,255,36861,1,4
239,275,37399,1,4
256,192,37757,12,4,40625
224,248,42059,5,2
166,219,42417,1,0
128,168,42776,2,2,B|68:100|132:76,1,100,2|4
312,72,44568,5,2
376,72,44926,2,2,B|456:72,1,75
448,168,46002,2,2,B|336:168,1,100,0|2
168,88,47794,6,2,B|112:96|112:160,1,100,2|0
120,224,48869,1,2
168,264,49228,5,4
224,240,49586,2,2,B|280:232|280:168,1,100,2|0
214,169,50661,5,2
160,136,51020,1,0
216,104,51378,2,2,B|272:96|312:128,1,100,2|4
272,176,52454,1,2
272,312,53529,6,2,B|356:311,2,75,2|2|2
256,192,55321,12,4,57830
368,304,60339,5,0
312,272,60698,2,0,B|280:248,2,37.5,0|0|0
232,111,69300,6,0,B|232:135|144:135|144:111,1,100,4|0
144,48,70376,2,0,B|144:24|232:24|232:48,1,100,0|0
277,91,71451,1,4
312,144,71810,1,4
344,200,72168,6,0,B|384:232|304:264|344:296,4,100,2|2|0|2|4
312,144,75394,6,0,B|277:106|200:112,1,100,0|8
152,112,76469,2,0,B|104:120|88:152,2,75,4|0|12
216,104,77903,1,0
280,128,78262,1,8
360,24,78978,5,8
424,32,79337,2,0,B|472:40|486:68,2,75,4|0|2
368,56,80771,6,0,B|216:56,1,150,4|0
216,120,82204,2,0,B|384:120,1,150,0|4
344,186,83638,5,4
252,278,84355,1,8
160,186,85072,1,4
252,94,85789,1,8
296,208,86506,6,0,B|360:208|392:168,1,100,4|0
424,120,87581,1,8
377,73,87940,2,0,B|377:25|153:25|153:73,1,250,4|0
199,119,90090,5,4
264,120,90449,1,0
232,176,90807,2,0,B|275:203|339:195,1,100,4|0
392,192,91882,2,0,B|448:184|488:152,1,100,6|2
312,96,93675,6,0,B|256:96,3,50,0|0|0|8
200,96,95108,2,0,B|128:96|104:128|104:200,1,150,4|0
104,250,96542,6,4,B|103:332|135:364|231:364,2,200,4|4|0
104,184,99768,5,0
160,152,100127,1,0
104,120,100485,1,8
104,54,100844,2,4,B|151:86|208:24|256:54,1,150
256,192,102277,12,0,105145
192,243,128085,6,0,B|192:131|320:251|320:131,1,200,4|2
319,69,129878,2,0,B|319:13,1,50,8|2
256,40,130594,1,8
200,72,130953,6,0,B|125:71|125:180,1,150,4|10
80,232,132387,2,0,B|48:232|48:176|0:176,2,100,2|2|4
144,232,134179,2,2,B|144:176,1,50,10|0
104,120,134896,1,8
168,104,135254,5,2
232,80,135613,1,8
296,56,135971,2,0,B|387:24|275:0,2,100,2|0|0
280,120,137763,1,8
296,184,138122,6,2,B|344:184|384:208,2,75,2|2|10
296,118,139556,2,0,B|416:118|416:46|352:46,1,150,0|8
304,48,140989,6,2,B|276:58|248:48,1,50,2|8
192,32,141706,2,2,B|166:24|136:32,1,50,2|8
168,88,142423,1,4
104,88,142782,2,2,B|-40:88|-40:320|104:320,1,350,0|6
336,96,146724,5,2
276,121,147083,1,8
216,147,147441,1,2
158,175,147800,1,8
158,109,148158,2,4,B|304:48,1,150,4|10
361,51,149592,6,0,B|425:51|425:147|361:147,2,150,2|10|4
296,72,152101,1,8
248,120,152460,6,0,B|184:120|184:200|112:200,1,150,2|10
160,256,153893,1,4
215,289,154252,1,10
277,305,154610,1,0
341,298,154969,1,8
343,233,155327,6,2,B|331:176|283:176,2,75,2|2|10
296,278,156761,1,4
232,272,157119,1,10
170,251,157478,1,0
126,202,157836,1,8
95,144,158195,6,0,B|71:88|79:48,2,100,2|2|4
112,208,159987,2,0,B|112:304|400:304|400:208,2,350,2|6|0
256,192,165364,12,4,168231
