osu file format v14

[General]
AudioFilename: Jonsi - Animal Arithmetic (Short Version) (mp3128kbpsver).mp3
AudioLeadIn: 0
PreviewTime: 34383
Countdown: 0
SampleSet: Normal
StackLeniency: 0.7
Mode: 0
LetterboxInBreaks: 0
WidescreenStoryboard: 0

[Editor]
Bookmarks: 3054,9319,12167,22800,34952,50142,56218
DistanceSpacing: 1.5
BeatDivisor: 4
GridSize: 4
TimelineZoom: 1.2

[Metadata]
Title:Animal Arithmetic (Short Ver.)
TitleUnicode:Animal Arithmetic (Short Ver.)
Artist:Jonsi
ArtistUnicode:Jónsi
Creator:Cancel
Version:Light Insane
Source:
Tags:go sigur ros dream pop
BeatmapID:1234865
BeatmapSetID:583563

[Difficulty]
HPDrainRate:6
CircleSize:5
OverallDifficulty:7
ApproachRate:8.5
SliderMultiplier:1.7
SliderTickRate:2

[Events]
//Background and Video events
0,0,"go.jpg",0,0
//Break Periods
2,50341,51935
//Storyboard Layer 0 (Background)
//Storyboard Layer 1 (Fail)
//Storyboard Layer 2 (Pass)
//Storyboard Layer 3 (Foreground)
//Storyboard Sound Samples

[TimingPoints]
3054,379.746835443038,4,2,1,60,1,0
9129,-100,4,3,1,60,0,0
12167,-100,4,1,1,80,0,0
34952,-100,4,1,1,80,0,1
50142,-100,4,2,1,80,0,0
53180,-100,4,3,1,80,0,0
56218,-142.857142857143,4,1,1,80,0,0

[Colours]
Combo1 : 238,186,239
Combo2 : 210,207,174
Combo3 : 226,216,158
Combo4 : 202,134,136
Combo5 : 135,209,109
Combo6 : 142,206,197

[HitObjects]
48,44,3054,6,0,L|56:216,1,170,2|0,0:0|0:0,0:0:0:0:
12,304,3623,1,2,0:0:0:0:
96,360,3813,2,0,L|200:356,1,85,0|2,0:0|0:0,0:0:0:0:
240,272,4193,2,0,L|344:268,1,85,0|2,0:0|0:0,0:0:0:0:
440,344,4572,6,0,P|456:288|408:172,1,170,0|2,0:0|0:0,0:0:0:0:
248,80,5332,2,0,P|244:48|244:12,2,42.5,0|0|2,0:0|0:0|0:0,0:0:0:0:
156,124,5712,2,0,B|172:168|156:232,1,85,0|2,0:0|0:0,0:0:0:0:
12,304,6091,6,0,B|-4:260|12:196,1,85,2|0,0:0|0:0,0:0:0:0:
48,124,6471,2,0,B|60:88|88:76|88:76|112:44|168:40,1,127.5,2|2,0:0|0:0,0:0:0:0:
164,52,6851,2,0,L|280:48,1,85,0|2,0:0|0:0,0:0:0:0:
328,160,7231,2,0,L|243:162,1,85,0|2,0:0|0:0,0:0:0:0:
120,260,7610,6,0,P|176:256|272:324,1,170,0|2,0:0|0:0,0:0:0:0:
404,248,8275,2,0,P|408:224|408:184,1,42.5,2|0,0:0|0:0,0:0:0:0:
384,108,8560,1,2,0:0:0:0:
328,220,8750,1,0,0:0:0:0:
484,192,8940,1,2,0:3:0:0:
448,32,9129,5,4,0:0:0:0:
296,144,9319,2,0,B|256:140|256:140|212:156,1,85,2|8,0:0|0:0,0:0:0:0:
128,100,9699,1,2,0:0:0:0:
96,196,9889,6,0,L|104:288,1,85,2|8,0:0|0:0,0:0:0:0:
204,356,10269,2,0,L|196:271,1,85,2|8,0:0|0:0,0:0:0:0:
36,120,10648,6,0,P|20:68|28:24,1,85,8|2,0:0|0:0,0:0:0:0:
120,4,11028,1,2,0:0:0:0:
248,96,11218,6,0,L|252:184,1,85,8|6,0:0|0:0,0:0:0:0:
312,264,11598,1,2,0:0:0:0:
416,112,11788,1,4,0:0:0:0:
440,296,11978,1,2,0:0:0:0:
356,360,12167,6,0,P|312:368|248:344,1,85,4|0,0:0|0:0,0:0:0:0:
196,292,12547,2,0,B|211:213|139:209|151:133,1,170,4|4,0:0|0:0,0:0:0:0:
216,56,13117,1,0,0:0:0:0:
236,156,13307,2,0,P|188:216|84:192,1,170,4|4,0:0|0:0,0:0:0:0:
48,124,13876,5,0,0:0:0:0:
112,44,14066,2,0,L|288:48,1,170,4|4,0:0|0:0,0:0:0:0:
376,4,14636,1,0,0:0:0:0:
408,100,14826,1,4,0:0:0:0:
484,32,15016,1,2,0:0:0:0:
328,108,15205,6,0,P|348:152|480:136,1,170,4|12,0:0|0:0,0:0:0:0:
304,28,15965,1,4,0:0:0:0:
244,112,16155,1,8,0:0:0:0:
144,92,16345,1,4,0:0:0:0:
204,8,16535,1,8,0:0:0:0:
176,176,16724,6,0,L|184:360,1,170,4|4,0:0|0:0,0:0:0:0:
88,164,17484,1,4,0:0:0:0:
152,240,17674,2,0,P|192:244|224:228,2,42.5,2|8|4,0:0|0:0|0:0,0:0:0:0:
144,92,18054,1,8,0:0:0:0:
264,200,18243,6,0,P|276:244|256:304,1,85,4|2,0:0|0:3,0:0:0:0:
183,345,18623,1,4,0:0:0:0:
72,240,18813,1,2,0:3:0:0:
204,144,19003,6,0,L|296:148,1,85,4|0,0:0|0:0,0:0:0:0:
352,68,19383,1,4,0:0:0:0:
484,344,19762,6,0,P|440:328|384:332,1,85,4|0,0:0|0:0,0:0:0:0:
304,364,20142,2,0,P|328:332|328:204,1,170,4|4,0:0|0:0,0:0:0:0:
252,140,20712,1,0,0:0:0:0:
160,188,20902,2,0,P|184:224|236:248,1,85,4|2,0:0|0:3,0:0:0:0:
160,88,21281,6,0,B|128:108|128:108|36:120|36:120|0:148,1,170,4|4,0:0|0:0,0:0:0:0:
80,380,22041,5,4,0:0:0:0:
132,292,22231,1,8,0:0:0:0:
28,292,22421,1,4,0:0:0:0:
224,344,22800,6,0,L|316:336,1,85,4|0,0:0|0:0,0:0:0:0:
400,288,23180,2,0,P|412:240|392:124,1,170,4|4,0:0|0:0,0:0:0:0:
320,52,23750,1,0,0:0:0:0:
284,148,23940,2,0,B|224:188|180:124|120:168,1,170,4|4,0:0|0:0,0:0:0:0:
76,260,24509,5,0,0:0:0:0:
168,308,24699,1,4,0:0:0:0:
340,196,25079,2,0,P|352:116|264:72,1,170,4|4,0:0|0:0,0:0:0:0:
184,64,25648,1,0,0:0:0:0:
76,176,25838,6,0,B|68:220|68:220|76:260,1,85,4|0,0:0|0:0,0:0:0:0:
168,308,26218,2,0,B|208:304|208:304|256:320|256:320|324:316,1,127.5,4|0,0:0|0:0,0:0:0:0:
304,304,26598,5,4,0:0:0:0:
364,108,26978,1,4,0:0:0:0:
192,0,27357,2,0,B|152:-8|112:28|120:72|120:72|132:160|216:140|180:256|112:232|96:196|96:196|80:148|128:104|180:128|184:216|212:152|240:128|308:172,1,595,4|2,0:0|0:3,0:0:0:0:
368,236,28876,6,0,L|376:340,1,85,4|0,0:0|0:0,0:0:0:0:
284,368,29256,2,0,P|212:324|116:348,1,170,4|4,0:0|0:0,0:0:0:0:
36,380,29826,1,0,0:0:0:0:
48,280,30016,2,0,P|12:220|24:112,1,170,4|4,0:0|0:0,0:0:0:0:
88,48,30585,5,0,0:0:0:0:
128,140,30775,1,4,0:0:0:0:
192,60,30965,1,0,0:0:0:0:
240,152,31155,2,0,B|304:192|340:112|420:168,1,170,4|4,0:0|0:0,0:0:0:0:
456,244,31724,1,2,0:3:0:0:
404,332,31914,5,4,0:0:0:0:
200,312,32294,2,0,L|84:316,1,85,4|0,0:0|0:0,0:0:0:0:
164,224,32674,2,0,L|48:228,1,85,4|0,0:0|0:0,0:0:0:0:
128,140,33054,2,0,L|12:144,1,85,4|0,0:0|0:0,0:0:0:0:
88,52,33433,6,0,B|152:24|224:64|224:148|224:148|296:108|312:164|320:176|360:128|388:128|368:48|308:72|308:72,1,425,4|2,0:0|0:0,0:0:0:0:
268,208,34572,1,4,0:0:0:0:
256,216,34667,1,8,0:0:0:0:
244,224,34762,1,8,0:0:0:0:
232,232,34857,1,8,0:0:0:0:
220,240,34952,21,4,0:0:0:0:
256,364,35142,1,2,0:3:0:0:
360,292,35332,2,0,B|316:268|272:288,1,85,12|0,0:0|0:0,0:0:0:0:
156,328,35712,6,0,P|112:260|144:168,1,170,4|8,0:0|0:0,0:0:0:0:
244,116,36281,1,2,0:3:0:0:
32,32,36471,6,0,L|28:132,1,85,4|2,0:0|0:3,0:0:0:0:
188,144,36851,2,0,L|191:59,1,85,12|2,0:0|0:3,0:0:0:0:
52,188,37231,6,0,P|96:188|136:204,1,85,4|2,0:0|0:3,0:0:0:0:
196,312,37610,1,4,0:0:0:0:
72,336,37800,1,8,0:0:0:0:
264,364,37990,5,4,0:0:0:0:
368,292,38180,1,2,0:3:0:0:
356,280,38275,1,2,0:3:0:0:
344,268,38370,2,0,L|340:180,1,85,12|2,0:0|0:3,0:0:0:0:
432,96,38750,6,0,L|435:180,1,85,4|2,0:0|0:3,0:0:0:0:
244,176,39129,1,12,0:0:0:0:
328,8,39319,1,8,0:0:0:0:
336,248,39509,6,0,P|268:292|176:272,1,170,4|12,0:0|0:0,0:0:0:0:
92,40,40269,1,4,0:0:0:0:
220,56,40459,1,2,0:3:0:0:
140,152,40648,1,12,0:0:0:0:
328,8,41028,6,0,L|332:108,1,85,12|0,0:0|0:0,0:0:0:0:
440,164,41408,2,0,L|436:79,1,85,12|0,0:0|0:0,0:0:0:0:
352,176,41788,6,0,L|356:276,1,85,12|0,0:0|0:0,0:0:0:0:
464,332,42168,2,0,L|460:247,1,85,12|0,0:0|0:0,0:0:0:0:
260,152,42547,6,0,B|212:160|212:160|140:140|140:140|92:148,1,170,4|8,0:0|0:0,0:0:0:0:
40,264,43117,1,0,0:0:0:0:
144,384,43307,2,0,L|136:208,1,170,4|12,0:0|0:0,0:0:0:0:
216,88,43876,1,0,0:0:0:0:
16,48,44066,6,0,P|12:84|24:152,1,85,4|0,0:0|0:0,0:0:0:0:
136,214,44446,1,12,0:0:0:0:
320,36,44826,6,0,L|436:40,1,85,4|0,0:0|0:0,0:0:0:0:
488,136,45205,1,12,0:0:0:0:
364,164,45395,1,0,0:0:0:0:
464,72,45585,6,0,P|488:152|452:236,1,170,4|12,0:0|0:0,0:0:0:0:
336,272,46155,1,0,0:0:0:0:
232,132,46345,6,0,L|236:36,1,85,4|0,0:0|0:0,0:0:0:0:
76,172,46724,2,0,P|100:184|176:192,1,85,12|0,0:0|0:0,0:0:0:0:
20,40,47104,6,0,P|-4:104|8:208,1,170,4|8,0:0|0:0,0:0:0:0:
200,372,47864,1,4,0:0:0:0:
244,252,48054,1,2,0:3:0:0:
336,340,48243,1,12,0:0:0:0:
380,220,48433,1,2,0:3:0:0:
284,136,48623,6,0,P|240:128|196:140,1,85,12|0,0:0|0:0,0:0:0:0:
116,232,49003,1,0,0:0:0:0:
17,124,49193,6,0,L|21:4,1,85,12|0,0:0|0:0,0:0:0:0:
112,80,49572,1,4,0:3:0:0:
20,228,49762,1,12,0:0:0:0:
136,324,49952,2,0,L|184:328,2,42.5,8|8|4,0:0|0:0|0:0,0:0:0:0:
124,312,52610,5,2,0:3:0:0:
80,192,52800,1,8,0:3:0:0:
204,220,52990,1,8,0:3:0:0:
84,260,53180,6,0,P|44:248|12:176,1,85,2|8,0:0|0:0,0:0:0:0:
108,128,53560,1,8,0:0:0:0:
200,296,53750,6,0,L|208:380,1,85,2|8,0:0|0:0,0:0:0:0:
284,232,54129,1,8,0:0:0:0:
240,104,54319,5,2,0:0:0:0:
124,52,54509,1,12,0:0:0:0:
24,132,54699,5,6,0:0:0:0:
180,184,54889,2,0,L|172:100,1,85,2|4,0:3|0:0,0:0:0:0:
80,224,55269,1,2,0:1:0:0:
228,280,55459,5,4,0:0:0:0:
352,240,55648,1,8,0:0:0:0:
360,224,55743,1,2,0:0:0:0:
368,208,55838,5,8,0:0:0:0:
136,288,56028,1,8,0:0:0:0:
284,352,56218,6,0,P|304:332|316:292,1,59.4999981842042,4|0,0:0|0:0,0:0:0:0:
260,184,56598,1,4,0:0:0:0:
