osu file format v3

[General]
AudioFilename: Mandelbrot Set.mp3
AudioLeadIn: 0
AudioHash: 21a2e26943eb76deb575535900fd0d56
PreviewTime: -1
SampleSet: Normal

[Metadata]
Title:Mandelbrot Set
Artist:Jonathan Coulton
Creator:Manabeast
Version:Easy

[Difficulty]
HPDrainRate:5
CircleSize:3
OverallDifficulty:5
SliderMultiplier: 1
SliderTickRate: 1

[Events]
0,0,"MBS.JPG"
2,22813,24601
2,49628,54227
2,91818,93043
3,0,163,162,255

[TimingPoints]
325,375

[HitObjects]
64,80,13825,1,0,
192,80,14387,1,0,
352,160,15137,1,0,
448,272,16450,5,0,
352,272,16825,1,0,
176,272,17575,1,0,
64,192,18137,1,0,
80,112,19450,5,0,
176,112,19825,1,0,
256,208,20387,1,0,
416,112,21137,1,0,
416,208,21512,1,0,
416,304,21887,1,0,
320,304,22262,1,0,
224,304,22637,1,0,
384,96,25825,5,0,
256,96,26387,1,0,
80,96,27137,1,0,
80,304,28825,5,0,
256,304,29575,1,0,
384,304,30137,1,0,
256,64,31825,5,0,
256,192,32387,1,0,
96,112,33137,1,0,
96,208,33512,1,0,
144,288,33887,1,0,
272,304,34450,1,0,
384,80,37450,5,0,
384,176,37825,2,0,C|384:176|240:336|112:192,1,400
96,144,40825,2,0,C|96:144|288:64|384:240,1,400
272,304,43825,6,0,C|272:304|96:224|304:144,1,400
432,96,46825,5,0,
432,192,47200,1,0,
384,272,47575,1,0,
208,160,48325,1,0,
32,304,49450,1,0,
64,80,55450,5,0,
160,80,55825,1,0,
304,80,56387,1,0,
496,80,57137,1,0,
352,272,58450,5,0,
272,208,58825,1,0,
192,272,59200,1,0,
272,80,60137,1,0,
112,96,61450,5,0,
192,160,61825,1,0,
272,96,62200,1,0,
416,144,62762,1,0,
400,240,63137,1,0,
304,224,63512,1,0,
240,304,63887,1,0,
128,192,64450,1,0,
384,96,67450,5,0,
304,160,67825,1,0,
80,96,68762,1,0,
80,304,70450,5,0,
176,304,70825,1,0,
368,304,71575,1,0,
368,160,72137,1,0,
256,64,73450,5,0,
240,160,73825,1,0,
112,80,74387,1,0,
112,224,74950,1,0,
176,288,75325,1,0,
272,288,75700,1,0,
432,192,76637,1,0,
384,176,79450,6,0,C|384:176|240:336|96:96,1,500
96,144,82825,2,0,C|96:144|288:64|384:240,1,400
272,304,85825,6,0,C|272:304|96:224|304:144,1,400
432,96,88450,5,0,
432,192,88825,1,0,
368,272,89200,1,0,
320,32,90137,1,0,
240,80,90512,1,0,
160,144,90887,1,0,
160,240,91262,1,0,
256,208,91637,1,0,
384,192,94450,5,0,
320,112,94825,1,0,
288,208,95200,1,0,
224,128,95575,1,0,
160,208,95950,1,0,
208,304,96325,1,0,
304,304,96700,1,0,
400,272,97075,1,0,
416,64,97825,5,0,
352,144,98200,1,0,
288,64,98575,1,0,
240,144,98950,1,0,
160,80,99325,1,0,
96,320,100825,5,0,
160,240,101200,1,0,
224,320,101575,1,0,
272,240,101950,1,0,
352,304,102325,1,0,
416,64,103825,5,0,
352,144,104200,1,0,
288,64,104575,1,0,
240,144,104950,1,0,
160,80,105325,1,0,
64,208,106825,5,0,
112,112,107200,1,0,
208,80,107575,1,0,
304,64,107950,1,0,
384,112,108325,1,0,
448,192,108700,1,0,
384,272,109075,1,0,
384,272,109825,5,0,
448,192,110200,1,0,
384,112,110575,1,0,
304,48,110950,1,0,
208,80,111325,1,0,
128,144,111700,1,0,
80,224,112075,1,0,
256,304,112825,5,0,
336,240,113200,1,0,
336,144,113575,1,0,
240,96,113950,1,0,
256,192,114325,1,0,
400,288,115825,5,0,
304,288,116200,1,0,
208,288,116575,1,0,
112,288,116950,1,0,
112,192,117325,1,0,
112,96,117700,1,0,
208,96,118075,1,0,
400,96,118825,5,0,
400,192,119200,1,0,
400,288,119575,1,0,
304,288,119950,1,0,
208,288,120325,1,0,
304,64,121450,5,0,
400,64,121825,1,0,
400,160,122200,1,0,
400,256,122575,1,0,
304,256,122950,1,0,
208,256,123325,1,0,
112,256,123700,1,0,
112,160,124075,1,0,
208,160,124450,5,0,
304,160,124825,1,0,
400,160,125200,1,0,
400,64,125575,1,0,
304,64,125950,1,0,
208,64,126325,1,0,
112,64,126700,1,0,
128,320,127825,5,0,
128,224,128200,1,0,
128,128,128575,1,0,
128,32,128950,1,0,
224,32,129325,1,0,
336,304,130825,5,0,
432,304,131200,1,0,
432,208,131575,1,0,
432,112,131950,1,0,
432,16,132325,1,0,
256,192,133825,12,0,136825
