osu file format v7

[General]
AudioFilename: I Feel Fantastic.mp3
AudioLeadIn: 2004
PreviewTime: 28800
Countdown: 3
SampleSet: Normal
StackLeniency: 0.7
Mode: 0
LetterboxInBreaks: 1

[Editor]
Bookmarks: 0,24000,33900,54000,59700,69000,76200,77400,78600,88500,111600,130800,133500,142800,152400,162300
DistanceSpacing: 0.800000011920929
BeatDivisor: 2
GridSize: 8

[Metadata]
Title:I Feel Fantastic
Artist:Jonathan Coulton
Creator:Lyoko is Cool
Version:Insane
Source:
Tags:JoCo

[Difficulty]
HPDrainRate:8
CircleSize:5
OverallDifficulty:7
SliderMultiplier:1.4
SliderTickRate:2

[Events]
//Background and Video events
Video,-320,"I Feel Fantastic_xvid.avi"
0,0,"I Feel Fantastic.jpg"
//Break Periods
2,54220,68270
2,133119,142070
//Storyboard Layer 0 (Background)
//Storyboard Layer 1 (Fail)
//Storyboard Layer 2 (Pass)
//Storyboard Layer 3 (Foreground)
//Storyboard Sound Samples
//Background Colour Transformations
3,100,163,162,255

[TimingPoints]
20,300,4,2,0,100,1,0
4500,-100,4,1,0,100,0,0
111600,-200,4,2,0,100,0,0
130800,-100,4,1,0,100,0,0
171920,-100,4,1,0,100,0,1

[HitObjects]
0,384,620,2,0,B|160:384,1,140
64,320,1220,2,0,B|224:320,1,140
128,256,1820,2,0,B|288:256,1,140
192,192,2420,2,0,B|352:192,1,140
256,128,3020,2,0,B|416:128,1,140
320,64,3620,2,0,B|480:64,1,140
384,0,4220,2,0,B|544:0,1,140
320,112,5120,5,2
288,64,5270,1,2
288,64,5420,1,2
288,64,5570,1,2
256,112,5720,1,0
224,160,5870,1,0
192,112,6020,1,0
192,112,6170,1,0
160,64,6320,1,0
96,160,6620,1,0
32,64,6920,1,0
64,256,7370,5,8
64,256,7520,1,8
96,208,7670,1,8
128,160,7820,1,8
128,160,7970,1,8
160,112,8120,1,8
192,160,8270,1,0
224,112,8420,1,0
288,208,8720,1,0
368,128,9020,1,0
368,128,9170,1,0
368,128,9320,1,0
416,288,10070,5,2
384,240,10220,1,2
352,192,10370,1,2
320,144,10520,1,2
256,48,10820,1,2
176,144,11120,1,8
176,144,11270,1,8
176,144,11420,1,8
176,144,11720,1,8
176,144,12020,1,8
144,192,12170,1,8
144,192,12320,1,8
32,272,12920,5,0
32,272,13070,1,0
64,224,13220,1,0
64,224,13370,1,0
96,272,13520,1,0
96,272,13670,1,0
128,320,13820,1,0
160,368,13970,1,0
160,368,14120,1,0
128,208,14570,5,0
160,160,14720,1,0
160,160,14870,1,0
160,160,15020,1,0
160,160,15170,1,0
192,208,15320,1,0
224,256,15470,1,0
256,208,15620,1,2
304,112,15920,1,2
368,208,16220,1,2
416,112,16520,1,2
352,288,16970,5,0
320,240,17120,1,0
288,192,17270,1,0
256,144,17420,1,0
256,144,17570,1,0
224,96,17720,1,0
192,144,17870,1,0
160,96,18020,1,8
96,176,18320,1,8
48,144,18470,1,8
16,192,18620,1,8
16,192,18770,1,8
16,192,18920,1,8
96,320,19670,5,0
128,272,19820,1,0
192,176,20120,1,0
256,80,20420,1,0
320,176,20720,1,8
320,176,20870,1,8
320,176,21020,1,8
320,176,21320,1,8
320,176,21620,1,8
352,224,21770,1,8
352,224,21920,1,8
464,256,22520,5,0
464,256,22670,1,0
432,208,22820,1,0
432,208,22970,1,0
400,256,23120,1,0
400,256,23270,1,0
368,304,23420,1,0
336,352,23570,1,0
336,352,23720,1,0
224,336,24020,5,10
160,272,24220,1,10
96,208,24470,1,10
304,16,25220,5,0
304,16,25370,1,0
272,64,25520,1,0
208,160,25820,1,0
144,256,26120,1,0
144,256,26420,1,0
144,256,26570,1,0
144,256,26720,1,0
144,256,27020,1,0
208,176,27320,2,2,B|256:-32|368:-32|464:-32|432:352,1,560
480,336,28820,5,10
416,272,29020,1,10
352,208,29270,1,10
256,64,29720,5,0
256,64,29870,1,0
224,16,30020,1,0
160,112,30320,1,0
96,208,30620,1,0
96,208,30770,1,0
96,208,30920,1,0
96,208,31070,1,0
96,208,31220,1,0
96,208,31520,1,0
96,208,31820,1,0
48,112,32120,1,0
0,208,32420,1,0
0,208,32570,1,0
0,208,32720,1,0
88,280,33020,6,2,B|120:216|200:184|280:216|328:296,1,280
112,32,33920,5,4
112,32,34220,1,4
176,112,34520,1,4
256,192,34820,1,4
336,272,35120,1,4
48,240,35720,5,2
80,192,35870,1,2
112,144,36020,1,2
144,184,36170,1,2
176,224,36320,1,0
208,264,36470,1,0
240,304,36620,1,8
272,256,36770,1,8
304,208,36920,1,8
336,256,37070,1,0
368,208,37220,1,0
432,112,37520,1,8
496,208,37820,1,8
448,272,38020,5,0
424,248,38120,1,0
392,200,38270,1,0
360,152,38420,1,0
320,192,38570,1,0
280,232,38720,1,0
248,272,38870,1,0
208,232,39020,1,2
176,184,39170,1,2
144,136,39320,1,2
112,88,39470,1,2
88,40,39620,1,2
40,144,39920,5,4
40,144,40220,1,4
136,88,40520,1,2
176,48,40670,1,2
216,8,40820,1,2
264,112,41120,1,4
264,112,41420,1,4
320,208,41720,1,2
352,256,41870,1,2
384,304,42020,1,2
288,208,42320,5,0
208,288,42620,1,4
48,128,43220,1,0
112,32,43520,5,4
112,32,43820,1,4
176,112,44120,1,4
256,192,44420,1,4
336,272,44720,1,4
464,240,45320,5,2
432,192,45470,1,2
400,144,45620,1,2
368,192,45770,1,2
336,240,45920,1,0
304,288,46070,1,0
272,336,46220,1,8
240,288,46370,1,8
208,240,46520,1,8
176,288,46670,1,0
144,240,46820,1,0
80,144,47120,1,8
32,240,47420,1,8
80,288,47620,5,0
112,256,47720,1,0
160,208,47870,1,0
208,160,48020,1,0
240,208,48170,1,0
272,256,48320,1,0
304,304,48470,1,0
336,256,48620,1,2
368,208,48770,1,2
400,160,48920,1,2
432,112,49070,1,2
464,64,49220,1,2
512,176,49520,5,4
512,176,49820,1,4
416,112,50120,1,2
384,64,50270,1,2
352,16,50420,1,2
288,112,50720,1,4
288,112,51020,1,4
224,208,51320,1,2
192,256,51470,1,2
160,304,51620,1,2
264,264,51920,5,0
344,344,52220,1,4
504,184,52820,1,0
424,264,53120,1,4
296,72,53720,1,0
216,152,54020,1,4
80,320,69170,5,2
112,272,69320,1,2
144,224,69470,1,2
144,224,69620,1,2
144,224,69770,1,2
176,272,69920,1,0
208,320,70070,1,0
240,272,70220,1,0
304,176,70520,1,0
368,272,70820,1,0
432,176,71120,1,0
288,272,71570,5,0
288,272,71720,1,0
256,224,71870,1,0
224,176,72020,1,0
224,176,72170,1,0
192,128,72320,1,0
160,176,72470,1,0
128,128,72620,1,2
64,208,72920,1,2
0,304,73220,1,2
0,304,73370,1,2
0,304,73520,1,2
304,144,74420,5,0
304,144,74570,1,0
336,96,74720,1,0
368,48,74870,1,0
400,0,75020,1,8
456,96,75320,1,8
480,144,75470,1,8
512,248,75770,1,8
512,248,75920,1,8
512,248,76220,1,8
96,224,77270,5,0
128,192,77420,1,8
128,192,77570,1,8
160,224,77720,1,0
192,192,77870,1,8
224,224,78020,1,8
256,256,78170,1,8
256,256,78320,1,8
160,288,78620,5,10
224,224,78820,1,10
296,144,79070,1,10
448,64,79820,5,2
352,128,80120,1,2
256,192,80420,1,2
256,192,80570,1,2
256,192,80720,1,0
256,192,80870,1,0
256,192,81020,1,0
256,192,81320,1,8
256,192,81620,1,8
256,192,81770,1,8
224,144,81920,1,8
160,64,82220,2,2,B|128:0|96:0|64:32|32:288|32:384,1,420
128,288,83420,5,10
192,224,83620,1,10
272,128,83870,1,10
256,320,84320,1,8
256,320,84470,1,8
304,272,84620,1,8
360,368,84920,1,8
416,272,85220,1,8
456,320,85370,1,8
456,320,85520,1,8
456,320,85670,1,0
456,320,85820,1,0
456,320,86120,1,0
456,320,86420,1,0
368,200,86720,1,2
280,320,87020,1,2
280,320,87170,1,2
256,192,87320,12,8,88220
400,32,88520,5,4
400,32,88820,1,4
336,112,89120,1,4
256,192,89420,1,4
176,272,89720,1,4
464,240,90320,5,2
432,192,90470,1,2
400,144,90620,1,2
368,192,90770,1,2
336,240,90920,1,0
304,288,91070,1,0
272,336,91220,1,8
240,288,91370,1,8
208,240,91520,1,8
176,288,91670,1,0
144,240,91820,1,0
80,144,92120,1,8
32,240,92420,1,8
80,288,92620,5,0
112,256,92720,1,0
160,208,92870,1,0
208,160,93020,1,0
240,208,93170,1,0
272,256,93320,1,0
304,304,93470,1,0
336,256,93620,1,2
368,208,93770,1,2
400,160,93920,1,2
432,112,94070,1,2
464,64,94220,1,2
512,176,94520,5,4
512,176,94820,1,4
416,112,95120,1,2
384,64,95270,1,2
352,16,95420,1,2
288,112,95720,1,4
288,112,96020,1,4
224,208,96320,1,2
192,256,96470,1,2
160,304,96620,1,2
224,208,96920,5,0
304,288,97220,1,4
464,128,97820,1,0
400,32,98120,5,4
400,32,98420,1,4
336,112,98720,1,4
256,192,99020,1,4
176,272,99320,1,4
48,240,99920,5,2
80,192,100070,1,2
112,144,100220,1,2
144,192,100370,1,2
176,240,100520,1,0
208,288,100670,1,0
240,336,100820,1,0
272,288,100970,1,8
304,240,101120,1,8
336,288,101270,1,0
368,240,101420,1,0
432,144,101720,1,8
480,240,102020,1,8
432,288,102220,5,0
400,256,102320,1,0
352,208,102470,1,0
304,160,102620,1,0
272,208,102770,1,0
240,256,102920,1,0
208,304,103070,1,0
176,256,103220,1,2
144,208,103370,1,2
112,160,103520,1,2
80,112,103670,1,2
48,64,103820,1,2
0,176,104120,5,4
0,176,104420,1,4
96,112,104720,1,2
128,64,104870,1,2
160,16,105020,1,2
224,112,105320,1,4
224,112,105620,1,4
288,208,105920,1,2
320,256,106070,1,2
352,304,106220,1,2
248,256,106520,5,0
168,336,106820,1,4
8,176,107420,1,0
88,256,107720,1,4
216,64,108320,1,0
296,144,108620,1,4
416,16,108920,2,0,L|256:16,1,140
352,96,109520,2,0,L|208:96,1,140
288,176,110120,2,8,L|144:176,1,140
224,256,110720,2,8,L|80:256,1,140
160,336,111320,2,8,L|16:336,1,140
128,352,112220,5,0
208,272,112820,1,0
288,192,113420,1,0
352,112,114020,1,0
432,32,114620,1,2
464,0,114920,1,2
496,112,115520,1,2
496,272,116420,1,12
176,160,118220,5,0
96,80,118820,1,0
0,224,119720,1,0
32,176,120020,2,0,B|96:112|96:256,1,140
112,352,121220,1,12
336,352,122420,5,0
224,320,123020,1,0
112,288,123620,1,0
16,224,124220,1,0
16,168,124520,2,8,B|32:88|64:56|96:56|96:56|96:56,1,140
165,176,125720,2,0,B|480:176,4,280
80,256,130820,6,2,B|80:112,1,140
144,208,131420,2,2,B|144:64,1,140
208,160,132020,2,2,B|208:16,1,140
272,112,132620,2,2,B|272:-32,1,140
64,320,142970,5,0
96,272,143120,1,0
96,272,143270,1,0
96,272,143420,1,0
200,320,143720,1,0
200,320,143870,1,0
232,272,144020,1,0
232,272,144170,1,0
264,224,144320,1,0
320,320,144620,1,0
320,320,144770,1,0
344,272,144920,1,0
424,344,145370,5,0
392,296,145520,1,0
360,248,145670,1,0
328,200,145820,1,0
328,200,145970,1,0
288,240,146120,1,0
288,240,146270,1,0
256,192,146420,1,0
184,272,146720,1,0
152,224,146870,1,0
120,272,147020,1,0
88,320,147170,1,0
88,320,147320,1,0
424,320,148220,5,0
424,320,148370,1,0
392,272,148520,1,0
360,224,148670,1,0
328,176,148820,1,0
264,272,149120,1,0
264,272,149270,1,0
264,272,149420,1,0
264,272,149720,1,0
232,320,150020,1,0
232,320,150170,1,0
232,320,150320,1,0
64,328,151070,5,0
96,280,151220,1,0
96,280,151370,1,0
128,328,151520,1,0
160,280,151670,1,0
192,328,151820,1,0
192,328,151970,1,0
192,328,152120,1,0
128,240,152420,5,8
168,176,152620,1,8
216,96,152870,1,8
304,240,153320,5,0
304,240,153470,1,0
336,192,153620,1,0
400,280,153920,1,0
432,328,154220,1,0
432,328,154370,1,0
432,328,154520,1,0
432,328,154670,1,0
464,280,154820,1,0
464,280,155120,1,0
464,280,155270,1,0
464,280,155420,1,0
464,280,155570,1,0
496,232,155720,1,0
496,120,156020,6,2,B|464:-32|408:0|352:40|304:288,1,420
384,240,157220,5,8
344,176,157420,1,8
296,96,157670,1,8
208,240,158120,5,0
208,240,158270,1,0
176,192,158420,1,0
112,280,158720,1,0
80,328,159020,1,0
80,328,159170,1,0
80,328,159320,1,0
80,328,159470,1,0
48,280,159620,1,0
48,280,159920,1,0
48,280,160220,1,0
16,232,160520,1,0
0,344,160820,1,0
0,344,160970,1,0
0,344,161120,1,0
88,272,161420,6,2,B|200:112|312:272|312:272|312:272|312:272,1,280
112,32,162320,5,4
112,32,162620,1,4
176,112,162920,1,4
256,192,163220,1,4
336,272,163520,1,4
48,240,164120,5,2
80,192,164270,1,2
112,144,164420,1,2
144,192,164570,1,2
176,240,164720,1,0
208,288,164870,1,0
240,336,165020,1,0
272,288,165170,1,8
304,240,165320,1,8
336,288,165470,1,0
368,240,165620,1,0
432,144,165920,1,8
480,240,166220,1,8
432,288,166420,5,0
400,256,166520,1,0
352,208,166670,1,0
304,160,166820,1,0
272,208,166970,1,0
240,256,167120,1,0
208,304,167270,1,0
176,256,167420,1,2
144,208,167570,1,2
112,160,167720,1,2
80,112,167870,1,2
48,64,168020,1,2
0,176,168320,5,4
0,176,168620,1,4
96,112,168920,1,2
128,64,169070,1,2
160,16,169220,1,2
224,112,169520,1,4
224,112,169820,1,4
288,208,170120,1,2
320,256,170270,1,2
352,304,170420,1,2
248,264,170720,5,0
160,336,171020,1,4
40,144,171620,1,0
112,32,171920,5,4
112,32,172220,1,4
176,112,172520,1,4
256,192,172820,1,4
336,272,173120,1,4
464,240,173720,5,2
432,192,173870,1,2
400,144,174020,1,2
368,192,174170,1,2
336,240,174320,1,0
304,288,174470,1,0
272,336,174620,1,0
240,288,174770,1,8
208,240,174920,1,8
176,288,175070,1,0
144,240,175220,1,0
80,144,175520,1,8
32,240,175820,1,8
80,288,176020,5,0
112,256,176120,1,0
160,208,176270,1,0
208,160,176420,1,0
240,208,176570,1,0
272,256,176720,1,0
304,304,176870,1,0
336,256,177020,1,2
368,208,177170,1,2
400,160,177320,1,2
432,112,177470,1,2
464,64,177620,1,2
512,176,177920,5,4
512,176,178220,1,4
416,112,178520,1,6
384,64,178670,1,6
352,16,178820,1,6
288,112,179120,1,4
288,112,179420,1,4
224,208,179720,1,6
192,256,179870,1,6
160,304,180020,1,6
264,256,180320,5,4
344,336,180620,1,4
504,176,181220,1,4
424,256,181520,1,4
296,64,182120,1,4
216,144,182420,1,4
