osu file format v5

[General]
AudioFilename: CreepyDoll.mp3
AudioLeadIn: 0
PreviewTime: -1
Countdown: 0
SampleSet: Soft
StackLeniency: 0.7
Mode: 0
LetterboxInBreaks: 1
EditorBookmarks: 3613,46501,54214,56785,64500,97028,109028,112457,120164,122735,130450,133021,170735,184444,210158,213587,221301,223872,231587

[Metadata]
Title:Creepy Doll
Artist:Jonathan Coulton
Creator:Lyoko is Cool
Version:Normal
Source:
Tags:

[Difficulty]
HPDrainRate:5
CircleSize:6
OverallDifficulty:5
SliderMultiplier:1.4
SliderTickRate:1

[Events]
//Background and Video events
0,0,"creepy doll.jpg"
//Break Periods
2,96888,107917
//Storyboard Layer 0 (Background)
//Storyboard Layer 1 (Failing)
//Storyboard Layer 2 (Passing)
//Storyboard Layer 3 (Foreground)
//Storyboard Sound Samples
//Background Colour Transformations
3,100,163,162,255

[TimingPoints]
3690,857.142857142857,4,2,0,100,1
46547,428.571428571429,4,2,0,100,1
54261,857.142857142857,4,2,0,100,1
56832,428.571428571429,4,2,0,100,1
64546,857.142857142857,4,2,0,100,1
112546,428.571428571429,4,2,0,100,1
120150,857.142857142857,4,2,0,100,1
122720,428.571428571429,4,2,0,100,1
130430,857.142857142857,4,2,0,100,1
133000,428.571428571429,4,2,0,100,1
170831,857.142857142857,4,2,0,100,1
213688,428.571428571429,4,2,0,100,1
221402,857.142857142857,4,2,0,100,1
223973,428.571428571429,4,2,0,100,1
231687,857.142857142857,4,2,0,100,1

[HitObjects]
64,64,3690,1,0
160,64,4547,1,0
256,64,5404,1,0
352,64,6261,1,0
448,64,7118,1,0
448,160,7975,1,0
448,256,8832,1,0
352,256,9690,1,0
233,194,10547,5,0
128,128,11404,1,0
224,128,12261,1,0
320,128,13118,1,0
320,224,13975,1,0
320,320,14832,1,0
224,320,15689,1,0
224,224,16547,1,0
128,128,17404,5,0
202,196,18261,1,0
288,256,19118,1,0
384,256,19975,1,0
416,160,20832,1,0
352,64,21689,1,0
256,64,22547,1,0
160,96,23404,1,0
160,192,24261,5,0
224,256,25118,1,0
320,256,25975,1,0
384,192,26832,1,0
352,96,27689,1,0
256,64,28547,1,0
160,128,29404,1,0
224,224,30261,1,0
128,160,31118,5,0
64,64,32404,1,0
96,64,32832,1,0
192,64,34118,1,0
224,64,34547,1,0
320,64,35832,1,0
352,64,36261,1,0
352,192,37547,5,0
352,224,37975,1,0
352,320,39261,1,0
320,320,39689,1,0
256,256,40975,1,0
224,224,41404,1,0
192,160,42689,1,0
192,128,43118,1,0
256,192,43975,12,0,45689
128,128,46547,5,0
64,256,48046,2,0,B|160:192|192:64|224:64|256:160|288:160|320:64,1,350
128,256,50617,2,0,B|173:181|235:59|288:128|320:128|352:288,1,350
32,352,53188,2,0,B|64:288|128:224|192:224,1,210
192,224,54261,2,4,B|384:224,2,140
128,160,56398,2,4,B|160:96|192:224,1,70
64,256,58346,6,0,B|160:192|192:64|224:64|256:160|288:160|320:64,1,350
128,256,60917,2,0,B|173:181|235:59|288:128|320:128|352:288,1,350
32,320,63488,2,0,B|64:256|128:192|192:192,1,210
192,192,64546,2,0,B|352:192,2,140
32,256,66688,2,4,B|64:224|96:224|96:224|528:224,1,490
512,256,70117,5,0
512,192,70546,1,0
512,128,70974,1,0
512,0,71831,1,0
448,0,72260,1,0
384,0,72688,1,0
256,0,73546,1,0
192,0,73974,1,0
128,0,74403,1,0
0,0,75261,5,0
0,64,75689,1,0
0,128,76118,1,0
0,256,76974,1,0
0,320,77402,1,0
0,384,77831,1,0
128,384,78688,1,0
192,384,79117,1,0
256,384,79545,1,0
384,384,80403,5,0
448,384,80831,1,0
448,320,81260,1,0
448,192,82117,1,0
448,128,82546,1,0
448,64,82974,1,0
320,64,83831,1,0
256,64,84260,1,0
192,64,84688,1,0
64,64,85546,5,0
64,128,85974,1,0
64,192,86403,1,0
64,320,87260,1,0
128,320,87688,1,0
192,320,88117,1,0
320,320,88974,1,0
384,320,89403,1,0
448,320,89831,1,0
448,192,90688,5,0
448,128,91117,1,0
384,128,91546,1,0
256,128,92403,1,0
192,128,92831,1,0
128,128,93260,1,0
64,192,94117,1,0
64,256,94546,1,0
128,256,94974,1,0
256,256,95831,1,0
320,256,96260,1,0
384,256,96688,1,0
32,224,109117,6,0,B|74:98|250:34|374:94|423:208|448:288,1,560
448,256,114046,2,0,B|352:192|320:64|288:64|256:160|224:160|192:64,1,350
384,256,116617,2,0,B|339:181|277:59|224:128|192:128|160:288,1,350
480,352,119188,2,0,B|448:288|384:224|320:224,1,210
320,224,120153,2,4,B|128:224,2,140
384,160,122295,2,4,B|352:96|320:224,1,70
448,256,124327,6,0,B|352:192|320:64|288:64|256:160|224:160|192:64,1,350
384,256,126898,2,0,B|339:181|277:59|224:128|192:128|160:288,1,350
480,320,129470,2,0,B|448:256|384:192|320:192,1,210
320,192,130537,2,0,B|160:192,2,140
350,131,132572,6,0,B|318:99|286:131,1,70
288,128,133000,2,0,B|62:131,2,210
288,192,134821,2,0,B|512:192,2,210
288,256,136535,2,0,B|64:256,2,210
288,320,138250,1,0
320,288,138678,1,0
352,256,139107,1,0
384,224,139535,1,0
432,160,139963,6,0,B|192:160,2,210
432,224,141677,2,0,B|208:224,2,210
432,288,143392,2,0,L|481:371|224:368|224:272,1,420
192,256,145106,1,0
160,224,145535,1,0
128,192,145963,1,0
96,224,146392,6,0,B|16:160|80:96|80:96|368:96,1,420
416,224,148107,2,0,B|496:160|432:96|432:96|144:96,1,420
96,224,149821,2,0,B|16:160|80:96|80:96|368:96,1,420
416,224,151536,2,0,B|496:160|432:96|432:96|272:96,1,280
256,160,152821,2,0,B|192:112|112:160,1,140
80,96,153678,6,0,B|368:96,1,280
416,224,154964,2,0,B|496:160|432:96|432:96|272:96,1,280
256,160,156249,2,0,B|192:112|112:160,1,140
64,240,157107,2,0,B|464:240|465:238|448:176|384:96,1,490
464,160,159142,1,0
500,201,159678,6,0,B|436:128|372:96|260:240,1,280
272,224,160750,1,0
272,224,160964,1,0
228,272,161178,1,0
228,272,161393,1,0
228,272,161607,1,0
228,272,161821,1,0
228,272,162035,1,0
196,224,162250,1,0
164,176,162464,1,0
132,224,162678,1,0
100,272,162892,1,0
164,176,163107,5,0
164,176,163321,1,0
164,176,163535,1,0
196,224,163750,1,0
196,224,163964,1,0
196,224,164178,1,0
196,224,164392,1,0
196,224,164607,1,0
240,176,164821,1,0
272,128,165035,1,0
304,176,165250,1,0
336,224,165464,1,0
272,128,165678,5,0
