osu file format v5

[General]
AudioFilename: 3-03 Code Monkey.mp3
AudioLeadIn: 0
PreviewTime: -1
Countdown: 1
SampleSet: Normal

[Metadata]
Title:Code Monkey
Artist:Jonathan Coulton
Creator:bitor
Version:Hard

[Difficulty]
HPDrainRate:6
CircleSize:6
OverallDifficulty:6
SliderMultiplier:1
SliderTickRate:1

[Events]
//Background and Video events
1,0,"Code Monkey.AVI"
//Break Periods
2,23007,33982
2,60485,62611
2,82798,94111
2,117299,125612
2,148799,160112
//Storyboard Layer 0 (Background)
//Storyboard Layer 1 (Failing)
//Storyboard Layer 2 (Passing)
//Storyboard Layer 3 (Foreground)
//Storyboard Sound Samples
//Background Colour Transformations
3,100,163,162,255

[TimingPoints]
660,375.006269436531,4,1,0,100

[HitObjects]
64,64,12472,1,0
128,64,12847,1,0
128,128,13222,1,0
64,160,13597,2,0,B|64:192|96:224|128:256|192:256,1,150
224,256,14535,1,0
256,256,14722,1,0
288,256,14910,1,0
160,192,15472,5,0
192,192,15660,1,0
224,192,15847,1,0
288,192,16222,1,0
288,128,16597,1,0
288,32,17347,2,0,B|320:32|352:64,1,50
384,64,17722,2,0,B|352:96|384:128,1,50
384,160,18285,5,0
352,192,18472,1,0
352,256,18847,1,4
288,288,19222,1,4
224,320,19597,2,4,B|192:320|160:288|128:256|128:224|160:192,1,150
160,160,20535,1,0
192,128,20722,1,0
160,96,20910,1,0
256,64,21472,5,2
288,64,21660,1,2
320,64,21847,2,0,B|352:32|384:32|416:64,1,100
448,64,22410,1,2
448,96,22597,1,2
64,32,35160,5,0
128,96,35535,1,0
160,64,35723,1,0
192,96,35910,1,0
256,64,36285,1,0
288,32,36473,1,0
320,64,36660,2,0,B|416:160,3,100
448,192,38160,5,0
416,256,38535,1,0
384,288,38723,1,0
352,256,38910,1,0
288,192,39285,2,0,B|160:256,1,100
160,256,39848,2,0,B|96:256,2,50
96,160,41160,5,0
128,224,41535,1,0
160,256,41723,1,0
192,224,41910,2,0,B|224:256|256:224,1,50
256,192,42285,2,0,B|288:160|320:192,1,50
352,192,42660,1,0
448,32,43973,5,0
416,64,44160,1,0
352,64,44535,1,0
320,128,44910,2,0,B|288:96|256:128,1,50
256,160,45285,2,0,B|288:160|320:192,1,50
288,224,45660,1,0
448,256,47160,5,0
448,192,47535,1,0
416,160,47723,1,0
384,192,47910,1,0
352,256,48285,2,0,B|288:256|256:224,1,100
224,224,48848,2,0,B|160:224,1,50
64,224,49598,2,0,B|96:160,1,50
128,128,50348,5,0
160,96,50535,1,0
192,128,50723,1,0
224,96,50910,1,0
288,128,51285,1,0
352,96,51848,1,0
384,128,52035,1,0
352,192,52598,1,0
320,160,52785,1,0
256,128,53348,2,0,B|256:192,3,50
256,192,54285,12,0,60285
160,128,63661,5,0
192,128,63848,1,0
224,128,64036,1,0
256,128,64223,1,0
288,128,64411,1,0
320,128,64598,1,0
320,192,65348,2,0,B|256:192,1,50
224,192,65723,2,0,B|160:192,1,50
96,192,66286,1,0
128,128,66661,5,0
160,64,67036,1,0
192,64,67223,1,0
224,64,67411,1,0
224,96,67598,1,0
224,128,67786,2,0,B|288:128,1,50
352,128,68348,2,0,B|384:192|352:224,1,100
448,224,69473,5,0
416,256,69661,1,0
384,288,69848,1,0
288,288,70223,1,0
256,256,70411,1,0
224,224,70598,1,0
96,256,71348,2,0,B|162:256|162:256,1,50
192,256,71723,2,0,B|256:256,1,50
320,256,72286,1,0
320,224,72473,6,0,B|320:192|288:160|224:160,1,100
224,96,73223,2,0,B|224:64|256:32|320:32,1,100
352,64,73973,1,0
384,64,74161,1,0
384,96,74348,1,0
384,128,74536,1,0
384,160,74723,1,0
384,192,74911,1,0
320,224,75473,5,0
288,192,75661,1,0
256,224,75848,1,0
192,224,76223,2,0,B|160:192|156:157|160:96,1,100
256,96,77348,2,0,B|192:96,3,50
128,96,78286,1,0
160,128,78473,6,0,B|160:160|192:192,2,50
160,64,79223,2,0,B|192:32|224:32|256:32,1,100
256,96,79973,2,0,B|290:106|288:160,1,50
256,192,80348,2,0,B|223:192|223:192|192:160,1,50
160,160,80723,2,0,B|139:113|160:96,1,50
224,64,81473,5,0
288,96,81848,1,0
352,128,82223,2,0,B|384:160|352:192,2,50
96,64,95161,6,0,B|128:32|160:64|192:96|160:128|160:128,1,100
192,128,95724,1,0
224,160,95911,1,0
288,128,96286,2,0,B|320:96|352:128,1,50
384,128,96661,1,0
384,192,97036,1,0
320,192,97411,1,0
256,192,97786,1,0
192,192,98161,6,0,B|160:192|128:160|128:128|160:96,1,100
160,96,98724,1,0
192,64,98911,1,0
256,64,99286,2,0,B|288:96|288:128|256:160,1,100
224,192,99849,2,0,B|224:224|256:256,1,50
288,224,100224,1,0
352,160,101161,5,0
352,96,101536,2,0,B|288:64,1,50
256,96,101911,2,0,B|192:128,1,50
192,160,102286,2,0,B|256:192,1,50
288,192,102661,1,0
384,192,103974,1,0
352,224,104161,2,0,B|320:192|256:224,1,100
192,224,104911,2,0,B|160:192|192:160,1,50
224,160,105286,2,0,B|288:160,2,50
256,256,107161,5,0
192,256,107536,1,0
160,224,107724,1,0
160,192,107911,1,0
192,128,108286,2,0,B|216:162|251:185|320:192|372:190|444:156|480:101|480:64|456:16|430:8|408:4|384:0,1,400
352,96,110724,6,0,B|224:96,2,100
384,96,111661,1,0
224,64,113161,5,0
288,64,113536,1,0
320,96,113724,1,0
352,128,113911,1,0
352,192,114286,2,0,B|328:271|299:303|241:325|177:317|129:285|107:234|112:187|122:149|152:110|201:83|271:82|314:122|329:159|309:219|239:250|192:224,1,650
224,160,117099,1,0
64,32,126662,5,0
64,96,127037,1,0
96,128,127224,1,0
64,160,127412,1,0
96,192,127599,1,0
160,192,127974,2,0,B|288:192,2,100
128,96,129474,5,0
160,64,129662,1,0
192,96,129849,1,0
256,128,130224,1,0
256,192,130599,1,0
320,256,131349,2,0,B|352:224|320:192,1,50
320,160,131724,2,0,B|288:128|320:96,1,50
256,64,132287,5,0
192,96,132662,1,0
256,128,133037,1,0
288,160,133224,1,0
256,192,133412,1,0
256,256,133787,1,0
224,288,133974,1,0
160,288,134349,2,0,B|32:288,1,100
96,160,135474,5,0
128,128,135662,1,0
160,96,135849,1,0
224,128,136224,1,0
256,160,136412,1,0
288,192,136599,1,0
384,192,137349,2,0,B|320:128,3,50
416,96,138287,5,0
384,64,138474,1,0
320,96,138849,2,0,B|299:48|277:36|245:48|224:64,1,100
192,96,139599,1,0
192,160,139974,1,0
224,160,140162,2,0,B|256:224,2,50
256,160,140724,2,0,B|320:160,1,50
288,256,141474,5,0
224,256,141849,1,0
224,192,142224,1,0
288,192,142599,1,0
160,192,143349,2,0,B|128:160|160:128,3,50
160,32,144287,5,0
160,64,144474,1,0
192,128,144849,1,0
256,96,145224,1,0
320,96,145599,2,0,B|448:96,1,100
416,128,146162,1,0
416,160,146349,1,0
416,192,146537,1,0
416,224,146724,1,0
416,256,146912,5,0
320,256,147474,1,0
288,256,147662,1,0
256,256,147849,1,0
192,256,148224,1,0
128,256,148599,1,0
64,64,161162,5,0
128,128,161537,1,0
160,160,161725,1,0
192,192,161912,1,0
256,256,162287,2,0,B|320:192,1,50
288,192,162662,5,0
288,128,163037,1,0
288,64,163412,1,0
352,64,163787,1,0
416,64,164162,5,0
384,128,164537,1,0
352,160,164725,1,0
320,192,164912,1,0
256,256,165287,1,0
192,224,165662,1,0
160,256,165850,1,0
128,224,166037,1,0
96,192,166225,1,0
256,32,167162,5,0
256,96,167537,1,0
256,128,167725,1,0
256,160,167912,2,0,B|192:224,1,50
224,224,168287,2,0,B|288:256,1,50
256,288,168662,1,0
128,224,170162,5,0
192,224,170537,1,0
256,224,170912,1,0
288,224,171100,2,0,B|352:160,1,50
352,192,171475,2,0,B|416:256,1,50
192,192,173162,5,0
256,192,173537,1,0
288,160,173725,1,0
320,192,173912,1,0
320,256,174287,2,0,B|386:332|290:356|221:358|107:321|192:256,1,300
192,192,175787,5,0
192,128,176162,1,0
256,128,176537,1,0
256,192,176912,1,0
192,224,177287,2,0,B|160:192|172:149|224:128,1,100
256,160,177850,1,0
288,160,178037,1,0
352,192,178600,2,0,B|380:212|352:256,1,50
352,288,179162,5,0
288,256,179537,1,0
256,224,179725,1,0
256,192,179912,1,0
256,192,180288,12,0,186288
