osu file format v5

[General]
AudioFilename: 3-03 Code Monkey.mp3
AudioLeadIn: 0
PreviewTime: -1
Countdown: 1
SampleSet: Normal

[Metadata]
Title:Code Monkey
Artist:Jonathan Coulton
Creator:bitor
Version:Easy

[Difficulty]
HPDrainRate:3
CircleSize:2
OverallDifficulty:5
SliderMultiplier:1
SliderTickRate:1

[Events]
//Background and Video events
1,0,"Code Monkey.AVI"
//Break Periods
2,23007,33982
2,60507,62483
2,83008,94358
2,117508,125484
2,148634,159984
//Storyboard Layer 0 (Background)
//Storyboard Layer 1 (Failing)
//Storyboard Layer 2 (Passing)
//Storyboard Layer 3 (Foreground)
//Storyboard Sound Samples
//Background Colour Transformations
3,100,163,162,255

[TimingPoints]
660,375.006269436531,4,1,0,100

[HitObjects]
128,64,12660,1,0
256,64,13410,1,0
384,64,14160,1,0
384,192,14910,1,0
256,192,15660,1,0
128,192,16410,1,0
128,64,17160,5,6
192,128,17535,1,6
256,192,17910,1,6
448,320,19035,5,0
320,320,19785,1,0
192,320,20535,1,0
64,320,21285,1,0
192,192,22035,5,4
256,192,22410,1,4
320,192,22785,1,4
96,128,35160,5,0
192,128,35535,1,0
288,128,35910,1,0
384,128,36285,1,0
384,224,38160,5,0
288,224,38535,1,0
192,224,38910,1,0
96,224,39285,1,0
160,160,41160,5,0
256,160,41535,1,0
352,160,41910,1,0
288,256,42285,1,0
192,256,42660,1,0
160,64,44160,5,0
256,64,44535,1,0
352,64,44910,1,0
288,160,45285,1,0
192,160,45660,1,0
192,192,47160,2,0,B|320:192,3,100
96,192,50160,5,0
224,192,50910,1,0
352,192,51660,1,0
320,64,52410,1,0
192,64,53160,1,0
128,224,54285,2,0,B|147:264|189:284|230:289|267:283|301:261|320:224,8,200
192,192,63661,5,0
288,192,64036,1,0
352,288,64786,2,0,B|128:288,1,200
192,64,66661,5,0
288,64,67036,1,0
352,160,67786,2,0,B|128:160,1,200
256,160,69473,6,0,B|256:288,3,100
160,160,72286,6,0,B|384:160,5,200
96,32,78661,5,0
256,32,79411,1,0
416,32,80161,1,0
416,128,80536,1,0
416,224,80911,1,0
416,320,81286,1,0
256,320,82036,1,0
96,320,82786,1,0
64,32,95161,6,0,B|512:352,1,500
448,32,98161,6,0,B|0:352,1,500
64,192,101161,6,0,B|512:192,1,400
256,32,104161,6,0,B|256:160,4,100
288,192,107161,5,0
160,192,107911,1,0
64,192,108286,2,0,B|448:192,1,350
192,96,113161,5,0
320,96,113911,1,0
320,160,114286,2,0,B|317:218|284:249|226:246|196:208|192:148|192:128,4,200
64,64,126662,5,0
192,64,127412,1,0
320,64,128162,1,0
384,64,128537,1,0
384,192,129662,5,0
256,192,130412,1,0
192,192,130787,1,0
384,64,132662,5,0
384,192,133412,1,0
384,256,133787,1,0
384,352,134537,1,0
256,128,135662,1,0
256,256,136412,1,0
64,64,138662,5,0
64,192,139412,1,0
64,320,140162,1,0
192,320,140912,1,0
192,192,141662,1,0
192,64,142412,1,0
448,64,144662,5,0
448,192,145412,1,0
448,320,146162,1,0
320,320,146912,1,0
320,192,147662,1,0
320,64,148412,1,0
160,96,161162,5,0
288,224,161912,1,0
352,288,162287,1,0
352,96,164162,5,0
224,224,164912,1,0
160,288,165287,1,0
96,160,166037,1,0
256,160,166787,1,0
416,96,167537,5,0
416,192,167912,1,0
416,288,168287,1,0
96,288,170162,1,0
96,192,170537,1,0
96,96,170912,1,0
256,160,171662,1,0
32,160,173537,5,0
160,160,174287,2,0,B|384:160,1,200
480,160,175787,1,0
480,288,176537,6,0,B|256:288,1,200
160,288,178037,1,0
160,160,178787,6,0,B|384:160,1,200
256,192,180288,12,0,186288
