osu file format v9

[General]
AudioFilename: Want You Gone~.mp3
AudioLeadIn: 0
PreviewTime: 25090
Countdown: 0
SampleSet: Soft
StackLeniency: 0.7
Mode: 0
LetterboxInBreaks: 0

[Editor]
Bookmarks: 4840,24040,40840,45640,64840,81640,86440,105640,122440
DistanceSpacing: 1
BeatDivisor: 4
GridSize: 8

[Metadata]
Title:Want You Gone
Artist:Jonathan Coulton & GLaDOS
Creator:SapphireGhost
Version:Collab Potato
Source:Portal 2
Tags:Ozzy OzzyOzrock NoHItter animask kevincela Lilac MarioBros777 Behonkiss Emdyion Teta Ellen McLain Chell Aperture Science Valve gaben Steam Still Alive

[Difficulty]
HPDrainRate:6
CircleSize:4
OverallDifficulty:7
ApproachRate:7
SliderMultiplier:2.5
SliderTickRate:2

[Events]
//Background and Video events
0,0,"wedowhatwemust.jpg"
//Break Periods
2,41040,44740
2,81839,85840
//Storyboard Layer 0 (Background)
//Storyboard Layer 1 (Fail)
//Storyboard Layer 2 (Pass)
//Storyboard Layer 3 (Foreground)
Sprite,Foreground,Centre,"C Drive\Introduction.png",320,240 M,0,40,,316,75 F,0,40,1540,0,1 F,0,1540,2440,1 F,0,2440,3940,1,0
Sprite,Foreground,Centre,"C Drive\NoHItter.png",320,240 M,0,4840,,320,121 F,0,4840,4990,0,1 F,0,4990,23890,1 F,0,23890,24040,1,0
Sprite,Foreground,Centre,"C Drive\Teta.png",320,240 M,0,24040,,319,348 F,0,24040,24190,0,1 F,0,24190,40690,1 F,0,40690,40840,1,0
Sprite,Foreground,Centre,"C Drive\animask.png",320,240 M,0,45640,,320,115 F,0,45640,45790,0,1 F,0,45790,64690,1 F,0,64690,64840,1,0
Sprite,Foreground,Centre,"C Drive\-kevincela-.png",320,240 M,0,64840,,319,364 F,0,64840,64990,0,1 F,0,64990,81490,1 F,0,81490,81940,1,0
Sprite,Foreground,Centre,"C Drive\Lilac.png",320,240 M,0,86440,,320,116 F,0,86440,86590,0,1 F,0,86590,88990,1 F,0,88990,89140,1,0 F,0,89140,91240,0 F,0,91240,91390,0,1 F,0,91390,105490,1 F,0,105490,105640,1,0
Sprite,Foreground,Centre,"C Drive\Behonkiss.png",320,240 M,0,105640,,319,351 F,0,105640,105790,0,1 F,0,105790,122290,1 F,0,122290,122440,1,0
Sprite,Foreground,Centre,"C Drive\Emdyion.png",320,240 M,0,122440,,320,120 F,0,122440,122590,0,1 F,0,122590,132040,1 F,0,132040,134890,1,0
//Storyboard Sound Samples
//Background Colour Transformations
3,100,163,162,255

[TimingPoints]
40,600,4,2,0,60,1,0
32440,-100,4,1,0,60,0,0
34840,-100,4,2,0,60,0,0
50340,-100,4,1,0,60,0,0
50540,-100,4,2,0,60,0,0
73240,-100,4,1,0,60,0,0
75640,-100,4,2,0,60,0,0
95970,-100,4,1,0,60,0,0
104590,-100,4,2,0,60,0,0
104740,-100,4,1,0,60,0,0
104890,-100,4,2,0,60,0,0
105040,-100,4,1,0,60,0,0
105190,-100,4,2,0,60,0,0
105340,-100,4,1,0,60,0,0
105490,-100,4,2,0,60,0,0
114040,-100,4,1,0,60,0,0
115990,-100,4,2,0,60,0,0
122290,-100,4,1,0,45,0,0
127240,-100,4,1,0,35,0,0
134890,-100,4,2,0,10,0,0

[Colours]
Combo1 : 251,163,0
Combo2 : 70,174,236

[HitObjects]
256,184,4840,1,4
364,248,5140,6,0,B|420:300|364:356,1,125,0|8
288,256,5740,1,0
224,256,5890,1,2
256,136,6190,1,2
256,72,6340,1,2
44,336,7240,5,4
96,200,7540,5,0
204,140,7840,2,0,B|256:84|312:140,1,125,8|0
256,28,8440,1,2
256,208,8890,1,2
256,272,9040,2,0,B|220:300|256:324|292:348|256:380,1,125,2|2
372,336,9640,5,4
496,80,10240,5,0
496,144,10390,1,2
496,208,10540,1,0
384,144,10840,1,8
320,40,11140,1,0
192,40,11440,1,2
128,144,11740,1,0
202,193,12040,2,0,B|223:53|292:53|308:196,1,250,8|2
256,360,12940,1,2
44,40,14440,5,4
144,116,14740,6,0,B|196:172|252:116,1,125,0|8
372,200,15340,2,0,B|320:144|264:200,1,125,0|8
192,304,15940,1,2
320,304,16240,1,2
256,32,16840,5,4
380,52,17140,6,0,B|456:52|456:132,1,125,0|8
455,253,17740,1,2
348,192,18040,2,0,B|320:168|288:192|256:216|228:192,1,125,0|8
112,152,18640,1,2
76,272,18940,1,2
192,316,19240,5,4
320,316,19540,5,0
416,244,19840,2,0,B|472:192|416:136,1,125,8|0
320,56,20440,1,2
192,56,20740,1,2
256,168,21040,2,0,B|256:296,1,125,8|0
128,304,21640,5,4
384,304,22240,1,4
376,56,22840,1,4
256,32,23140,1,4
136,56,23440,1,4
256,104,23740,2,0,B|220:132|256:156|292:180|256:212,1,125,4|2
256,338,24340,5,0
144,282,24640,1,8
110,162,24940,1,0
196,72,25240,2,0,B|256:44|316:72,1,125
402,162,25840,1,8
368,282,26140,2,0,B|256:382|144:282,1,250
256,226,27040,5,8
318,118,27340,1,0
192,118,27640,1,0
132,136,27790,1,0
94,186,27940,1,8
132,306,28240,1,8
256,300,28540,1,0
382,306,28840,1,0
417,186,29140,1,0
379,136,29290,1,0
319,118,29440,1,8
192,118,29740,1,0
256,226,30040,5,0
140,180,30340,1,0
140,55,30640,1,8
256,102,30940,1,0
372,56,31240,1,0
372,180,31540,1,0
318,294,31840,2,0,B|194:294,1,125,8|0
256,186,32440,6,0,B|256:116,2,62.5,8|0|12
134,212,33040,1,8
152,272,33190,1,4
198,314,33340,1,8
256,338,33490,1,4
314,314,33640,1,0
360,272,33790,1,0
378,212,33940,2,0,B|406:148|346:84,1,125,0|8
256,170,34540,1,0
154,98,34840,5,0
46,162,35140,1,0
56,286,35440,1,8
174,328,35740,1,0
256,234,36040,2,0,B|256:300,2,62.5
338,328,36640,1,8
456,286,36940,1,0
466,162,37240,1,0
358,98,37540,1,0
256,184,37840,1,8
368,220,38140,6,0,B|256:319|144:220,1,250
154,96,39040,1,8
256,24,39340,2,0,B|256:90,2,62.5
358,252,40240,1,0
256,324,40540,1,0
154,252,40840,1,4
48,48,45640,5,0
152,120,45940,1,0
256,192,46240,1,0
360,264,46540,1,0
464,336,46840,1,0
464,336,47140,1,0
464,48,48040,5,0
360,120,48340,1,0
256,192,48640,1,0
152,264,48940,1,0
48,336,49240,1,0
48,336,49540,1,0
256,352,49990,6,0,B|256:272,1,62.5,0|4
360,216,50440,1,0
416,104,50740,2,0,B|360:64,1,62.5
312,32,51040,1,8
256,144,51340,1,0
208,104,51490,1,8
152,72,51640,1,0
88,64,51790,1,0
24,72,51940,1,8
256,368,52840,5,0
200,336,52990,2,0,B|144:320,2,31.25,0|0|0
256,304,53290,1,0
312,336,53440,1,8
312,208,53740,1,0
256,184,53890,1,0
200,208,54040,6,0,B|168:232|176:272,1,62.5,2|0
152,208,54340,2,0,B|120:184|128:144,1,62.5,0|2
184,168,54640,2,0,B|208:136|248:144,1,62.5,2|0
232,208,54940,2,0,B|264:232|256:272,1,62.5,0|2
256,328,55240,5,0
368,280,55540,1,0
400,160,55840,1,0
328,56,56140,1,0
200,48,56440,1,0
120,144,56740,1,0
256,328,57640,5,0
144,280,57940,1,0
112,160,58240,1,0
184,56,58540,1,0
312,48,58840,1,0
392,144,59140,5,4
256,272,59590,1,2
120,144,60040,1,0
200,48,60340,6,0,B|272:48,1,62.5,0|0
304,96,60640,1,8
272,152,60790,1,0
304,208,60940,1,0
272,264,61090,1,8
304,320,61240,2,0,B|408:320,1,62.5
432,320,61540,1,8
80,320,62440,5,0
128,280,62590,2,0,B|104:240,2,31.25
184,248,62890,1,0
232,208,63040,1,8
120,152,63340,6,0,B|64:104,1,62.5,0|2
144,104,63640,2,0,B|192:48,1,62.5,2|0
200,120,63940,2,0,B|256:168,1,62.5,0|2
168,168,64240,5,2
64,224,64540,1,0
176,280,64840,1,4
436,204,66040,6,0,B|424:272|472:340,1,125,4|0
336,328,66640,1,0
216,300,66940,2,0,B|160:184,1,125,0|8
160,64,67540,2,0,B|104:-8|12:12|-28:108|80:176,2,250,0|8|0
240,160,69040,1,0
340,84,69340,1,0
340,84,69490,1,0
340,84,69640,1,8
440,160,69940,1,0
440,160,70090,1,0
440,160,70240,2,0,B|440:296,1,125,4|0
316,304,70840,6,0,B|192:332,2,125,8|0|0
252,196,71740,1,0
372,164,72040,1,8
252,196,72340,2,0,B|296:136|280:64|184:-4|80:64|56:136|120:216,1,375,0|8
176,304,73540,1,0
292,352,73840,1,0
344,316,73990,1,0
408,316,74140,1,0
460,352,74290,1,0
460,352,74440,2,0,B|496:296|468:224,1,125,8|0
408,124,75040,2,0,B|372:180|400:252,1,125
276,272,75640,5,4
160,320,75940,1,0
44,276,76240,1,0
48,152,76540,2,0,B|156:72,1,125,0|8
268,116,77140,2,0,B|388:160|520:108,2,250,0|8|0
220,232,78640,1,0
332,284,78940,5,0
220,336,79240,2,0,B|84:344,1,125,8|0
20,244,79840,2,0,B|152:236,1,125
188,120,80440,2,0,B|280:52|344:168|444:92,1,250,8|0
352,204,81340,2,0,B|408:232|424:296|328:344|328:344,1,125,8|0
152,40,86740,5,0
256,96,87040,2,0,B|329:101|335:175,1,125,2|0
256,272,87640,1,0
256,272,87790,2,0,B|182:266|176:192,1,125,2|0
256,236,91240,6,0,B|200:288|120:272,1,125,0|2
72,240,91690,1,0
72,240,91840,2,0,B|108:176|56:116,1,125
196,108,92440,1,2
196,108,92590,1,2
408,56,93190,5,0
408,56,93340,1,0
468,196,93640,2,0,B|376:184|360:280,1,125,0|0
452,344,94240,1,0
328,344,94540,1,0
204,332,94840,5,0
140,292,94990,1,0
112,224,95140,1,0
132,152,95290,1,0
184,100,95440,1,0
256,124,95590,1,0
328,100,95740,1,0
464,40,96040,6,0,B|488:120|412:168,1,125
344,184,96490,1,0
412,248,96640,1,8
260,360,96940,1,0
180,312,97090,2,2,B|116:360|24:320|24:236,1,187.5
124,208,97690,1,0
388,208,98440,5,4
309,80,98740,2,0,B|292:119|196:124|191:45,1,125
254,20,99340,1,8
148,192,99640,1,0
148,192,99790,1,0
148,192,99940,1,8
364,192,100390,1,8
472,296,100840,6,0,B|448:360|372:360,1,125,4|0
316,288,101290,1,0
228,252,101440,2,0,B|160:284|172:360,1,125,8|0
84,352,101890,1,0
36,172,102190,1,0
128,184,102340,1,0
304,124,102640,6,2,B|252:64|180:100,1,125
48,44,103240,1,4
464,44,103840,1,4
256,292,104440,5,8
188,260,104590,1,0
156,192,104740,1,8
188,120,104890,5,0
256,84,105040,1,4
328,120,105190,1,0
356,192,105340,1,0
328,260,105490,1,0
424,72,106240,5,8
300,72,106540,1,0
176,72,106840,1,2
52,72,107140,1,2
116,180,107440,1,8
116,304,107740,2,0,B|264:304,1,125,2|0
324,208,108340,2,0,B|468:208,1,125,2|8
428,84,108940,1,2
304,84,109240,1,0
116,80,109690,2,0,B|8:192|128:312,1,250,2|0
117,300,110440,1,4
367,300,111040,5,8
468,72,111640,1,2
352,20,111940,1,0
240,76,112240,1,8
128,20,112540,1,2
20,80,112840,1,2
20,204,113140,2,0,B|36:348|208:352,1,250,2|0
192,228,114040,5,0
316,228,114340,1,0
408,144,114640,1,0
408,80,114790,1,0
344,80,114940,1,0
344,144,115090,1,0
288,112,115240,1,4
40,112,115840,5,8
40,236,116140,1,0
136,316,116440,1,2
260,316,116740,1,0
384,316,117040,1,8
464,220,117340,2,2,B|480:144|408:100,1,125
316,44,117940,1,0
192,44,118240,1,8
80,100,118540,2,0,B|16:176|36:296,2,187.5,2|0|8
180,328,120040,6,0,B|348:328,1,125,2|0
432,328,120640,1,8
336,248,120940,1,0
432,164,121240,2,0,B|408:36|228:40,1,250,2|8
116,40,122140,1,4
56,152,122440,6,0,B|196:152,1,125,2|0
456,152,123040,2,0,B|316:152,1,125,8|0
104,220,123640,2,0,B|244:220,1,125
408,220,124240,2,0,B|268:220,1,125,8|4
256,96,124840,6,0,B|184:60|116:108,1,125,2|0
52,192,125440,1,8
176,192,125740,1,0
300,192,126040,2,0,B|296:360|104:320,1,250,0|8
8,324,126940,1,4
80,224,127240,6,0,B|164:224,2,62.5,2|0|0
432,224,127840,2,0,B|348:224,2,62.5,8|0|0
100,144,128440,5,0
164,144,128590,1,0
228,144,128740,1,0
412,144,129040,5,8
348,144,129190,1,0
284,144,129340,2,0,B|256:-8|92:48,1,250,4|2
148,160,130240,1,8
256,224,130540,1,0
364,160,130840,1,0
40,192,131440,5,8
472,192,131740,5,4
256,192,132040,12,0,134890
