osu file format v9

[General]
AudioFilename: Want you gone - Portal 2.mp3
AudioLeadIn: 0
PreviewTime: 25263
Countdown: 0
SampleSet: Normal
StackLeniency: 0.7
Mode: 0
LetterboxInBreaks: 0

[Editor]
Bookmarks: 147173
DistanceSpacing: 1
BeatDivisor: 4
GridSize: 4

[Metadata]
Title:Want You Gone
Artist:Jonathan Coulton & GLaDOS
Creator:Larto
Version:Normal
Source:Portal 2
Tags:valve ellen mclain sapphireghost

[Difficulty]
HPDrainRate:4
CircleSize:3
OverallDifficulty:5
ApproachRate:5
SliderMultiplier:2.24
SliderTickRate:2

[Events]
//Background and Video events
0,0,"BG.jpg"
//Break Periods
2,45663,48963
2,86463,93663
//Storyboard Layer 0 (Background)
//Storyboard Layer 1 (Fail)
//Storyboard Layer 2 (Pass)
//Storyboard Layer 3 (Foreground)
//Storyboard Sound Samples
//Background Colour Transformations
3,100,163,162,255

[TimingPoints]
63,600,4,1,0,50,1,0
24063,-100,4,1,0,50,0,1
40863,-100,4,1,0,50,0,0
64863,-100,4,1,0,50,0,1
81663,-100,4,1,0,50,0,0
105663,-100,4,1,0,50,0,1
134463,-100,4,2,0,5,0,0

[Colours]
Combo1 : 251,163,0
Combo2 : 70,174,236

[HitObjects]
256,192,4863,5,4
168,296,5163,1,0
56,216,5463,2,0,B|40:144|80:96|120:80|176:104,2,168,8|2|2
256,16,7263,5,4
360,104,7563,1,0
464,16,7863,1,8
464,152,8163,1,0
456,288,8463,2,0,B|416:344|320:320,1,112,0|2
256,136,9213,1,0
256,136,9363,1,4
170,218,9663,6,2,B|190:244|196:277|256:316|315:277|321:244|341:218,2,224
36,128,11313,2,0,B|12:256|76:328,1,168,2|0
160,360,12063,6,0,B|416:360,1,224,4|8
468,296,12963,1,2
352,272,13263,2,0,B|104:272,1,224,4|8
64,184,14163,1,2
160,112,14463,6,0,B|256:72|280:112|288:152|336:168|384:124,2,224,4|8|0
84,40,15963,1,2
40,336,16863,6,0,B|112:272|64:192,1,112,4|2
140,140,17463,2,0,B|204:212|284:164,1,112,8|0
348,164,18063,1,0
376,272,18363,2,4,B|172:272,2,168
416,76,19863,5,8
316,24,20163,1,0
212,64,20463,2,2,B|236:160|172:224|112:224,2,168
112,60,21663,5,6
256,228,22263,1,6
400,60,22863,1,6
288,64,23163,1,0
184,104,23463,1,8
112,188,23763,1,0
56,288,24063,6,0,B|148:256|232:332|244:384,1,224,4|8
368,376,24963,1,0
456,284,25263,2,0,B|364:316|280:240|268:188,1,224,4|8
256,96,26163,1,0
180,180,26463,2,4,B|196:256|256:264|316:256|332:180,1,224,4|8
376,88,27363,1,0
409,184,27663,2,4,B|376:336|256:352|136:336|104:184,1,448,4|4
256,48,29463,5,2
464,136,30063,1,4
416,236,30363,1,0
320,292,30663,1,8
192,292,30963,2,2,B|104:276|48:204|48:132,2,224
256,208,32463,5,4
208,128,32763,1,0
304,120,33063,1,4
256,40,33363,1,0
144,40,33663,6,0,B|48:72|40:176|68:228,1,224,4|8
368,344,34863,2,0,B|464:312|472:208|444:156,1,224,4|8
340,128,35763,2,2,B|332:180|256:220|180:180|172:128,1,224
184,36,36663,1,0
256,96,36963,2,2,B|256:324,2,224
332,40,38463,5,4
332,260,39063,1,8
256,200,39363,1,0
180,260,39663,1,4
180,40,40263,1,8
256,100,40563,1,0
332,40,40863,1,4
64,80,50163,5,4
132,168,50463,2,2,B|176:84|280:80|340:128,1,224,2|8
420,188,51363,1,0
420,300,51663,2,2,B|240:300,2,168
504,212,52863,5,6
256,132,53463,1,8
256,244,53763,1,0
368,260,54063,2,0,B|352:328|316:372|256:396|196:372|160:328|144:260,1,336,0|2
48,204,55263,6,0,B|140:104,1,112,4|0
196,36,55863,1,8
316,36,56163,1,0
388,121,56463,2,0,B|464:204,1,112,0|2
256,376,57663,5,4
200,276,57963,1,0
312,240,58263,1,8
256,144,58563,1,0
256,32,58863,1,2
144,36,59163,2,4,B|92:128|140:216,2,168
256,32,60363,5,0
328,116,60663,1,8
412,40,60963,1,0
408,152,61263,2,2,B|356:272|240:244,2,168,2|2|0
488,108,62463,5,6
256,60,63063,1,2
24,108,63663,1,6
136,112,63963,1,0
240,152,64263,1,8
312,236,64563,1,0
248,328,64863,6,0,B|164:352|104:336|52:260|52:248,1,224,4|8
144,204,65763,1,0
264,224,66063,2,0,B|348:248|408:232|460:156|460:144,1,224,4|8
364,100,66963,1,0
254,112,67263,2,0,B|254:340,2,224,4|8|0
174,188,68763,1,0
94,268,69063,1,8
18,352,69363,1,0
6,240,69663,6,0,B|-2:72|110:28|250:32,1,336,4|0
304,32,70863,2,0,B|386:28|526:72|510:240,1,336,4|0
396,212,72063,1,6
116,212,72663,1,8
256,36,73263,1,4
256,148,73563,1,0
256,260,73863,1,8
256,372,74163,1,0
160,316,74463,6,0,B|28:312|8:192|32:136,1,224,4|8
76,72,75363,1,0
188,92,75663,2,0,B|192:152|256:216|320:152|324:92,1,224,4|8
436,100,76563,2,2,B|432:176|388:240|296:276,1,224
256,344,77463,1,0
202,270,77763,2,2,B|124:236|80:176|76:100,2,224
256,192,79263,5,4
472,252,79863,1,8
440,144,80163,1,0
366,46,80463,2,2,B|326:30|256:14|185:30|145:46,1,224
72,144,81363,1,0
40,252,81663,1,4
136,192,94863,6,4,B|152:96|256:64|360:96|376:192,1,336
460,268,96063,6,0,B|336:356,1,112,4|0
256,336,96663,1,8
160,276,96963,1,0
116,172,97263,2,2,B|240:196|280:96,1,168
504,32,98463,5,4
496,144,98763,1,0
384,124,99063,1,8
372,236,99363,1,0
260,236,99663,1,2
172,304,99963,2,4,B|124:332|76:320|44:264|68:208,2,168
140,196,101163,5,0
204,104,101463,1,8
308,60,101763,1,0
428,76,102063,2,2,B|512:132|504:228|456:268,1,224
344,320,102963,1,0
388,204,103263,5,4
124,204,103863,1,6
184,0,104463,1,2
184,124,104763,1,0
328,124,105063,1,8
328,0,105363,1,0
256,80,105663,6,0,B|256:320,1,224,4|8
128,340,106563,1,0
36,240,106863,2,0,B|52:136|120:76|184:52,1,224,4|8
252,36,107763,1,0
352,63,108063,2,0,B|392:76|460:136|476:240,1,224,4|8
412,356,108963,5,0
324,256,109263,1,4
256,372,109563,1,0
188,256,109863,1,8
100,356,110163,1,0
36,236,110463,6,4,B|236:56,1,224,4|8
256,184,111363,1,0
309,86,111663,2,4,B|476:236,1,224,4|8
480,348,112563,1,0
368,340,112863,2,4,B|272:361|193:336|143:306|113:257|88:177|110:82,1,448
196,8,114363,1,0
300,48,114663,1,8
384,120,114963,1,0
440,216,115263,6,0,B|392:308|336:328|240:292,2,224,6|8|0
352,144,116763,1,0
256,204,117063,1,8
160,144,117363,1,6
356,256,117963,1,2
260,316,118263,1,0
164,256,118563,1,6
256,80,119163,1,0
476,120,119763,6,2,B|480:264|380:340|260:328,1,336,6|8
168,304,120963,1,0
256,244,121263,2,2,B|333:251|398:202|396:108,1,224
296,152,122163,1,0
312,60,122463,2,4,B|240:-4|136:0|88:40,2,224
140,156,124263,5,8
36,120,124563,2,2,B|32:264|132:340|252:328,1,336,6|8
344,304,125763,1,0
256,244,126063,2,2,B|178:251|113:202|115:108,1,224
216,152,126963,1,0
200,60,127263,2,4,B|272:-4|376:0|424:40,2,224
372,156,129063,5,8
368,268,129363,2,2,B|144:268,1,224
140,156,130263,5,0
256,176,130563,1,0
256,56,130863,1,2
146,338,131463,2,2,B|186:354|256:370|327:354|367:338,1,224,2|4
256,192,132213,12,0,134463
