osu file format v14

[General]
AudioFilename: Joman - Daymanstep (with Video).mp3
AudioLeadIn: 0
PreviewTime: -1
Countdown: 0
SampleSet: Soft
StackLeniency: 1
Mode: 0
LetterboxInBreaks: 1
WidescreenStoryboard: 0

[Editor]
DistanceSpacing: 1
BeatDivisor: 4
GridSize: 4
TimelineZoom: 1

[Metadata]
Title:Daymanstep
TitleUnicode:Daymanstep
Artist:Joman
ArtistUnicode:Joman
Creator:Froic
Version:Insane
Source:it's always sunny in Philadelphia
Tags:dayman nightman muskyness daymanstep Joman
BeatmapID:1319789
BeatmapSetID:626115

[Difficulty]
HPDrainRate:5
CircleSize:4
OverallDifficulty:7
ApproachRate:9
SliderMultiplier:1.4
SliderTickRate:2

[Events]
//Background and Video events
//Break Periods
2,15190,16640
2,41489,47511
//Storyboard Layer 0 (Background)
//Storyboard Layer 1 (Fail)
//Storyboard Layer 2 (Pass)
//Storyboard Layer 3 (Foreground)
//Storyboard Sound Samples

[TimingPoints]
116,428.571428571429,4,2,0,100,1,0
136,-200,4,2,0,100,0,0
5240,428.571428571429,4,2,0,100,1,0
5240,-200,4,2,0,100,0,0
18540,428.571428571429,4,2,0,100,1,0
20897,-66.6666666666667,4,2,0,100,0,0
38040,-55.5555555555556,4,2,0,100,0,0
41254,428.571428571429,4,2,0,100,1,0
48111,428.571428571429,4,2,0,100,1,0
48111,-66.6666666666667,4,2,0,100,0,0
54861,-50,4,2,0,100,0,0
72115,285.714285714286,4,2,0,100,1,0
75073,428.571428571429,4,2,0,100,1,0
78535,428.571428571429,4,2,0,100,1,0
82396,428.571428571429,4,2,0,100,1,0
178438,428.571428571429,4,2,0,100,1,0

[HitObjects]
56,176,116,5,0,0:0:0:0:
80,236,544,2,0,P|96:276|128:288,1,70
180,296,1401,2,0,P|228:264|240:268,1,70
296,288,2258,2,0,P|328:264|340:232,1,70
436,152,3116,1,0,0:0:0:0:
352,208,3544,1,0,0:0:0:0:
288,140,3973,2,0,L|248:128,1,35
240,184,4616,2,0,L|200:176,1,35
160,208,5240,1,0,0:0:0:0:
224,140,5668,2,0,L|256:116,1,35
272,184,6311,2,0,L|312:160,1,35
302,165,6740,1,0,0:0:0:0:
302,165,6954,1,0,0:0:0:0:
424,88,7382,2,0,P|436:116|436:168,1,70
438,155,8240,2,0,P|434:191|398:195,1,70
376,204,8882,1,0,0:0:0:0:
348,204,9097,2,0,P|320:204|212:156,1,140
218,161,10168,2,0,L|180:96,1,70
144,180,11025,2,0,L|116:180,2,17.5
212,180,11668,1,0,0:0:0:0:
280,180,12097,2,0,L|320:180,2,35
256,192,12632,12,0,14990,0:0:0:0:
256,32,17240,5,0,0:0:0:0:
148,328,18097,1,0,0:0:0:0:
424,148,18540,1,0,0:0:0:0:
80,152,18968,1,0,0:0:0:0:
344,328,19182,1,0,0:0:0:0:
256,32,19397,1,0,0:0:0:0:
256,188,19611,1,0,0:0:0:0:
140,240,19825,1,0,0:0:0:0:
176,240,19932,1,0,0:0:0:0:
216,240,20040,1,0,0:0:0:0:
256,240,20147,1,0,0:0:0:0:
256,312,20254,1,0,0:0:0:0:
220,312,20361,1,0,0:0:0:0:
180,312,20468,1,0,0:0:0:0:
140,312,20575,1,0,0:0:0:0:
108,312,20682,1,0,0:0:0:0:
64,228,21111,2,0,B|132:268|216:244|260:184,1,210.000008010865
256,160,21754,1,0,0:0:0:0:
312,160,21968,2,0,L|392:248,1,105.000004005432
260,196,22397,2,0,L|168:92,1,105.000004005432
208,240,22825,2,0,L|284:324,1,105.000004005432
160,272,23254,2,0,L|88:172,1,105.000004005432
160,272,23682,1,0,0:0:0:0:
160,272,23897,2,0,P|108:252|104:200,1,105.000004005432
156,80,24540,2,0,L|52:140,1,105.000004005432
192,136,24968,2,0,L|296:72,1,105.000004005432
224,192,25397,2,0,L|128:252,1,105.000004005432
256,248,25825,2,0,L|356:188,1,105.000004005432
284,304,26254,2,0,L|164:376,1,105.000004005432
288,312,26682,1,0,0:0:0:0:
288,312,26897,2,0,P|236:352|180:344,1,105.000004005432
199,351,27325,1,0,0:0:0:0:
199,351,27540,1,0,0:0:0:0:
216,164,27968,1,0,0:0:0:0:
284,164,28182,1,0,0:0:0:0:
288,232,28397,1,0,0:0:0:0:
220,232,28611,1,0,0:0:0:0:
252,104,28825,1,0,0:0:0:0:
336,192,29040,1,0,0:0:0:0:
256,288,29254,1,0,0:0:0:0:
168,196,29468,1,0,0:0:0:0:
252,32,29682,1,0,0:0:0:0:
408,192,29897,1,0,0:0:0:0:
256,360,30111,1,0,0:0:0:0:
96,196,30325,1,0,0:0:0:0:
256,108,30540,1,0,0:0:0:0:
336,200,30754,1,0,0:0:0:0:
256,280,30968,1,0,0:0:0:0:
104,336,31397,1,0,0:0:0:0:
336,200,31611,1,0,0:0:0:0:
112,336,32040,1,0,0:0:0:0:
336,208,32255,1,0,0:0:0:0:
384,336,32468,1,0,0:0:0:0:
384,336,32682,1,0,0:0:0:0:
380,344,33111,1,0,0:0:0:0:
172,196,33325,1,0,0:0:0:0:
376,336,33754,1,0,0:0:0:0:
172,196,33968,1,0,0:0:0:0:
356,44,34182,1,0,0:0:0:0:
512,192,34397,1,0,0:0:0:0:
256,36,34825,1,0,0:0:0:0:
76,192,35040,1,0,0:0:0:0:
448,200,35254,1,0,0:0:0:0:
344,288,35468,1,0,0:0:0:0:
324,260,35575,1,0,0:0:0:0:
304,232,35683,1,0,0:0:0:0:
224,232,35897,1,0,0:0:0:0:
200,260,36004,1,0,0:0:0:0:
184,284,36111,1,0,0:0:0:0:
212,112,36325,1,0,0:0:0:0:
192,84,36432,1,0,0:0:0:0:
172,52,36539,1,0,0:0:0:0:
300,112,36754,1,0,0:0:0:0:
316,76,36861,1,0,0:0:0:0:
336,48,36968,1,0,0:0:0:0:
252,136,37182,1,0,0:0:0:0:
252,184,37290,1,0,0:0:0:0:
252,224,37397,1,0,0:0:0:0:
252,224,37611,1,0,0:0:0:0:
252,224,37825,1,0,0:0:0:0:
256,36,38254,2,0,B|144:368|144:368|436:144|436:144|72:140|72:140|360:364|360:364|256:36,1,1785.00006809235
84,120,48111,6,0,L|84:324,1,157.500006008148
392,112,49182,2,0,B|400:228|332:344|216:376|88:312|72:176|160:116,1,525.000020027161
208,136,50682,2,0,L|208:244,2,105.000004005432
328,196,51325,2,0,P|312:256|284:288,1,105.000004005432
216,332,51861,1,0,0:0:0:0:
208,36,52611,2,0,B|320:20|400:36|428:192|456:164|448:256|392:316|256:352,1,525.000020027161
188,340,54111,2,0,L|188:208,3,105.000004005432
148,212,54968,2,0,B|156:160|156:160|176:212|176:212|168:160|168:160|184:208|184:208|176:156|176:156|196:204|196:204|184:152|184:152|204:200|204:200|196:168|196:168|332:112,1,577.500022029878
256,192,56039,12,0,57111,0:0:0:0:
256,192,57325,5,0,0:0:0:0:
256,224,57539,2,0,L|256:292|256:372,1,140
