osu file format v5

[General]
AudioFilename: Jolin Tsai - Sun will Never Set.mp3
AudioLeadIn: 0
PreviewTime: -1
Countdown: 1
SampleSet: Normal
StackLeniency: 0.7
Mode: 0
LetterboxInBreaks: 1

[Metadata]
Title:Sun will Never Set
Artist:Jolin Tsai
Creator:ZeALoT_1110
Version:Easy
Source:
Tags:Jolin

[Difficulty]
HPDrainRate:2
CircleSize:3
OverallDifficulty:1
SliderMultiplier:1.5
SliderTickRate:1

[Events]
//Background and Video events
0,0,"sunset.jpg"
//Break Periods
2,83029,91344
//Storyboard Layer 0 (Background)
//Storyboard Layer 1 (Failing)
//Storyboard Layer 2 (Passing)
//Storyboard Layer 3 (Foreground)
//Storyboard Sound Samples
//Background Colour Transformations
3,100,163,162,255

[TimingPoints]
1740.42718446602,468.72427184466,4,1,0,100,1,0

[HitObjects]
64,64,11466,1,2
416,64,13224,1,2
416,288,15216,1,2
64,288,17091,1,2
256,64,18966,5,0
96,192,20840,1,0
416,192,22715,1,0
256,320,24590,1,0
256,320,26466,5,0
256,192,27403,1,0
256,64,28341,1,0
64,192,30215,5,0
256,192,31152,1,0
448,192,32090,1,0
64,192,34082,6,0,B|352:32,1,300
384,192,35957,1,0
416,64,37715,5,0
256,64,39121,1,0
96,64,40058,1,0
256,192,41464,5,0
416,192,42402,1,0
416,320,43339,1,0
256,192,45214,5,0
96,192,46152,1,0
96,64,47089,1,0
64,192,48964,6,0,B|352:352,1,300
384,192,50839,1,0
416,320,52714,5,0
256,320,54120,1,0
96,320,55057,1,0
256,32,56581,5,0
256,192,57401,1,0
256,352,58338,1,0
416,192,60213,5,0
256,192,61151,1,0
96,192,62088,1,0
96,64,63963,5,0
256,64,64901,1,0
416,64,65838,1,0
416,320,67713,5,0
256,320,68650,1,0
96,320,69588,1,0
96,320,70408,6,0,B|416:96,1,375
415,98,72283,6,0,B|105:314,1,337.5
256,194,75212,5,0
96,64,77790,6,0,B|416:288,1,375
416,288,79783,6,0,B|102:73,1,375
256,192,81189,12,0,82712
64,192,93024,6,0,B|385:193,1,300
448,192,94899,1,0
256,192,96774,5,0
256,192,98180,1,0
256,192,99117,1,0
64,32,101578,5,0
64,192,102398,1,0
256,32,103335,1,0
256,192,105210,5,0
448,32,106148,1,0
448,192,107086,1,0
448,352,108960,5,0
256,192,109898,1,0
256,352,110835,1,0
64,352,112710,5,0
64,192,113648,1,0
64,32,114585,1,0
96,64,115405,6,0,B|416:288,1,375
416,288,117280,6,0,B|105:73,1,337.5
256,194,120209,5,0
105,191,123022,2,0,B|443:191,3,300
256,192,126069,12,0,127709
