osu file format v12

[General]
AudioFilename: -.mp3
AudioLeadIn: 0
PreviewTime: 81369
Countdown: 0
SampleSet: Soft
StackLeniency: 0.7
Mode: 0
LetterboxInBreaks: 1

[Editor]
Bookmarks: 10018,25424,52181,81370,107316,135694,162451,191640,220018,228937,247586
DistanceSpacing: 0.7
BeatDivisor: 4
GridSize: 8

[Metadata]
Title:Heartbeat of Taiwan
TitleUnicode:Heartbeat of Taiwan
Artist:Jolin Tsai
ArtistUnicode:Jolin Tsai
Creator:- Miomio Chii -
Version:Normal
Source:lyric songs
Tags:
BeatmapID:235529
BeatmapSetID:82220

[Difficulty]
HPDrainRate:4
CircleSize:4
OverallDifficulty:4
ApproachRate:4
SliderMultiplier:1.4
SliderTickRate:2

[Events]
//Background and Video events
0,0,"BG.jpg",1,1
//Break Periods
2,107515,131941
//Storyboard Layer 0 (Background)
//Storyboard Layer 1 (Fail)
//Storyboard Layer 2 (Pass)
//Storyboard Layer 3 (Foreground)
//Storyboard Sound Samples
//Background Colour Transformations
3,100,163,162,255

[TimingPoints]
10018,810.810810810811,4,2,0,52,1,0
81370,-100,4,2,0,100,0,1
107316,-100,4,1,0,100,0,0
133261,-100,4,2,0,50,0,0
175423,-100,4,1,0,70,0,0
185153,-100,4,3,0,80,0,0
186774,-100,4,3,0,85,0,0
191640,-100,4,2,0,100,0,1
220018,-100,4,1,0,64,0,0
228936,-100,4,2,0,30,0,0
246369,-133.333333333333,4,1,0,20,0,0
246774,-153.846153846153,4,1,0,15,0,0
247180,-200,4,2,0,5,0,0

[Colours]
Combo1 : 255,0,0
Combo2 : 0,0,255
Combo3 : 255,255,255

[HitObjects]
96,248,10017,1,0,0:0:0:0:
80,200,10423,1,0,0:0:0:0:
88,152,10828,1,0,0:0:0:0:
112,112,11234,2,0,P|136:96|176:112,1,70
184,128,11842,1,0,0:0:0:0:
192,152,12045,1,0,0:0:0:0:
232,192,12450,1,0,0:0:0:0:
288,272,13261,5,0,0:0:0:0:
304,320,13666,2,0,P|272:336|240:320,1,70
200,296,14477,1,0,0:0:0:0:
168,264,14882,2,0,P|144:232|160:208,2,70
192,168,16504,5,0,0:0:0:0:
240,144,16909,2,0,P|272:136|272:104,1,70
280,56,17720,1,0,0:0:0:0:
256,56,17923,1,0,0:0:0:0:
232,56,18126,2,0,P|160:40|128:88,1,140
80,136,19342,2,0,L|112:200,1,70
256,216,20963,5,0,0:0:0:0:
288,184,21369,2,0,L|184:88,1,140
208,184,22990,2,0,P|296:208|208:192,1,280
88,280,25828,5,0,0:0:0:0:
104,232,26234,1,0,0:0:0:0:
136,192,26639,1,0,0:0:0:0:
152,176,26842,1,0,0:0:0:0:
168,160,27045,2,0,L|216:104,2,70
160,248,28666,1,0,0:0:0:0:
272,256,29072,5,0,0:0:0:0:
288,208,29477,1,0,0:0:0:0:
296,160,29882,1,0,0:0:0:0:
288,136,30085,1,0,0:0:0:0:
280,112,30288,2,0,P|256:72|232:72,2,70
216,192,31909,5,0,0:0:0:0:
248,224,32315,1,0,0:0:0:0:
288,256,32720,2,0,P|352:224|344:160,1,140
328,120,33936,1,0,0:0:0:0:
312,104,34139,1,0,0:0:0:0:
296,88,34342,1,0,0:0:0:0:
256,168,35153,1,0,0:0:0:0:
232,208,35558,1,0,0:0:0:0:
128,168,35963,5,0,0:0:0:0:
88,200,36369,1,0,0:0:0:0:
80,224,36572,1,0,0:0:0:0:
80,248,36774,2,0,L|80:320,2,70
176,264,38396,1,0,0:0:0:0:
256,208,39207,5,0,0:0:0:0:
240,160,39612,1,0,0:0:0:0:
224,112,40018,1,0,0:0:0:0:
208,96,40220,1,0,0:0:0:0:
192,80,40423,2,0,P|168:56|136:64,1,70
152,160,41639,1,0,0:0:0:0:
80,192,42045,5,0,0:0:0:0:
80,240,42450,1,0,0:0:0:0:
88,288,42855,1,0,0:0:0:0:
96,312,43058,1,0,0:0:0:0:
120,328,43261,2,0,P|184:360|224:312,1,140
192,224,44882,5,0,0:0:0:0:
232,200,45288,1,0,0:0:0:0:
248,184,45490,1,0,0:0:0:0:
264,168,45693,2,0,P|256:96|200:88,1,140
152,80,46909,1,0,0:0:0:0:
128,80,47112,1,0,0:0:0:0:
104,80,47315,2,0,L|104:224,1,140
104,296,48531,1,0,0:0:0:0:
152,296,48936,5,0,0:0:0:0:
88,224,49747,1,0,0:0:0:0:
88,200,49950,1,0,0:0:0:0:
96,176,50153,2,0,P|144:120|240:184,1,210
264,224,51774,5,0,0:0:0:0:
304,248,52180,5,0,0:0:0:0:
352,232,52585,1,0,0:0:0:0:
384,192,52990,1,0,0:0:0:0:
392,168,53193,1,0,0:0:0:0:
392,144,53396,2,0,P|368:104|344:104,1,70
280,120,54612,1,0,0:0:0:0:
264,96,54815,1,0,0:0:0:0:
248,72,55018,2,0,P|208:56|168:128,1,140
160,176,56234,5,0,0:0:0:0:
168,224,56639,1,0,0:0:0:0:
176,248,56842,1,0,0:0:0:0:
192,264,57045,1,0,0:0:0:0:
240,264,57450,1,0,0:0:0:0:
256,312,57855,1,0,0:0:0:0:
320,312,58261,5,0,0:0:0:0:
344,272,58666,1,0,0:0:0:0:
368,232,59072,1,0,0:0:0:0:
384,216,59274,1,0,0:0:0:0:
400,200,59477,2,0,P|424:168|360:120,1,140
296,48,61099,1,0,0:0:0:0:
208,120,61504,1,0,0:0:0:0:
192,136,61707,1,0,0:0:0:0:
176,152,61909,6,0,P|120:160|128:232,1,140
160,296,63328,1,0,0:0:0:0:
184,304,63531,1,0,0:0:0:0:
144,216,64342,2,0,P|120:184|120:152,1,70
352,176,65153,5,0,0:0:0:0:
320,136,65558,1,0,0:0:0:0:
288,96,65963,1,0,0:0:0:0:
272,80,66166,1,0,0:0:0:0:
256,64,66369,2,0,P|216:40|200:48,1,70
160,72,67180,1,0,0:0:0:0:
160,120,67585,1,0,0:0:0:0:
200,184,67990,1,0,0:0:0:0:
192,232,68396,5,0,0:0:0:0:
176,280,68801,1,0,0:0:0:0:
160,304,69004,1,0,0:0:0:0:
136,304,69207,2,0,P|80:296|64:224,1,140
80,176,70423,1,0,0:0:0:0:
112,136,70828,1,0,0:0:0:0:
192,184,71234,5,0,0:0:0:0:
208,168,71436,1,0,0:0:0:0:
224,152,71639,2,0,P|256:112|336:128,1,140
368,160,72855,1,0,0:0:0:0:
376,184,73058,1,0,0:0:0:0:
376,208,73261,1,0,0:0:0:0:
360,256,73666,1,0,0:0:0:0:
328,296,74072,1,0,0:0:0:0:
296,328,74477,1,0,0:0:0:0:
256,304,74882,5,0,0:0:0:0:
232,288,75085,1,0,0:0:0:0:
216,272,75288,2,0,L|160:224,1,70
144,184,76099,2,0,P|120:136|128:128,1,70
136,112,76707,1,0,0:0:0:0:
160,96,76909,1,0,0:0:0:0:
256,192,77315,12,0,79747,0:0:0:0:
136,128,80558,5,0,0:0:0:0:
152,112,80761,1,0,0:0:0:0:
168,96,80963,1,0,0:0:0:0:
256,192,81369,5,0,0:0:0:0:
320,120,82180,1,0,0:0:0:0:
288,80,82585,1,0,0:0:0:0:
272,64,82788,1,0,0:0:0:0:
256,48,82990,2,0,P|192:32|160:88,1,140
120,120,84207,1,0,0:0:0:0:
128,184,84612,5,0,0:0:0:0:
128,232,85018,1,0,0:0:0:0:
144,280,85423,1,0,0:0:0:0:
176,312,85828,1,0,0:0:0:0:
192,328,86031,1,0,0:0:0:0:
216,336,86234,2,0,P|280:352|320:296,1,140
296,256,87450,1,0,0:0:0:0:
280,232,87653,1,0,0:0:0:0:
264,216,87855,1,0,0:0:0:0:
392,176,88261,5,0,0:0:0:0:
392,128,88666,1,0,0:0:0:0:
376,80,89072,1,0,0:0:0:0:
360,56,89274,1,0,0:0:0:0:
344,40,89477,2,0,P|296:24|232:80,1,140
160,144,91099,5,0,0:0:0:0:
120,176,91504,1,0,0:0:0:0:
88,216,91909,1,0,0:0:0:0:
80,264,92315,1,0,0:0:0:0:
80,288,92518,1,0,0:0:0:0:
96,312,92720,2,0,P|160:352|208:320,1,140
200,272,93936,6,0,L|200:200,2,70
224,272,94950,1,0,0:0:0:0:
248,272,95153,1,0,0:0:0:0:
296,272,95558,1,0,0:0:0:0:
320,272,95761,1,0,0:0:0:0:
344,272,95963,2,0,P|408:240|400:176,1,140
392,128,97180,5,0,0:0:0:0:
368,80,97585,1,0,0:0:0:0:
328,56,97990,1,0,0:0:0:0:
280,40,98396,1,0,0:0:0:0:
232,48,98801,1,0,0:0:0:0:
208,48,99004,1,0,0:0:0:0:
184,48,99207,2,0,P|128:96|104:160,1,140
104,224,100423,6,0,L|144:288,1,70
160,304,101031,1,0,0:0:0:0:
184,312,101234,1,0,0:0:0:0:
232,312,101639,2,0,P|296:280|320:216,1,140
320,192,102653,1,0,0:0:0:0:
320,168,102855,1,0,0:0:0:0:
288,128,103261,1,0,0:0:0:0:
248,96,103666,1,0,0:0:0:0:
144,160,104072,5,0,0:0:0:0:
184,184,104477,1,0,0:0:0:0:
232,176,104882,1,0,0:0:0:0:
256,168,105085,1,0,0:0:0:0:
280,160,105288,2,0,P|280:136|320:120,1,70
400,176,106504,1,0,0:0:0:0:
400,224,106909,1,0,0:0:0:0:
384,272,107315,1,0,0:0:0:0:
208,264,133261,5,0,0:0:0:0:
112,208,134072,1,0,0:0:0:0:
144,104,134882,1,0,0:0:0:0:
184,136,135288,1,0,0:0:0:0:
224,160,135693,1,0,0:0:0:0:
320,176,136504,5,0,0:0:0:0:
304,224,136909,1,0,0:0:0:0:
280,264,137315,1,0,0:0:0:0:
248,304,137720,1,0,0:0:0:0:
224,320,137923,1,0,0:0:0:0:
208,328,138126,2,0,P|176:336|128:256,1,140
136,208,139342,5,0,0:0:0:0:
160,168,139747,1,0,0:0:0:0:
200,136,140153,1,0,0:0:0:0:
216,120,140355,1,0,0:0:0:0:
240,104,140558,2,0,P|304:72|344:120,1,140
376,152,141774,1,0,0:0:0:0:
384,208,142180,5,0,0:0:0:0:
368,256,142585,1,0,0:0:0:0:
360,280,142788,1,0,0:0:0:0:
336,288,142990,2,0,L|272:320,1,70
224,320,143801,1,0,0:0:0:0:
184,288,144207,1,0,0:0:0:0:
160,272,144409,1,0,0:0:0:0:
144,256,144612,2,0,P|112:192|144:136,1,140
184,104,145828,1,0,0:0:0:0:
200,120,146031,1,0,0:0:0:0:
216,136,146234,5,0,0:0:0:0:
248,176,146639,1,0,0:0:0:0:
288,208,147045,2,0,P|360:240|384:200,1,140
416,240,148261,1,0,0:0:0:0:
416,264,148463,1,0,0:0:0:0:
416,288,148666,1,0,0:0:0:0:
368,312,149072,1,0,0:0:0:0:
304,312,149477,5,0,0:0:0:0:
240,312,149882,1,0,0:0:0:0:
200,304,150288,1,0,0:0:0:0:
184,296,150490,1,0,0:0:0:0:
168,280,150693,2,0,L|112:232,1,70
72,216,151504,2,0,P|56:176|72:160,1,70
168,104,152315,5,0,0:0:0:0:
216,104,152720,1,0,0:0:0:0:
264,96,153126,1,0,0:0:0:0:
288,96,153328,1,0,0:0:0:0:
312,96,153531,2,0,P|384:88|416:144,1,140
432,184,154747,1,0,0:0:0:0:
376,232,155153,5,0,0:0:0:0:
352,280,155558,1,0,0:0:0:0:
336,296,155761,1,0,0:0:0:0:
320,312,155963,2,0,P|264:336|144:264,1,210
112,224,157585,1,0,0:0:0:0:
112,176,157990,1,0,0:0:0:0:
112,152,158193,1,0,0:0:0:0:
112,128,158396,2,0,P|144:64|192:88,1,140
240,120,159612,2,0,P|280:128|272:152,1,70
112,200,160423,5,0,0:0:0:0:
120,264,160828,1,0,0:0:0:0:
136,280,161031,1,0,0:0:0:0:
160,288,161234,2,0,L|232:288,1,70
272,288,162045,1,0,0:0:0:0:
296,216,162450,5,0,0:0:0:0:
344,192,162855,1,0,0:0:0:0:
384,160,163261,1,0,0:0:0:0:
384,136,163463,1,0,0:0:0:0:
376,112,163666,2,0,P|368:56|352:48,1,70
312,48,164477,2,0,P|280:16|256:24,1,70
232,112,165288,5,0,0:0:0:0:
192,136,165693,1,0,0:0:0:0:
168,144,165896,1,0,0:0:0:0:
144,152,166099,2,0,P|96:208|168:304,1,210
208,328,167720,1,0,0:0:0:0:
232,328,167923,1,0,0:0:0:0:
256,328,168126,1,0,0:0:0:0:
304,248,168531,1,0,0:0:0:0:
344,216,168936,5,0,0:0:0:0:
376,184,169342,1,0,0:0:0:0:
384,160,169545,1,0,0:0:0:0:
384,136,169747,2,0,P|352:72|288:80,1,140
248,64,170963,2,0,P|216:40|192:56,1,70
192,184,171774,5,0,0:0:0:0:
152,208,172180,1,0,0:0:0:0:
128,216,172382,1,0,0:0:0:0:
104,208,172585,2,0,P|80:200|56:160,1,70
72,120,173396,1,0,0:0:0:0:
80,96,173599,1,0,0:0:0:0:
88,72,173801,1,0,0:0:0:0:
152,96,174207,2,0,P|176:64|200:72,1,70
288,144,175423,5,0,0:0:0:0:
320,184,175828,1,0,0:0:0:0:
320,232,176234,1,0,0:0:0:0:
312,256,176436,1,0,0:0:0:0:
304,280,176639,2,0,P|272:312|248:304,1,70
208,328,177450,2,0,P|168:344|152:320,1,70
120,232,178261,5,0,0:0:0:0:
96,184,178666,1,0,0:0:0:0:
112,136,179072,1,0,0:0:0:0:
160,112,179477,1,0,0:0:0:0:
184,104,179680,1,0,0:0:0:0:
208,96,179882,2,0,P|240:72|264:88,1,70
304,104,180693,1,0,0:0:0:0:
312,128,180896,1,0,0:0:0:0:
320,152,181099,1,0,0:0:0:0:
368,160,181504,1,0,0:0:0:0:
440,168,181909,5,0,0:0:0:0:
432,192,182112,1,0,0:0:0:0:
424,216,182315,2,0,P|392:280|328:288,1,140
288,264,183531,1,0,0:0:0:0:
240,256,183936,2,0,P|200:248|184:224,1,70
232,128,184747,1,0,0:0:0:0:
200,88,185153,5,0,0:0:0:0:
176,72,185355,1,0,0:0:0:0:
160,56,185558,2,0,P|112:40|96:48,1,70
88,96,186369,1,0,0:0:0:0:
88,144,186774,1,0,0:0:0:0:
96,192,187180,1,0,0:0:0:0:
96,216,187382,1,0,0:0:0:0:
96,240,187585,1,0,0:0:0:0:
256,192,187990,12,0,190018,0:0:0:0:
360,240,190828,5,0,0:0:0:0:
336,232,191031,1,0,0:0:0:0:
312,224,191234,1,8,0:0:0:0:
224,120,191639,5,0,0:0:0:0:
320,120,192450,1,0,0:0:0:0:
296,80,192855,1,0,0:0:0:0:
280,64,193058,1,0,0:0:0:0:
256,48,193260,2,0,P|192:32|160:88,1,140
120,112,194477,1,0,0:0:0:0:
128,184,194882,5,0,0:0:0:0:
128,232,195288,1,0,0:0:0:0:
136,256,195490,1,0,0:0:0:0:
144,280,195693,1,0,0:0:0:0:
176,312,196098,1,0,0:0:0:0:
200,320,196301,1,0,0:0:0:0:
216,336,196504,2,0,P|280:352|320:296,1,140
312,248,197720,1,0,0:0:0:0:
304,224,197923,1,0,0:0:0:0:
296,200,198126,1,0,0:0:0:0:
392,176,198531,5,0,0:0:0:0:
392,128,198936,1,0,0:0:0:0:
376,80,199342,1,0,0:0:0:0:
360,64,199545,1,0,0:0:0:0:
336,48,199747,2,0,P|288:32|224:88,1,140
296,112,200963,1,0,0:0:0:0:
160,144,201369,5,0,0:0:0:0:
120,176,201774,1,0,0:0:0:0:
104,192,201977,1,0,0:0:0:0:
88,208,202179,1,0,0:0:0:0:
80,264,202585,1,0,0:0:0:0:
88,288,202788,1,0,0:0:0:0:
96,312,202990,2,0,P|160:352|208:320,1,140
200,272,204206,6,0,L|200:200,2,70
224,272,205220,1,0,0:0:0:0:
248,272,205423,1,0,0:0:0:0:
296,272,205828,1,0,0:0:0:0:
320,272,206031,1,0,0:0:0:0:
344,272,206233,2,0,P|408:240|400:176,1,140
392,128,207450,5,0,0:0:0:0:
368,80,207855,1,0,0:0:0:0:
352,64,208058,1,0,0:0:0:0:
328,56,208260,1,0,0:0:0:0:
280,40,208666,1,0,0:0:0:0:
232,48,209071,1,0,0:0:0:0:
208,56,209274,1,0,0:0:0:0:
184,64,209477,2,0,P|128:112|104:176,1,140
104,224,210693,6,0,L|144:288,1,70
152,304,211301,1,0,0:0:0:0:
184,312,211504,1,0,0:0:0:0:
232,312,211909,2,0,P|296:280|320:216,1,140
336,176,213126,1,0,0:0:0:0:
344,152,213328,1,0,0:0:0:0:
344,128,213531,1,0,0:0:0:0:
240,72,213936,1,0,0:0:0:0:
144,160,214342,5,0,0:0:0:0:
184,184,214747,1,0,0:0:0:0:
232,176,215152,1,0,0:0:0:0:
256,168,215355,1,0,0:0:0:0:
280,160,215558,2,0,P|280:136|320:120,1,70
368,104,216369,1,0,0:0:0:0:
400,176,216774,5,0,0:0:0:0:
400,200,216977,1,0,0:0:0:0:
400,224,217179,1,0,0:0:0:0:
400,272,217585,1,0,0:0:0:0:
360,296,217990,2,0,P|328:320|304:304,3,70
104,280,220018,5,0,0:0:0:0:
64,248,220423,1,0,0:0:0:0:
32,208,220828,1,0,0:0:0:0:
56,168,221234,1,0,0:0:0:0:
72,152,221436,1,0,0:0:0:0:
88,136,221639,2,0,P|152:104|200:144,1,140
248,144,222855,2,0,P|272:120|304:136,1,70
320,176,223666,1,0,0:0:0:0:
328,200,223869,1,0,0:0:0:0:
328,224,224072,6,0,P|320:264|232:280,1,140
136,264,225288,1,0,0:0:0:0:
96,176,225693,1,0,0:0:0:0:
184,128,226504,2,0,P|208:80|272:112,1,140
256,280,228126,5,0,0:0:0:0:
240,296,228328,1,0,0:0:0:0:
224,312,228531,1,0,0:0:0:0:
96,248,228936,1,0,0:0:0:0:
80,200,229342,1,0,0:0:0:0:
88,152,229747,1,0,0:0:0:0:
96,128,229950,1,0,0:0:0:0:
112,112,230153,2,0,P|136:96|176:112,1,70
200,152,230964,1,0,0:0:0:0:
232,192,231369,5,0,0:0:0:0:
248,208,231572,1,0,0:0:0:0:
264,224,231774,1,0,0:0:0:0:
296,256,232180,5,0,0:0:0:0:
312,272,232382,1,0,0:0:0:0:
320,296,232585,2,0,P|288:312|256:296,1,70
200,296,233396,1,0,0:0:0:0:
168,264,233801,2,0,P|144:232|160:208,2,70
200,232,235018,1,0,0:0:0:0:
192,168,235423,5,0,0:0:0:0:
208,152,235626,1,0,0:0:0:0:
240,144,235828,2,0,P|272:144|288:112,1,70
248,88,236639,1,0,0:0:0:0:
200,56,237045,2,0,P|128:40|96:88,1,140
80,112,238058,1,0,0:0:0:0:
80,136,238261,2,0,L|112:200,1,70
136,240,239072,2,0,P|160:272|176:256,1,70
256,216,239882,5,0,0:0:0:0:
288,184,240288,2,0,L|184:88,1,140
208,184,241909,2,0,P|296:208|208:192,1,280
256,192,244342,1,0,0:0:0:0:
256,192,245153,12,0,247585,0:0:0:0:
