osu file format v12

[General]
AudioFilename: -.mp3
AudioLeadIn: 0
PreviewTime: 81369
Countdown: 0
SampleSet: Soft
StackLeniency: 0.7
Mode: 0
LetterboxInBreaks: 1

[Editor]
Bookmarks: 10018,25424,52181,81370,107316,135694,162451,191640,220018,228937,247586
DistanceSpacing: 1
BeatDivisor: 2
GridSize: 8

[Metadata]
Title:Heartbeat of Taiwan
TitleUnicode:Heartbeat of Taiwan
Artist:Jolin Tsai
ArtistUnicode:Jolin Tsai
Creator:- Miomio Chii -
Version:Easy
Source:lyric songs
Tags:
BeatmapID:227676
BeatmapSetID:82220

[Difficulty]
HPDrainRate:2
CircleSize:3
OverallDifficulty:2
ApproachRate:2
SliderMultiplier:0.8
SliderTickRate:2

[Events]
//Background and Video events
0,0,"BG.jpg",1,1
//Break Periods
2,107515,131701
2,229136,243593
//Storyboard Layer 0 (Background)
//Storyboard Layer 1 (Fail)
//Storyboard Layer 2 (Pass)
//Storyboard Layer 3 (Foreground)
//Storyboard Sound Samples
//Background Colour Transformations
3,100,163,162,255

[TimingPoints]
10018,810.810810810811,4,2,0,30,1,0
25423,-100,4,2,0,50,0,0
74477,-100,4,3,0,60,0,0
76099,-100,4,3,0,85,0,0
81370,-100,4,2,0,81,0,1
107316,-100,4,2,0,72,0,0
191640,-100,4,2,0,81,0,1
220018,-100,4,2,0,50,0,0
246369,-133.333333333333,4,1,0,30,0,0
246774,-153.846153846153,4,1,0,20,0,0
247180,-200,4,2,0,5,0,0

[Colours]
Combo1 : 255,0,0
Combo2 : 0,0,255
Combo3 : 255,255,255

[HitObjects]
96,136,10017,1,0,0:0:0:0:
152,192,10828,1,0,0:0:0:0:
208,136,11639,1,0,0:0:0:0:
264,192,12450,1,0,0:0:0:0:
344,192,13261,6,0,B|344:272|344:272|304:272|312:288|296:304|288:304|288:304|280:304|264:288|272:272|240:272|240:272|208:272,1,240
136,240,16504,1,0,0:0:0:0:
136,160,17315,1,0,0:0:0:0:
216,136,18126,2,0,B|235:119|256:119|256:119|276:109|271:103|276:98|287:98|287:98|297:98|302:103|297:109|318:119|318:119|338:119|354:134,1,160
288,280,21369,2,0,B|328:312|400:312|448:280,1,160
176,192,25828,5,0,0:0:0:0:
176,152,26234,2,0,P|192:112|224:88,1,80
264,88,27450,1,0,0:0:0:0:
304,88,27855,1,0,0:0:0:0:
376,184,29072,5,0,0:0:0:0:
376,224,29477,2,0,B|376:264|376:264|336:280,1,80
296,280,30693,1,0,0:0:0:0:
256,280,31099,1,0,0:0:0:0:
176,272,31909,5,0,0:0:0:0:
136,272,32315,1,0,0:0:0:0:
96,272,32720,1,0,0:0:0:0:
96,192,33531,2,0,L|96:152,2,40
240,136,35963,6,0,P|256:120|272:112,1,40
312,96,36774,2,0,P|336:88|352:88,1,40
392,96,37585,1,0,0:0:0:0:
328,240,39207,6,0,B|288:272|248:280|208:288|160:280,1,160
80,208,42045,1,0,0:0:0:0:
80,168,42450,2,0,B|80:120|112:96|160:88|200:112,1,160
264,160,44882,5,0,0:0:0:0:
264,200,45288,1,0,0:0:0:0:
264,240,45693,2,0,B|264:288|240:312|184:320,1,120
152,320,47315,2,0,B|104:320|72:304|56:264|56:216,1,160
360,120,52180,6,0,B|320:96|288:80|248:80,1,120
208,80,53801,1,0,0:0:0:0:
320,128,55018,6,0,P|352:152|376:184,1,80
384,224,56234,1,0,0:0:0:0:
384,264,56639,1,0,0:0:0:0:
384,304,57045,2,0,P|360:336|320:352,1,80
304,272,58666,5,0,0:0:0:0:
282,238,59072,1,0,0:0:0:0:
260,204,59477,2,0,L|230:161,2,40
144,240,61504,5,0,0:0:0:0:
104,232,61909,2,0,P|64:208|48:176,1,80
48,136,63126,2,0,L|48:96,1,40
200,144,65153,6,0,B|200:104|328:176|352:128,1,160
288,240,67990,1,0,0:0:0:0:
256,264,68396,2,0,B|240:312|112:232|96:288,1,160
208,152,71639,6,0,B|232:120|256:120|280:136|280:136|296:120|320:120|344:152,1,160
232,200,74477,1,8,0:0:0:0:
192,192,74882,2,0,P|144:192|104:184,1,80
112,144,76099,2,0,L|112:104,1,40,8|2,0:0|0:0,0:0:0:0:
256,192,77315,12,8,80558,0:0:0:0:
256,192,81369,5,0,0:0:0:0:
200,136,82180,1,0,0:0:0:0:
160,120,82585,1,0,0:0:0:0:
120,120,82990,2,0,P|72:128|56:152,1,80
64,232,84612,5,0,0:0:0:0:
88,264,85018,2,0,P|96:280|112:296,1,40
152,312,85828,1,0,0:0:0:0:
192,312,86234,2,0,P|232:312|272:296,1,80
224,232,87855,5,0,0:0:0:0:
208,192,88261,2,0,P|192:152|160:136,1,80
120,128,89477,2,0,P|72:128|48:152,1,80
104,208,91099,5,0,0:0:0:0:
144,208,91504,2,0,L|184:208,1,40
224,208,92315,1,0,0:0:0:0:
264,208,92720,2,0,P|304:208|336:232,1,80
280,288,94342,6,0,B|240:304|200:312|160:312|112:288,1,160
64,192,97180,1,0,0:0:0:0:
72,152,97585,2,0,B|88:112|120:88|168:80,1,120
200,80,99207,2,0,P|240:88|272:112,1,80
256,192,100828,5,0,0:0:0:0:
336,200,101639,2,0,B|328:240|304:272|256:280|256:280|208:272|184:240|176:200,1,240
256,192,104882,12,0,107315,0:0:0:0:
256,192,133261,12,0,135693,0:0:0:0:
400,192,136504,6,0,B|376:232|352:256|304:264|264:264,1,160
104,280,139747,5,0,0:0:0:0:
80,248,140153,2,0,B|62:224|56:194|62:159|80:135,1,120
160,128,142180,1,0,0:0:0:0:
200,128,142585,1,0,0:0:0:0:
240,128,142990,6,0,B|280:128|328:136|328:136|352:160|352:160|368:200|352:240|328:272,1,240
256,296,146234,6,0,P|216:304|176:304,2,80
128,200,149477,2,0,B|128:160|136:128|176:88|208:64,1,160
264,216,152720,2,0,B|256:256|248:296|248:296|208:304|168:296,1,160
80,160,155963,6,0,B|104:120|128:96|168:80,1,120
200,96,157585,2,0,B|248:96|280:80|312:56|328:16,1,160
256,192,160018,12,0,161639,0:0:0:0:
256,192,162450,5,0,0:0:0:0:
296,192,162855,2,0,B|304:144|256:104|256:104|208:144|216:192,1,200
136,216,165693,6,0,B|152:256|176:288|216:304|256:304,1,160
400,232,168936,2,0,P|416:192|416:152,2,80
240,248,172180,6,0,P|200:248|160:232,1,80
208,168,173801,1,0,0:0:0:0:
48,192,175423,6,0,B|64:232|96:256|144:232|176:200,1,160
280,80,178666,2,0,P|352:128|360:160,2,120
256,152,181909,2,0,B|256:240|256:240|224:264|224:264|256:264,1,160
256,192,185153,12,0,187585,0:0:0:0:
256,192,188396,12,0,190828,0:0:0:0:
256,192,191639,5,0,0:0:0:0:
320,144,192450,2,0,B|288:112|256:96|208:96|168:96,1,160
112,144,194882,6,0,P|72:168|72:208,1,80
144,224,196504,2,0,P|184:240|192:272,1,80
120,296,198126,5,0,0:0:0:0:
192,320,198936,2,0,B|272:336|320:328|360:312,1,160
376,240,201369,6,0,P|424:216|432:192,1,80
360,168,202990,2,0,P|320:152|280:128,1,80
208,120,204612,6,0,B|168:128|136:152|112:192|104:232,1,160
264,256,207855,2,0,B|304:248|336:224|368:200|384:160,1,160
320,112,210288,2,0,P|288:80|256:80,1,80
200,136,211909,6,0,P|160:208|168:288,1,160
256,192,214342,12,0,219207,0:0:0:0:
256,192,220828,6,0,B|296:192|336:176|336:176|336:96,1,160
184,144,224072,6,0,B|144:144|120:176|120:176|120:264,1,160
360,216,228126,2,0,L|280:216,1,80
256,192,245153,12,0,247585,0:0:0:0:
