osu file format v11

[General]
AudioFilename: Jolin Tsai - Dacing Diva.mp3
AudioLeadIn: 2000
PreviewTime: 38958
Countdown: 0
SampleSet: Soft
StackLeniency: 0.7
Mode: 0
LetterboxInBreaks: 1

[Editor]
DistanceSpacing: 1
BeatDivisor: 2
GridSize: 8

[Metadata]
Title:Dancing Diva
TitleUnicode:舞娘
Artist:Jolin Tsai
ArtistUnicode:蔡依林
Creator:Breeze
Version:Hard
Source:
Tags:Cai Yilin Wu Niang C-Pop Pink Agate
BeatmapID:137845
BeatmapSetID:43962

[Difficulty]
HPDrainRate:6
CircleSize:4
OverallDifficulty:6
ApproachRate:8
SliderMultiplier:1.8
SliderTickRate:2

[Events]
//Background and Video events
0,0,"BG.jpg"
//Break Periods
2,55047,61555
2,108957,113571
2,116699,121313
//Storyboard Layer 0 (Background)
//Storyboard Layer 1 (Fail)
//Storyboard Layer 2 (Pass)
//Storyboard Layer 3 (Foreground)
//Storyboard Sound Samples
//Background Colour Transformations
3,100,0,0,0

[TimingPoints]
370,483.870967741935,4,2,1,40,1,0
2305,-100,4,2,1,30,0,0
3515,-100,4,2,1,40,0,0
6418,-100,4,2,2,30,0,0
7628,-100,4,2,1,40,0,0
8111,-100,4,1,1,50,0,0
10773,-100,4,1,2,40,0,0
11015,-100,4,1,2,50,0,0
11257,-100,4,1,2,40,0,0
11499,-100,4,1,1,50,0,0
14160,-100,4,2,2,30,0,0
15369,-100,4,1,1,50,0,0
18515,-100,4,1,2,40,0,0
18757,-100,4,1,2,50,0,0
18999,-100,4,1,2,40,0,0
19240,-100,4,1,1,50,0,0
23595,-100,4,1,1,60,0,0
26257,-100,4,1,1,50,0,0
26982,-100,4,1,1,60,0,0
30128,-100,4,1,1,50,0,0
30853,-100,4,1,1,60,0,0
34966,-133.333333333333,4,2,2,30,0,0
37628,-100,4,2,1,60,0,0
39079,-83.3333333333333,4,1,1,80,0,1
39200,-83.3333333333333,4,1,1,80,0,0
54200,-83.3333333333333,4,1,1,60,0,0
54321,-83.3333333333333,4,1,1,50,0,0
54442,-83.3333333333333,4,1,1,40,0,0
54563,-83.3333333333333,4,1,1,30,0,0
62305,-100,4,1,1,60,0,0
64966,-100,4,1,2,50,0,0
65208,-100,4,1,1,60,0,0
65450,-100,4,1,2,50,0,0
65692,-100,4,1,1,60,0,0
68353,-100,4,2,2,30,0,0
69563,-100,4,1,1,60,0,0
69805,-100,4,1,1,50,0,0
70047,-100,4,1,1,60,0,0
77547,-100,4,1,1,50,0,0
77789,-100,4,1,1,60,0,0
89160,-133.333333333333,4,2,2,30,0,0
91337,-100,4,2,1,60,0,0
92789,-100,4,1,1,60,0,0
93031,-100,4,1,1,70,0,0
93273,-83.3333333333333,4,1,1,80,0,1
93394,-83.3333333333333,4,1,1,80,0,0
108757,-100,4,1,1,80,0,1
108878,-100,4,1,1,80,0,0
114079,-100,4,2,1,80,0,0
114442,-100,4,1,1,100,0,0
114684,-100,4,2,1,80,0,0
115168,-100,4,1,1,100,0,0
115652,-100,4,2,1,80,0,0
115894,-100,4,1,1,100,0,0
116136,-100,4,2,1,80,0,0
116499,-100,4,1,1,80,0,0
121821,-100,4,2,1,80,0,0
122184,-100,4,1,1,100,0,0
122426,-100,4,2,1,80,0,0
122910,-100,4,1,1,100,0,0
123394,-100,4,2,1,80,0,0
123636,-100,4,1,1,80,0,0
124482,-100,4,2,1,60,0,0
131861,-100,4,1,1,80,0,0
132103,-100,4,1,1,60,0,0
139724,-133.333333333333,4,1,1,60,0,0
139845,-133.333333333333,4,2,2,40,0,0
141902,-200,4,2,2,20,0,0
143353,-133.333333333333,4,2,2,20,0,0
148192,-200,4,2,2,20,0,0
149402,-83.3333333333333,4,1,1,80,0,1
149523,-83.3333333333333,4,1,1,80,0,0
177587,-83.3333333333333,4,1,1,40,0,0
177829,-83.3333333333333,4,1,1,80,0,0
180369,-83.3333333333333,4,2,2,20,0,0
181095,-83.3333333333333,4,2,2,10,0,0
181821,-83.3333333333333,4,2,2,5,0,0

[Colours]
Combo1 : 255,128,64
Combo2 : 255,74,165

[HitObjects]
256,64,370,1,0,0:0:0
336,112,611,1,0,0:0:0
376,192,853,1,0,0:0:0
336,272,1095,1,4,0:0:0
256,320,1337,1,0,0:0:0
176,272,1579,1,0,0:0:0
136,192,1821,1,0,0:0:0
176,112,2063,1,0,0:0:0
256,64,2305,6,0,B|256:208,2,135,2|4|4,0:0|0:0|0:0,0:0:0
256,64,3273,1,4,0:0:0
256,64,3515,2,0,B|256:16,2,45
256,152,3999,1,0,0:0:0
256,240,4240,6,0,B|160:240,1,90,2|0,0:0|0:0,0:0:0
256,240,4724,2,0,B|360:240,1,90,0|4,0:0|0:0,0:0:0
392,320,5208,2,0,B|288:320,1,90
208,320,5692,2,0,B|104:320,1,90
80,240,6176,5,0,0:0:0
88,152,6418,2,0,B|157:112|157:176|125:185|93:130|176:128,1,135
256,112,7023,1,0,0:0:0
342,129,7265,2,0,B|418:130|386:185|354:176|354:112|424:152,1,135
432,240,7869,1,0,0:0:0
344,240,8111,5,6,0:0:0
208,240,8474,2,0,B|152:240,1,45,0|8,0:0|0:0,0:0:0
72,240,8837,1,2,0:0:0
72,152,9079,1,2,0:0:0
32,72,9321,1,0,0:0:0
120,72,9563,1,8,0:0:0
304,72,10047,6,0,B|440:72,1,135,2|0,0:0|0:0,0:0:0
472,72,10531,1,10,0:0:0
440,152,10773,1,2,0:0:0
440,240,11015,1,0,0:0:0
440,152,11257,1,2,0:0:0
440,240,11499,1,8,0:0:0
256,240,11982,5,2,0:0:0
256,104,12345,1,0,0:0:0
256,104,12466,1,8,0:0:0
256,104,12708,1,2,0:0:0
176,56,12950,2,0,B|224:8|288:8|336:56,1,180,2|8,0:0|0:0,0:0:0
256,216,13918,1,2,0:0:0
168,216,14160,6,0,B|160:336|316:229|128:246|211:335,1,180,0|0,0:0|0:0,0:0:0
304,336,14886,2,0,B|387:247|198:229|354:337|347:216,1,180,0|8,0:0|0:0,0:0:0
256,216,15611,1,0,0:0:0
256,128,15853,1,2,0:0:0
256,128,16216,1,0,0:0:0
256,128,16337,1,8,0:0:0
256,40,16579,6,0,B|208:40|176:96,1,90,2|2,0:0|0:0,0:0:0
256,40,17063,2,0,B|304:40|336:96,1,90,0|8,0:0|0:0,0:0:0
328,176,17547,1,0,0:0:0
256,224,17789,1,2,0:0:0
184,176,18031,1,0,0:0:0
184,264,18273,6,0,B|208:360,1,90,8|2,0:0|0:0,0:0:0
205,351,18757,1,0,0:0:0
306,351,18999,2,0,B|328:264,1,90,2|8,0:0|0:0,0:0:0
328,264,19482,1,0,0:0:0
400,216,19724,6,0,B|416:160|384:112,1,90,2|0,0:0|0:0,0:0:0
300,104,20208,2,0,B|180:104,1,90,8|2,0:0|0:0,0:0:0
118,128,20692,2,0,B|96:160|112:216,2,90,2|0|8,0:0|0:0|0:0,0:0:0
120,312,21660,5,2,0:0:0
120,312,21902,2,0,B|184:192|336:328|192:440|40:320|224:176|288:176|472:320|320:440|176:328|328:192|392:312,1,450,0|10,0:0|0:0,0:0:0
391,311,23353,1,2,0:0:0
480,312,23595,6,0,B|480:256|416:224,1,90,6|0,0:0|0:0,0:0:0
352,200,24079,1,8,0:0:0
352,200,24321,1,2,0:0:0
320,112,24563,2,0,B|312:44|200:44|192:112,1,180,2|8,0:0|0:0,0:0:0
160,200,25289,1,0,0:0:0
160,200,25531,1,2,0:0:0
79,236,25773,2,0,B|32:256|32:312,1,90,0|8,0:0|0:0,0:0:0
120,336,26257,6,0,B|192:336,1,45
208,336,26499,1,0,0:0:0
304,336,26740,1,0,0:0:0
347,336,26862,2,0,B|392:336,1,45,0|8,0:0|0:0,0:0:0
400,248,27224,6,0,B|400:192|344:192,1,90,0|2,0:0|0:0,0:0:0
256,192,27708,1,0,0:0:0
167,192,27950,2,0,B|112:192|112:248,1,90,8|2,0:0|0:0,0:0:0
200,272,28434,1,2,0:0:0
256,344,28676,1,0,0:0:0
312,272,28918,1,8,0:0:0
256,192,29160,5,0,0:0:0
256,192,29402,2,0,B|312:112|200:112|256:16,1,180,2|8,0:0|0:0,0:0:0
320,72,30128,2,0,B|400:72,2,45
192,72,30611,2,0,B|128:72,2,45,0|0|8,0:0|0:0|0:0,0:0:0
256,136,31095,5,0,0:0:0
256,224,31337,2,0,B|360:224,1,90,2|0,0:0|0:0,0:0:0
256,224,31821,2,0,B|160:224,1,90,8|2,0:0|0:0,0:0:0
256,224,32305,2,0,B|256:314,1,90,2|0,0:0|0:0,0:0:0
176,344,32789,1,8,0:0:0
256,384,33031,1,0,0:0:0
336,344,33273,1,2,0:0:0
388,272,33515,6,0,B|460:256|460:160|388:144,1,180
348,144,34119,2,0,B|300:144,1,45
212,144,34482,2,0,B|148:144,1,45
124,144,34724,1,8,0:0:0
32,144,34966,5,0,0:0:0
32,149,35208,2,0,B|32:221,1,67.4999979883433
32,223,35692,2,0,B|32:290,1,67.4999979883433
32,296,36176,2,0,B|32:363,2,67.4999979883433
480,232,37386,1,0,0:0:0
480,224,37628,6,0,B|416:144|544:144|480:64,2,180
256,136,39079,6,0,B|256:16,1,108.000002574921,6|0,0:0|0:0,0:0:0
256,248,39805,2,0,B|256:368,1,108.000002574921,2|2,0:0|0:0,0:0:0
112,192,40531,1,8,0:0:0
112,192,40773,2,0,B|344:192,1,216.000005149841
424,144,41499,2,0,B|472:192|424:240,2,108.000002574921,8|2|2,0:0|0:0|0:0,0:0:0
256,8,42466,1,8,0:0:0
340,76,42708,5,0,0:0:0
256,144,42950,1,2,0:0:0
172,76,43192,1,0,0:0:0
88,144,43434,1,8,0:0:0
88,144,43676,2,0,B|40:192|88:240,1,108.000002574921,2|2,0:0|0:0,0:0:0
256,368,44402,1,8,0:0:0
256,368,44644,1,0,0:0:0
256,256,44886,5,2,0:0:0
256,208,45369,1,2,0:0:0
256,160,45853,1,2,0:0:0
256,112,46337,1,2,0:0:0
256,64,46821,5,6,0:0:0
368,64,47063,1,0,0:0:0
256,64,47547,1,2,0:0:0
144,64,47789,1,2,0:0:0
256,208,48273,1,8,0:0:0
328,288,48515,2,0,B|320:376|192:376|184:288,1,216.000005149841
184,176,49240,2,0,B|192:88|320:88|328:176,2,216.000005149841,8|2|8,0:0|0:0|0:0,0:0:0
256,256,50450,5,0,0:0:0
256,256,50692,2,0,B|192:296|136:248,1,108.000002574921,2|0,0:0|0:0,0:0:0
256,256,51176,2,0,B|320:296|376:248,1,108.000002574921,8|2,0:0|0:0,0:0:0
376,152,51660,2,0,B|352:80|280:80|256:132|256:132|232:80|160:80|136:152,1,324.000007724762,2|0,0:0|0:0,0:0:0
72,240,52628,6,0,B|64:304|128:344,1,108.000002574921,2|0,0:0|0:0,0:0:0
216,360,53111,2,0,B|256:328|256:328|304:360,1,108.000002574921,2|0,0:0|0:0,0:0:0
399,333,53595,2,0,B|448:304|440:240,1,108.000002574921,2|0,0:0|0:0,0:0:0
336,256,54079,2,0,B|288:232|256:184|256:184|224:232|176:256,1,216.000005149841,2|0,0:0|0:0,0:0:0
176,192,62305,5,6,0:0:0
176,192,62547,2,0,B|80:192,2,90,0|8|2,0:0|0:0|0:0,0:0:0
256,144,63273,1,2,0:0:0
256,240,63515,1,0,0:0:0
256,144,63757,1,8,0:0:0
256,240,63999,1,0,0:0:0
336,192,64240,2,0,B|448:192,2,90,2|0|8,0:0|0:0|0:0,0:0:0
256,144,64966,6,0,B|256:48,1,90,2|0,0:0|0:0,0:0:0
256,240,65450,2,0,B|256:336,1,90,2|8,0:0|0:0,0:0:0
440,344,66176,5,2,0:0:0
440,256,66418,1,0,0:0:0
440,40,66902,1,2,0:0:0
440,128,67144,1,2,0:0:0
504,192,67386,1,0,0:0:0
440,256,67627,1,8,0:0:0
376,192,67869,1,0,0:0:0
440,128,68111,1,2,0:0:0
440,40,68353,6,0,B|384:40|368:88|368:88|352:40|288:40,1,180
208,40,69079,2,0,B|152:40|136:88|136:88|120:40|56:40,1,180,0|8,0:0|0:0,0:0:0
72,128,69805,5,2,0:0:0
136,192,70047,1,2,0:0:0
72,256,70289,2,0,B|8:256|0:312|8:368|72:368,1,180,0|2,0:0|0:0,0:0:0
136,312,71015,1,2,0:0:0
136,312,71257,2,0,B|176:288|176:288|216:312,1,90,0|8,0:0|0:0,0:0:0
304,312,71740,2,0,B|341:334|341:334|381:310,1,90,0|2,0:0|0:0,0:0:0
381,310,72224,1,0,0:0:0
441,256,72466,2,0,B|504:256|512:312|504:368|443:367,2,180,8|2|8,0:0|0:0|0:0,0:0:0
384,192,73676,5,0,0:0:0
384,100,73918,2,0,B|344:64|304:100,1,90,2|0,0:0|0:0,0:0:0
304,192,74402,1,8,0:0:0
304,100,74644,2,0,B|212:100,1,90,2|2,0:0|0:0,0:0:0
208,192,75128,1,0,0:0:0
214,100,75369,2,0,B|174:64|134:100,1,90,8|0,0:0|0:0,0:0:0
128,192,75853,1,2,0:0:0
120,280,76095,6,0,B|184:400|336:264|192:152|40:272|224:416|288:416|472:272|320:152|176:264|328:400|392:280,1,450,0|8,0:0|0:0,0:0:0
384,192,77547,1,2,0:0:0
296,192,77789,6,0,B|272:136|312:104,1,90,6|0,0:0|0:0,0:0:0
384,56,78273,2,0,B|352:8|296:24,1,90,8|2,0:0|0:0,0:0:0
204,21,78757,2,0,B|160:8|128:56,1,90,2|0,0:0|0:0,0:0:0
205,108,79240,2,0,B|240:136|216:192,1,90,8|0,0:0|0:0,0:0:0
192,280,79724,2,0,B|192:320|256:360|320:320|320:280,1,180,2|8,0:0|0:0,0:0:0
296,192,80450,2,0,B|352:192,2,45
216,192,80934,2,0,B|168:192,2,45,0|0|8,0:0|0:0|0:0,0:0:0
256,112,81418,5,0,0:0:0
216,32,81660,2,0,B|168:32|144:80,1,90,2|0,0:0|0:0,0:0:0
56,64,82144,2,0,B|56:120|96:144,1,90,8|2,0:0|0:0,0:0:0
32,208,82628,1,2,0:0:0
32,208,82869,1,0,0:0:0
32,208,83111,2,0,B|72:280|144:256|144:256|136:280|144:312,2,180,8|0|8,0:0|0:0|0:0,0:0:0
112,168,84321,2,0,B|144:128,2,45
200,192,84805,2,0,B|248:168,2,45,0|0|8,0:0|0:0|0:0,0:0:0
256,272,85289,5,0,0:0:0
296,352,85531,2,0,B|344:352|368:304,1,90,2|0,0:0|0:0,0:0:0
456,320,86015,2,0,B|456:264|416:240,1,90,8|2,0:0|0:0,0:0:0
480,176,86499,1,2,0:0:0
480,176,86740,1,0,0:0:0
480,176,86982,2,0,B|440:104|368:128|368:128|376:104|368:72,2,180,8|0|8,0:0|0:0|0:0,0:0:0
400,216,88192,2,0,B|368:256,2,45
312,192,88676,2,0,B|264:216,2,45,0|0|8,0:0|0:0|0:0,0:0:0
293,104,89160,5,0,0:0:0
288,104,89402,2,0,B|200:104,1,67.4999979883433
216,104,89886,2,0,B|123:104,1,67.4999979883433
144,104,90369,2,0,B|59:104,2,67.4999979883433
224,280,91337,5,4,0:0:0
360,280,91700,1,4,0:0:0
448,280,91942,2,0,B|504:280|504:192|448:192,1,135
272,192,92789,1,0,0:0:0
184,192,93031,1,0,0:0:0
96,192,93273,5,6,0:0:0
96,80,93515,1,0,0:0:0
96,192,93999,1,2,0:0:0
96,304,94241,1,2,0:0:0
96,192,94724,1,8,0:0:0
96,192,94966,2,0,B|128:144|192:168|192:192|192:216|256:240|288:192,1,216.000005149841
376,136,95692,1,8,0:0:0
392,240,95934,1,2,0:0:0
376,136,96176,2,0,B|374:54|248:32|218:108,1,216.000005149841,2|8,0:0|0:0,0:0:0
284,196,96902,5,0,0:0:0
196,256,97144,1,2,0:0:0
284,196,97386,1,0,0:0:0
220,108,97628,1,8,0:0:0
284,196,97869,2,0,B|329:247|326:326|256:392|177:389|128:337,1,324.000007724762,0|8,0:0|0:0,0:0:0
64,248,98837,1,0,0:0:0
64,136,99079,5,2,0:0:0
232,272,99563,1,2,0:0:0
248,56,100047,1,2,0:0:0
416,192,100531,1,2,0:0:0
416,192,101015,5,6,0:0:0
416,304,101257,1,0,0:0:0
416,192,101741,1,2,0:0:0
416,80,101983,1,2,0:0:0
416,192,102466,1,8,0:0:0
416,192,102708,2,0,B|384:240|320:216|320:192|320:168|256:144|224:192,1,216.000005149841
136,248,103434,1,8,0:0:0
120,144,103676,1,2,0:0:0
136,248,103918,2,0,B|137:329|263:351|293:275,1,216.000005149841,2|8,0:0|0:0,0:0:0
228,188,104644,5,0,0:0:0
316,128,104886,1,2,0:0:0
228,188,105128,1,0,0:0:0
292,276,105370,1,8,0:0:0
228,188,105611,2,0,B|182:136|185:57|255:-8|334:-5|383:46,1,324.000007724762,0|8,0:0|0:0,0:0:0
448,136,106579,5,0,0:0:0
388,228,106821,1,2,0:0:0
292,276,107063,1,0,0:0:0
120,200,107305,5,2,0:0:0
228,188,107547,1,0,0:0:0
316,128,107789,1,2,0:0:0
384,48,108031,1,0,0:0:0
276,64,108273,1,2,0:0:0
100,32,108757,1,4,0:0:0
256,108,114321,5,0,0:0:0
220,264,114563,1,2,0:0:0
324,140,114805,1,0,0:0:0
176,208,115047,1,0,0:0:0
340,208,115289,1,2,0:0:0
192,140,115531,1,2,0:0:0
296,264,115773,1,0,0:0:0
256,192,116015,5,2,0:0:0
256,192,116499,1,6,0:0:0
256,276,122063,5,0,0:0:0
220,120,122305,1,2,0:0:0
324,244,122547,1,0,0:0:0
176,176,122789,1,0,0:0:0
340,176,123031,1,2,0:0:0
192,244,123273,1,2,0:0:0
296,120,123515,1,0,0:0:0
256,192,123757,5,2,0:0:0
256,192,124240,1,2,0:0:0
424,128,124724,6,0,B|448:192|352:256|352:128|448:192|424:256,1,180,8|0,0:0|0:0,0:0:0
256,312,125692,1,8,0:0:0
256,312,126176,1,0,0:0:0
87,253,126660,2,0,B|64:192|160:128|160:256|64:192|88:128,1,180,8|0,0:0|0:0,0:0:0
256,72,127628,1,8,0:0:0
256,72,128111,1,0,0:0:0
296,248,128595,6,0,B|312:288|292:328|220:328|200:288|216:248,1,180,8|0,0:0|0:0,0:0:0
256,72,129563,1,8,0:0:0
164,120,129805,2,0,B|100:148|100:236|164:264,1,180
212,192,130531,2,0,B|300:192,1,90,8|0,0:0|0:0,0:0:0
351,262,131015,2,0,B|412:236|412:148|348:120,1,180,0|8,0:0|0:0,0:0:0
256,312,131982,5,6,0:0:0
192,144,132466,2,0,B|208:216|152:240|136:192|152:144|208:168|192:240,1,180,8|0,0:0|0:0,0:0:0
256,64,133434,1,8,0:0:0
256,64,133918,1,0,0:0:0
318,233,134402,2,0,B|304:168|360:144|376:192|360:240|304:216|320:144,1,180,8|0,0:0|0:0,0:0:0
256,312,135369,1,8,0:0:0
256,312,135853,1,0,0:0:0
212,136,136337,6,0,B|280:152|300:96|256:72|212:96|232:152|298:137,1,180,8|0,0:0|0:0,0:0:0
256,312,137305,1,8,0:0:0
168,296,137547,2,0,B|135:279|98:229|116:169|143:140,1,180
208,216,138273,2,0,B|312:216,1,90,8|0,0:0|0:0,0:0:0
368,140,138757,2,0,B|395:169|413:229|376:279|344:296,2,180,0|8|2,0:0|0:0|0:0,0:0:0
368,68,139966,6,0,B|435:68,2,67.4999979883433
292,68,140692,2,0,B|216:68,1,67.4999979883433
144,68,141176,2,0,B|76:68,2,67.4999979883433
184,136,141902,6,0,B|176:196|256:240|336:196|328:136,1,225
256,128,143353,5,0,0:0:0
212,68,143595,2,0,B|180:44|136:76,2,67.4999979883433
256,128,144321,1,0,0:0:0
300,68,144563,2,0,B|332:44|376:76,2,67.4999979883433
256,360,146015,5,0,0:0:0
256,288,146257,1,0,0:0:0
256,216,146499,2,0,B|296:176|224:144|256:88,2,135.000005149842
328,88,148192,6,0,B|335:29|255:-14|175:29|183:89,1,225,0|6,0:0|0:0,0:0:0
88,144,149644,1,0,0:0:0
328,88,150128,1,2,0:0:0
424,144,150369,1,2,0:0:0
312,328,150853,1,8,0:0:0
200,328,151095,1,0,0:0:0
96,328,151337,2,0,B|40:304|40:224|96:200,1,162.000003862381,2|0,0:0|0:0,0:0:0
128,176,151821,1,8,0:0:0
224,128,152063,1,2,0:0:0
224,128,152305,2,0,B|264:144|336:72|256:8|176:72|240:144|288:128,1,216.000005149841,2|8,0:0|0:0,0:0:0
384,176,153031,5,0,0:0:0
384,176,153273,2,0,B|439:199|439:279|383:303,1,162.000003862381,2|0,0:0|0:0,0:0:0
352,328,153757,1,8,0:0:0
256,288,153999,1,2,0:0:0
160,328,154240,2,0,B|96:328|68:280|68:200|128:176,1,216.000005149841,2|8,0:0|0:0,0:0:0
256,152,154966,1,0,0:0:0
256,24,155208,5,2,0:0:0
456,192,155692,1,2,0:0:0
256,360,156176,1,2,0:0:0
56,192,156660,1,2,0:0:0
256,136,157144,6,0,B|256:28,1,108.000002574921,6|0,0:0|0:0,0:0:0
256,248,157869,2,0,B|256:360,1,108.000002574921,2|2,0:0|0:0,0:0:0
408,192,158595,1,8,0:0:0
408,192,158837,2,0,B|160:192,1,216.000005149841
112,272,159563,2,0,B|32:264|32:120|112:112,2,216.000005149841,8|0|8,0:0|0:0|0:0,0:0:0
216,232,160773,5,0,0:0:0
112,272,161015,2,0,B|136:336|200:336,1,108.000002574921,2|0,0:0|0:0,0:0:0
216,232,161499,1,8,0:0:0
192,336,161740,2,0,B|272:336|304:256|304:256|332:316|420:316|448:256,1,324.000007724762,0|8,0:0|0:0,0:0:0
376,192,162708,5,0,0:0:0
488,192,162950,1,6,0:0:0
376,192,163192,1,0,0:0:0
448,128,163434,2,0,B|420:69|332:69|304:129|304:129|272:49|192:33|112:49|80:136,1,432.000010299683,10|8,0:0|0:0,0:0:0
256,256,164886,5,6,0:0:0
336,328,165128,1,0,0:0:0
256,128,165611,1,2,0:0:0
336,56,165853,1,2,0:0:0
168,192,166337,1,8,0:0:0
168,192,166579,1,0,0:0:0
280,192,166821,6,0,B|464:192,1,162.000003862381,2|0,0:0|0:0,0:0:0
480,192,167305,1,8,0:0:0
480,192,167547,1,2,0:0:0
480,192,167789,1,2,0:0:0
280,192,168273,1,8,0:0:0
184,152,168515,6,0,B|208:88|288:104,1,108.000002574921,0|2,0:0|0:0,0:0:0
184,232,168999,2,0,B|208:296|288:280,1,108.000002574921,0|8,0:0|0:0,0:0:0
378,264,169482,2,0,B|424:280|468:264|488:224|488:224|472:192|488:160|488:160|468:120|424:104|376:120,1,324.000007724762,0|8,0:0|0:0,0:0:0
316,236,170450,6,0,B|292:297|231:284,1,108.000002574921,0|0,0:0|0:0,0:0:0
316,148,170934,2,0,B|292:86|231:99,1,108.000002574921,0|2,0:0|0:0,0:0:0
135,119,171418,2,0,B|88:104|44:120|24:160|24:160|40:192|24:224|24:224|44:264|88:280|134:264,1,324.000007724762,0|10,0:0|0:0,0:0:0
336,192,172628,6,0,B|448:192,1,108.000002574921,6|0,0:0|0:0,0:0:0
176,192,173353,2,0,B|56:192,1,108.000002574921,2|2,0:0|0:0,0:0:0
200,368,174079,1,8,0:0:0
312,368,174321,1,0,0:0:0
256,272,174563,2,0,B|256:88,1,162.000003862381,2|0,0:0|0:0,0:0:0
256,72,175047,1,8,0:0:0
256,72,175289,1,2,0:0:0
256,72,175531,1,2,0:0:0
256,272,176015,1,8,0:0:0
256,168,176257,5,0,0:0:0
144,168,176499,2,0,B|96:136|88:208|40:168,2,108.000002574921,2|0|8,0:0|0:0|0:0,0:0:0
256,168,177224,1,2,0:0:0
368,168,177466,2,0,B|416:136|424:208|472:168,2,108.000002574921,2|0|8,0:0|0:0|0:0,0:0:0
256,168,178192,1,0,0:0:0
200,264,178434,6,0,B|136:368,1,108.000002574921,2|0,0:0|0:0,0:0:0
176,216,178918,2,0,B|56:256,1,108.000002574921,10|0,0:0|0:0,0:0:0
176,168,179402,2,0,B|56:128,1,108.000002574921,2|0,0:0|0:0,0:0:0
200,120,179886,2,0,B|136:16,1,108.000002574921,10|0,0:0|0:0,0:0:0
256,192,180369,12,0,181821,0:0:0
