osu file format v5

[General]
AudioFilename: Jolin.mp3
AudioLeadIn: 0
PreviewTime: -1
Countdown: 1
SampleSet: Normal
StackLeniency: 0.7
Mode: 0
LetterboxInBreaks: 1

[Metadata]
Title:LOVE
Artist:Jolin
Creator:yupuisze
Version:Normal
Source:
Tags:

[Difficulty]
HPDrainRate:6
CircleSize:6
OverallDifficulty:0
SliderMultiplier:1.4
SliderTickRate:1

[Events]
//Background and Video events
0,0,"normal_1193757110.jpg"
//Break Periods
//Storyboard Layer 0 (Background)
//Storyboard Layer 1 (Failing)
//Storyboard Layer 2 (Passing)
//Storyboard Layer 3 (Foreground)
//Storyboard Sound Samples
//Background Colour Transformations
3,100,163,162,255

[TimingPoints]
0,456.938461538461,4,1,0,100,1,0

[HitObjects]
64,64,24065,1,0
128,64,24522,1,0
160,64,24750,1,0
224,64,25017,1,8
224,64,25131,1,8
224,64,25245,1,8
288,64,25417,1,0
320,64,25645,1,0
352,64,25874,1,0
352,160,26350,1,0
320,160,26578,1,0
256,160,26807,1,8
256,160,26902,1,8
256,160,27016,1,8
192,160,27244,1,0
160,160,27492,1,0
128,160,27701,1,0
128,256,28158,1,0
160,256,28387,1,0
224,256,28615,1,8
224,256,28730,1,8
224,256,28844,1,8
288,256,29072,1,0
320,256,29301,1,0
352,256,29529,1,0
352,160,29986,1,0
320,160,30215,1,0
288,160,30443,1,8
256,160,30557,1,8
224,160,30671,1,8
192,160,30900,1,0
160,160,31128,1,0
128,160,31357,1,0
64,96,31814,5,0
64,128,32042,1,0
64,192,32271,1,8
64,192,32385,1,8
64,192,32499,1,8
64,256,32728,1,0
64,288,32956,1,0
64,320,33185,1,0
160,320,33584,1,0
160,288,33813,1,0
160,224,34041,1,8
160,224,34156,1,8
160,224,34270,1,8
160,160,34498,1,0
160,128,34727,1,0
160,96,34955,1,0
256,96,35412,1,0
320,128,35641,1,8
384,96,35869,1,0
384,192,36326,1,0
320,160,36555,1,8
256,192,36783,1,0
288,256,37240,1,0
352,256,37468,1,8
320,320,37697,1,0
320,320,38154,1,2
96,96,39810,6,8,B|160:128,2,70
96,160,40439,1,0
96,192,40667,1,0
96,224,40895,1,0
96,256,41124,1,0
96,288,41352,1,0
128,288,41581,1,0
160,288,41809,1,0
192,256,42038,2,8,B|256:224,1,70
256,224,42495,2,8,B|224:160,1,70
224,160,42952,2,8,B|288:128,1,70
288,128,43409,2,8,B|256:64,1,70
320,64,43866,1,0
320,64,44094,1,0
384,64,44323,1,0
448,64,44551,1,0
448,64,44779,1,0
416,320,47007,6,8,B|352:288,2,70
416,256,47692,1,0
416,224,47921,1,0
416,192,48149,1,0
416,160,48378,1,0
416,128,48606,1,0
416,96,48835,1,0
384,96,49063,1,0
320,96,49292,2,8,B|256:128,1,70
256,128,49749,2,8,B|288:192,1,70
288,192,50206,2,8,B|222:226,1,70
224,224,50663,2,8,B|256:288,1,70
192,288,51119,1,0
192,288,51348,1,0
128,288,51576,1,0
64,288,51805,1,0
64,288,52033,1,0
128,96,53119,6,2,B|192:160|288:160|352:96,1,245
352,192,54489,1,0
256,192,54946,1,0
160,192,55460,1,8
160,192,55689,1,8
352,320,56603,5,0
320,288,56831,1,0
352,256,57060,1,0
320,224,57288,1,0
352,192,57517,1,0
320,160,57745,1,0
352,128,57974,1,0
320,96,58202,1,0
288,96,58431,1,0
256,96,58659,1,0
224,96,58887,2,8,B|192:128,2,35,8|8|8
224,96,59344,1,0
128,288,60430,6,2,B|192:224|288:224|352:288,1,245
352,192,61800,1,0
256,192,62257,1,0
160,192,62714,1,8
160,192,62943,1,8
96,224,63400,5,8
128,256,63628,1,0
160,288,63857,1,8
192,256,64085,1,0
224,288,64314,1,8
256,256,64542,1,0
288,288,64771,1,8
320,256,64999,1,0
352,288,65227,1,8
384,256,65456,1,0
416,224,65684,1,8
384,160,65913,2,10,B|352:128,2,35
384,160,66370,1,0
384,160,66598,1,8
256,128,67055,5,2
224,128,67169,1,2
192,128,67284,1,2
224,192,67512,1,8
224,192,67741,1,8
224,192,67969,1,8
192,256,68826,5,2
224,256,68940,1,2
256,256,69054,1,2
224,192,69340,1,8
224,192,69568,1,8
224,192,69797,1,8
64,288,71111,6,2,B|64:64,1,210
128,64,72253,1,8
192,64,72481,1,8
256,64,72710,1,8
320,64,72938,2,2,B|352:96,2,35
352,128,73395,1,8
352,192,73624,1,8
352,256,73852,1,8
352,320,74309,5,2
320,320,74423,1,2
288,320,74538,1,2
224,320,74766,1,8
160,320,74995,1,8
96,320,75223,1,8
96,224,76137,5,2
128,224,76251,1,2
160,224,76365,1,2
224,224,76594,1,8
288,224,76822,1,8
352,224,77051,1,8
96,128,78364,5,2
96,160,78479,1,2
96,192,78593,1,2
96,256,78821,1,8
160,224,79050,1,8
224,256,79278,1,8
288,224,79507,1,8
352,256,79735,1,8
416,224,79964,1,8
416,160,80192,1,2
416,128,80306,1,2
416,96,80421,1,10
352,96,80649,1,8
288,128,80878,1,8
224,96,81106,1,8
160,128,81335,1,8
256,192,81849,12,14,82705
