osu file format v12

[General]
AudioFilename: VOCALOID2 Hatsune Miku Append - Meteor.mp3
AudioLeadIn: 0
PreviewTime: 279218
Countdown: 0
SampleSet: None
StackLeniency: 0.7
Mode: 0
LetterboxInBreaks: 0
WidescreenStoryboard: 0

[Editor]
Bookmarks: 28075,69646,90218,131361,177646,218789,259932,280504,321646,446361
DistanceSpacing: 1
BeatDivisor: 4
GridSize: 4
TimelineZoom: 1

[Metadata]
Title:Meteor
TitleUnicode:メテオ
Artist:John Zeroness
ArtistUnicode:じょん
Creator:Hathz
Version:Extinction
Source:
Tags:hatsune miku append vocaloid vocaloid2 2 marathon insane jon
BeatmapID:373843
BeatmapSetID:151739

[Difficulty]
HPDrainRate:5
CircleSize:4
OverallDifficulty:7
ApproachRate:8
SliderMultiplier:1.5
SliderTickRate:2

[Events]
//Background and Video events
0,0,"maxresdefault.jpg",0,0
//Break Periods
2,77560,78325
2,150846,156325
2,276846,279754
2,408846,409611
2,428989,430182
//Storyboard Layer 0 (Background)
//Storyboard Layer 1 (Fail)
//Storyboard Layer 2 (Pass)
//Storyboard Layer 3 (Foreground)
//Storyboard Sound Samples
//Background Colour Transformations
3,100,163,162,255

[TimingPoints]
28504,428.571428571429,3,2,0,25,1,0
59361,-133.333333333333,3,2,0,25,0,0
61932,-100,3,2,0,25,0,0
68361,-200,3,2,0,25,0,0
69218,-100,3,2,0,25,0,0
69646,-133.333333333333,3,2,0,25,0,0
79932,-200,3,2,0,25,0,0
82504,-133.333333333333,3,2,0,25,0,0
90218,-100,3,2,0,30,0,0
104146,-133.333333333333,3,2,0,30,0,0
105004,-100,3,2,0,30,0,0
109075,-80,3,2,0,30,0,0
109932,-133.333333333333,3,2,0,30,0,0
110361,-100,3,2,0,30,0,0
131361,-133.333333333333,3,2,0,25,0,0
140361,-90.9090909090909,3,2,0,25,0,0
141646,-133.333333333333,3,2,0,25,0,0
167361,-90.9090909090909,3,3,0,35,0,0
177646,-80,3,1,0,50,0,0
218789,-71.4285714285714,3,1,0,50,0,0
259932,-83.3333333333333,3,2,0,47,0,0
270218,-133.333333333333,3,2,0,45,0,0
280504,-71.4285714285714,3,1,0,50,0,1
285646,-100,3,1,0,50,0,1
286718,-71.4285714285714,3,1,0,50,0,1
298504,-83.3333333333333,3,1,0,50,0,1
299361,-71.4285714285714,3,1,0,50,0,1
301075,-71.4285714285714,3,1,0,50,0,1
320361,-200,3,1,0,50,0,1
321646,-83.3333333333333,3,2,0,45,0,0
337932,-200,3,1,0,45,0,0
338468,-200,3,2,0,45,0,0
339646,-83.3333333333333,3,1,0,45,0,0
342218,-76.9230769230769,3,1,0,55,0,0
364075,-66.6666666666667,3,1,0,60,0,1
410361,-66.6666666666667,3,3,0,60,0,1
415504,-66.6666666666667,3,1,0,60,0,1
428361,-76.9230769230769,3,1,0,60,0,1
429218,-66.6666666666667,3,1,0,60,0,1
430932,-66.6666666666667,3,2,0,60,0,1
436075,-66.6666666666667,3,1,0,60,0,1
446361,-76.9230769230769,3,2,0,50,0,0
466932,-76.9230769230769,3,2,0,50,0,0
475932,-76.9230769230769,3,3,0,50,0,0
477218,-76.9230769230769,3,3,0,50,0,0
482361,-100,3,1,0,50,0,0
486218,-100,3,1,0,60,0,0

[HitObjects]
160,48,28075,6,0,P|104:112|80:192,1,150
256,200,28932,1,0,0:0:0:0:
352,48,29361,2,0,P|408:112|432:192,1,150
200,184,30218,6,0,P|200:224|176:264,1,75
72,272,30646,2,0,P|72:312|96:352,1,75
256,328,31075,1,0,0:0:0:0:
424,342,31504,2,0,P|440:309|440:272,1,75
327,254,31932,2,0,P|311:221|312:184,1,75
448,96,32361,5,0,0:0:0:0:
256,40,32789,1,0,0:0:0:0:
64,96,33218,1,0,0:0:0:0:
136,200,33646,6,0,P|208:272|328:320,1,225
448,320,34504,1,0,0:0:0:0:
384,200,34932,2,0,P|312:128|192:80,1,225
64,48,35789,1,0,0:0:0:0:
64,152,36004,1,0,0:0:0:0:
64,264,36218,6,0,P|72:320|168:360,1,150
200,224,36861,2,0,L|146:277,1,75
272,280,37289,2,0,L|326:227,1,75
352,48,37932,5,0,0:0:0:0:
224,64,38146,1,0,0:0:0:0:
304,152,38361,1,0,0:0:0:0:
352,48,38575,1,0,0:0:0:0:
464,88,38789,6,0,B|424:160|464:264,1,150
312,328,39646,2,0,B|268:336|240:296,1,75
128,192,40075,6,0,P|96:120|128:56,1,150
344,104,40932,2,0,P|318:76|312:40,1,75
432,40,41361,2,0,P|472:96|464:192,1,150
256,256,42218,1,0,0:0:0:0:
40,174,42646,6,0,P|38:100|80:40,1,150
80,40,43504,1,0,0:0:0:0:
224,64,43718,1,0,0:0:0:0:
336,136,43932,6,0,B|384:192|384:192|472:248,2,150
256,192,45004,1,0,0:0:0:0:
176,136,45218,2,0,B|128:192|128:192|40:248,2,150
256,80,46289,1,0,0:0:0:0:
336,40,46504,6,0,P|248:200|184:24,1,450
336,40,48218,1,0,0:0:0:0:
216,152,48646,1,0,0:0:0:0:
104,272,49075,6,0,B|136:312|136:312|256:312,1,150
424,176,49932,1,0,0:0:0:0:
344,96,50146,1,0,0:0:0:0:
232,64,50361,2,0,B|200:104|200:104|80:104,1,150,0|0,0:0|0:0,0:0:0:0:
224,196,51218,2,0,P|224:236|256:276,1,75
332,332,51646,6,0,P|388:348|492:300,1,150
416,168,52504,1,0,0:0:0:0:
176,32,52932,2,0,P|256:32|336:88,1,150
316,65,53789,1,0,0:0:0:0:
216,168,54218,6,0,L|174:230,2,75
176,336,55289,1,0,0:0:0:0:
296,168,55504,2,0,L|351:250,2,75
336,336,56575,1,0,0:0:0:0:
256,272,56789,6,0,L|256:184,1,75
256,120,57218,2,0,L|320:64,1,75
256,120,57646,2,0,L|192:64,1,75
96,112,58075,2,0,B|48:160|48:160|88:192|72:256,1,150
256,288,58932,1,0,0:0:0:0:
360,224,59361,6,0,B|424:184|424:184|384:120|456:48,1,225.000008583069
256,144,60432,1,0,0:0:0:0:
152,224,60646,2,0,B|88:184|88:184|128:120|56:48,1,225.000008583069
256,48,61718,1,0,0:0:0:0:
348,96,61932,6,0,P|385:128|385:184,1,75
163,96,62361,2,0,P|126:128|126:184,1,75
392,228,62789,2,0,P|380:263|348:288,1,75
117,228,63218,2,0,P|130:263|163:288,2,75
256,192,64075,1,0,0:0:0:0:
312,88,64504,6,0,B|352:40|352:40|408:88|408:88|384:160|456:240,1,300
256,272,65575,1,0,0:0:0:0:
58,237,65789,2,0,B|128:160|104:88|104:88|160:40|160:40|200:88,1,300
256,32,66861,1,0,0:0:0:0:
256,160,67075,6,0,L|256:248,2,75
328,88,67718,1,0,0:0:0:0:
184,88,67932,1,0,0:0:0:0:
256,160,68146,1,0,0:0:0:0:
325,247,68361,6,0,B|256:272|256:272|178:245,1,150
424,48,69646,6,0,B|336:48|336:48|328:88|352:120|368:136,1,168.750006437302
416,200,70504,1,0,0:0:0:0:
408,288,70718,1,0,0:0:0:0:
328,328,70932,2,0,B|240:328|240:328|232:288|256:256|272:240,1,168.750006437302
296,176,71789,1,0,0:0:0:0:
280,88,72004,1,0,0:0:0:0:
208,32,72218,6,0,P|152:32|104:88,2,112.500004291535
184,112,73289,2,0,P|191:147|191:187,1,56.2500021457673
248,312,73932,1,0,0:0:0:0:
344,280,74146,1,0,0:0:0:0:
424,216,74361,2,0,P|448:192|464:168,1,56.2500021457673
307,54,74789,6,0,P|360:72|416:64,1,112.500004291535
248,152,75646,2,0,P|192:136|128:160,2,112.500004291535
184,320,76932,2,0,P|200:264|256:232,1,112.500004291535
324,36,79075,6,0,L|256:76,1,56.2500021457673
384,108,79504,2,0,L|344:164,1,56.2500021457673
464,152,79932,6,0,B|464:200|464:200|464:240|424:256,1,112.500004291535
324,276,80789,1,0,0:0:0:0:
244,192,81004,1,0,0:0:0:0:
160,100,81218,2,0,P|100:84|40:108,1,112.5
40,216,82075,1,0,0:0:0:0:
136,280,82289,1,0,0:0:0:0:
260,256,82504,6,0,P|277:174|256:92,1,168.750006437302
356,44,83361,1,0,0:0:0:0:
432,132,83575,1,0,0:0:0:0:
432,248,83789,1,0,0:0:0:0:
216,320,84218,2,0,P|188:328|148:320,1,56.2500021457673
100,240,84646,2,0,P|128:232|172:240,1,56.2500021457673
272,224,85075,6,0,P|270:114|187:43,1,225.000008583069
176,160,86146,1,0,0:0:0:0:
104,236,86361,2,0,P|80:272|100:344,1,112.500004291535
184,292,87004,1,0,0:0:0:0:
292,292,87218,1,0,0:0:0:0:
368,208,87432,1,0,0:0:0:0:
256,192,87646,12,0,89789,0:0:0:0:
192,78,90218,6,0,P|152:104|120:156,1,75,8|0,0:0|0:0,0:0:0:0:
136,227,90646,2,0,P|161:256|194:276,1,75
296,280,91075,1,0,0:0:0:0:
400,280,91289,2,0,P|432:280|488:232,2,75,0|8|0,0:0|0:0|0:0,0:0:0:0:
316,72,92146,1,0,0:0:0:0:
216,48,92361,2,0,P|160:48|112:72,1,75
60,120,92789,6,0,P|44:236|120:312,1,225,8|0,0:0|0:0,0:0:0:0:
156,196,93646,1,0,0:0:0:0:
332,286,94075,2,0,L|418:217,1,75,8|0,0:0|0:0,0:0:0:0:
307,192,94504,2,0,L|319:82,1,75
221,149,94932,2,0,L|153:62,1,75
264,40,95361,6,0,B|384:40|384:40|440:72|440:208,1,300,8|0,0:0|0:0,0:0:0:0:
386,306,96432,1,0,0:0:0:0:
270,309,96646,2,0,P|225:318|189:342,2,75,8|0|0,0:0|0:0|0:0,0:0:0:0:
272,208,97289,1,0,0:0:0:0:
216,120,97504,1,0,0:0:0:0:
128,56,97718,1,0,0:0:0:0:
60,141,97932,6,0,P|50:214|82:282,1,150,8|0,0:0|0:0,0:0:0:0:
194,282,98575,2,0,P|189:245|168:215,2,75
304,308,99218,2,0,P|372:302|439:257,1,150,8|0,0:0|0:0,0:0:0:0:
424,96,100075,1,0,0:0:0:0:
424,96,100289,1,0,0:0:0:0:
424,96,100504,6,0,B|352:72|352:72|280:96,1,150,8|0,0:0|0:0,0:0:0:0:
208,176,101146,2,0,P|168:208|160:240,1,75
352,232,101575,2,0,P|336:198|305:179,1,75,0|8,0:0|0:0,0:0:0:0:
230,95,102004,2,0,B|160:72|160:72|88:96,1,150
48,184,102646,1,0,0:0:0:0:
100,280,102861,1,0,0:0:0:0:
192,336,103075,6,0,P|264:360|356:316,2,150,8|0|0,0:0|0:0|0:0,0:0:0:0:
260,252,104146,1,0,0:0:0:0:
312,168,104361,2,0,P|342:137|427:121,1,112.500004291535,8|0,0:0|0:0,0:0:0:0:
112,56,105218,1,0,0:0:0:0:
200,24,105432,1,0,0:0:0:0:
112,56,105646,6,0,P|64:104|72:184,1,150,8|0,0:0|0:0,0:0:0:0:
193,317,106504,2,0,P|201:244|152:192,1,150,0|8,0:0|0:0,0:0:0:0:
304,184,107361,1,0,0:0:0:0:
416,304,107789,1,0,0:0:0:0:
424,48,108218,2,0,P|376:72|360:96,1,75,8|0,0:0|0:0,0:0:0:0:
88,48,108646,2,0,P|136:72|152:96,1,75
336,56,109075,2,0,P|296:96|288:160,1,93.75
176,56,109504,2,0,P|216:96|224:160,1,93.75,8|0,0:0|0:0,0:0:0:0:
256,64,109932,2,0,L|256:184,1,112.500004291535
256,264,110575,1,0,0:0:0:0:
160,272,110789,6,0,P|80:200|36:90,1,225,8|0,0:0|0:0,0:0:0:0:
192,120,111646,1,0,0:0:0:0:
320,120,111861,1,0,0:0:0:0:
475,92,112075,2,0,P|434:196|352:272,1,225,8|0,0:0|0:0,0:0:0:0:
259,330,112932,1,0,0:0:0:0:
163,303,113146,1,0,0:0:0:0:
96,224,113361,6,0,P|64:144|144:32,1,225,8|0,0:0|0:0,0:0:0:0:
192,128,114218,2,0,P|192:168|208:200,1,75
304,256,114646,2,0,L|368:304,1,75,8|0,0:0|0:0,0:0:0:0:
304,128,115075,2,0,L|368:80,1,75
448,40,115504,1,0,0:0:0:0:
448,192,115718,1,0,0:0:0:0:
448,344,115932,6,0,B|312:344|312:344|216:344|184:232,1,300,8|0,0:0|0:0,0:0:0:0:
256,192,117004,1,0,0:0:0:0:
328,144,117218,2,0,B|296:40|200:40|200:40|64:40,1,300,8|0,0:0|0:0,0:0:0:0:
72,140,118289,1,0,0:0:0:0:
96,244,118504,6,0,P|104:284|152:308,1,75,8|0,0:0|0:0,0:0:0:0:
256,328,118932,2,0,P|249:291|221:268,1,75
216,160,119361,1,0,0:0:0:0:
300,80,119575,1,0,0:0:0:0:
404,32,119789,2,0,P|423:63|419:99,1,75,8|0,0:0|0:0,0:0:0:0:
352,164,120218,2,0,P|329:192|329:229,1,75
400,304,120646,1,0,0:0:0:0:
456,200,120861,1,0,0:0:0:0:
416,84,121075,6,0,B|364:24|332:28|196:52,1,225,8|0,0:0|0:0,0:0:0:0:
108,96,121932,2,0,P|108:132|133:167,1,75
208,240,122361,2,0,P|280:248|376:200,1,150,8|0,0:0|0:0,1:0:0:0:
252,76,123218,2,0,P|178:68|108:94,1,150,8|0,0:0|0:0,1:0:0:0:
80,200,123861,1,0,0:0:0:0:
200,192,124075,1,0,0:0:0:0:
312,136,124289,1,0,0:0:0:0:
440,104,124504,1,0,0:0:0:0:
512,184,124718,1,0,0:0:0:0:
472,288,124932,6,0,P|448:336|360:368,1,150,8|0,0:0|0:0,0:0:0:0:
40,288,125789,2,0,P|64:336|152:368,1,150,0|8,0:0|0:0,0:0:0:0:
256,312,126432,1,0,0:0:0:0:
336,240,126646,1,0,0:0:0:0:
364,144,126861,2,0,P|260:112|144:148,1,225,0|8,0:0|0:0,0:0:0:0:
216,232,127718,1,0,0:0:0:0:
296,288,127932,1,0,0:0:0:0:
400,328,128146,2,0,P|432:296|448:264,1,75
448,168,128575,2,0,P|432:136|392:96,1,75,0|8,0:0|0:0,0:0:0:0:
320,64,129004,5,0,0:0:0:0:
216,64,129218,2,0,P|172:64|120:96,1,75
80,168,129646,2,0,P|128:176|160:200,1,75
232,272,130075,2,0,P|192:268|152:288,1,75,8|0,0:0|0:0,0:0:0:0:
344,272,130504,1,0,0:0:0:0:
432,212,130718,2,0,L|464:180,2,37.5
176,48,131361,6,0,P|116:60|80:116,1,112.500004291535,0|0,0:0|0:0,0:0:0:0:
224,312,132432,1,0,0:0:0:0:
340,292,132646,2,0,P|396:272|432:224,1,112.500004291535
336,64,133932,5,0,0:0:0:0:
212,32,134361,1,0,0:0:0:0:
95,259,135004,1,0,0:0:0:0:
184,320,135218,2,0,P|259:333|312:310,2,112.500004291535
240,136,136504,6,0,P|264:88|280:72,1,56.2500021457673
392,72,136932,2,0,P|368:120|352:136,1,56.2500021457673
192,112,137361,2,0,P|240:136|256:152,1,56.2500021457673
344,256,137789,2,0,P|296:232|280:216,4,56.2500021457673
464,288,139075,6,0,P|496:216|480:64,1,225.000008583069
360,56,140146,1,0,0:0:0:0:
312,64,140254,1,0,0:0:0:0:
272,88,140361,2,0,P|232:112|192:112,1,82.5000025177003
56,56,140789,2,0,P|94:41|134:49,1,82.5000025177003
104,160,141218,2,0,P|120:200|104:240,1,82.5000025177003
232,248,141646,6,0,P|200:304|224:368,2,112.500004291535
352,280,142718,1,0,0:0:0:0:
336,168,142932,2,0,P|316:117|267:90,1,112.500004291535
316,336,143789,2,0,P|352:324|376:288,1,56.2500021457673
424,224,144218,6,0,B|440:200|440:160,1,56.2500021457673
384,64,144646,1,0,0:0:0:0:
280,32,144861,1,0,0:0:0:0:
200,96,145075,1,0,0:0:0:0:
304,136,145289,1,0,0:0:0:0:
304,232,145504,2,0,P|280:272|256:288,1,56.2500021457673
208,200,145932,2,0,P|176:184|136:192,1,56.2500021457673
160,288,146361,2,0,P|128:296|88:280,1,56.2500021457673
56,183,146789,6,0,P|56:128|88:80,1,112.500004291535
208,200,147646,1,0,0:0:0:0:
280,88,148075,2,0,B|289:49|308:34|308:34|429:33,1,168.750006437302
456,136,148932,1,0,0:0:0:0:
440,240,149146,1,0,0:0:0:0:
352,312,149361,6,0,P|180:252|220:132,1,337.500012874604
256,192,157075,12,0,166932,0:0:0:0:
256,36,167361,5,0,0:0:0:0:
100,192,167789,1,2,0:0:0:0:
256,347,168218,1,0,0:0:0:0:
411,192,168646,1,2,0:0:0:0:
202,45,169075,5,0,0:0:0:0:
109,244,169504,1,2,0:0:0:0:
308,337,169932,1,0,0:0:0:0:
401,138,170361,1,2,0:0:0:0:
155,71,170789,5,0,0:0:0:0:
135,291,171218,1,2,0:0:0:0:
355,310,171646,1,0,0:0:0:0:
374,91,172075,1,2,0:0:0:0:
120,113,172504,5,0,0:0:0:0:
177,325,172932,1,2,0:0:0:0:
389,269,173361,1,0,0:0:0:0:
332,56,173789,1,2,0:0:0:0:
100,164,174218,5,0,0:0:0:0:
100,164,174432,1,0,0:0:0:0:
226,344,174646,1,0,0:0:0:0:
226,344,174861,1,0,0:0:0:0:
407,218,175075,1,0,0:0:0:0:
407,218,175289,1,0,0:0:0:0:
281,37,175504,1,0,0:0:0:0:
281,37,175718,1,0,0:0:0:0:
256,192,175932,1,4,0:0:0:0:
152,224,176361,6,0,P|256:328|360:200,1,330.000010070801,0|0,0:0|0:0,0:0:0:0:
400,68,177646,6,0,P|344:60|304:76,1,93.75,0|0,0:0|0:0,0:0:0:0:
112,68,178075,2,0,P|168:60|208:76,1,93.75,8|0,0:0|0:0,0:0:0:0:
256,144,178504,1,0,0:0:0:0:
256,176,178611,1,0,0:0:0:0:
256,208,178718,1,0,0:0:0:0:
256,240,178825,1,0,0:0:0:0:
256,272,178932,2,0,P|256:312|288:352,1,93.75,8|0,0:0|0:0,0:0:0:0:
412,352,179361,6,0,P|444:344|480:296,1,93.75,0|0,0:0|0:0,0:0:0:0:
480,168,179789,2,0,B|476:112|428:76,1,93.75,8|0,0:0|0:0,0:0:0:0:
332,44,180218,2,0,B|240:12|144:44,1,187.5,0|8,0:0|0:0,0:0:0:0:
184,148,180861,1,0,0:0:0:0:
76,104,181075,2,0,B|52:152|84:208,1,93.75,0|0,0:0|0:0,0:0:0:0:
192,248,181504,6,0,L|144:328,1,93.75,8|0,0:0|0:0,0:0:0:0:
296,304,181932,2,0,L|340:221,1,93.75
240,160,182361,2,0,P|216:112|296:24,1,187.5,8|0,0:0|0:0,0:0:0:0:
416,88,183004,1,0,0:0:0:0:
416,88,183218,1,8,0:0:0:0:
496,208,183432,2,0,P|496:256|472:304,1,93.75,0|0,0:0|0:0,0:0:0:0:
478,298,183861,1,0,0:0:0:0:
280,328,184075,6,0,B|216:328|216:328|176:304,1,93.75,8|0,0:0|0:0,0:0:0:0:
120,216,184504,2,0,B|120:152|120:152|144:112,1,93.75
232,56,184932,2,0,B|296:56|296:56|336:80,1,93.75,8|0,0:0|0:0,0:0:0:0:
392,168,185361,2,0,B|392:232|392:232|368:272,1,93.75
256,264,185789,1,8,0:0:0:0:
328,192,186004,1,0,0:0:0:0:
256,120,186218,1,0,0:0:0:0:
184,192,186432,1,0,0:0:0:0:
160,288,186646,6,0,B|104:344|40:312|40:312|32:312|32:240,1,187.5,8|0,0:0|0:0,0:0:0:0:
76,167,187289,1,0,0:0:0:0:
136,80,187504,2,0,L|193:3,1,93.75,8|0,0:0|0:0,0:0:0:0:
176,176,187932,2,0,L|269:162,1,93.75
264,72,188361,1,8,0:0:0:0:
372,36,188575,1,0,0:0:0:0:
348,144,188789,1,0,0:0:0:0:
372,36,189004,1,0,0:0:0:0:
264,72,189218,1,8,0:0:0:0:
348,144,189432,1,0,0:0:0:0:
464,168,189646,6,0,P|445:229|380:251,1,93.75
328,196,190075,2,0,P|286:226|279:290,1,93.75,8|0,0:0|0:0,0:0:0:0:
272,296,190396,1,0,0:0:0:0:
260,328,190504,2,0,P|188:360|88:280,1,187.5,0|8,0:0|0:0,0:0:0:0:
48,212,191146,1,0,0:0:0:0:
48,212,191361,2,0,P|112:164|232:188,1,187.5,0|8,0:0|0:0,0:0:0:0:
216,60,192004,1,0,0:0:0:0:
328,96,192218,6,0,L|376:96,3,46.875
320,132,192646,2,0,L|362:154,3,46.875,8|0|0|0,0:0|0:0|0:0|0:0,0:0:0:0:
296,164,193075,2,0,B|264:212|264:212|288:236|296:276|280:348|216:340,1,187.5,0|8,0:0|0:0,0:0:0:0:
372,336,193718,1,0,0:0:0:0:
440,260,193932,1,0,0:0:0:0:
464,168,194146,1,0,0:0:0:0:
464,136,194254,1,0,0:0:0:0:
456,96,194361,6,0,B|424:48|424:48|280:48,1,187.5,8|0,0:0|0:0,0:0:0:0:
184,48,195004,1,0,0:0:0:0:
24,88,195218,2,0,B|56:136|56:136|200:136,1,187.5,8|0,0:0|0:0,0:0:0:0:
272,136,195861,1,0,0:0:0:0:
344,192,196075,2,0,P|352:256|320:296,1,93.75,8|0,0:0|0:0,0:0:0:0:
272,343,196504,2,0,P|232:366|186:366,1,93.75
104,320,196932,6,0,P|66:285|62:220,1,93.75,8|0,0:0|0:0,0:0:0:0:
56,152,197361,1,0,0:0:0:0:
96,72,197575,1,0,0:0:0:0:
264,32,197789,2,0,P|216:16|160:40,1,93.75,8|0,0:0|0:0,0:0:0:0:
208,120,198218,6,0,B|304:184|304:184|288:216|304:264,1,187.5,0|8,0:0|0:0,0:0:0:0:
192,272,198861,2,0,B|200:320|255:337,1,93.75
352,336,199289,2,0,B|404:318|412:270,1,93.75,0|8,0:0|2:0,0:0:0:0:
408,160,199718,1,0,0:0:0:0:
368,56,199932,5,0,0:0:0:0:
256,152,200146,1,0,0:0:0:0:
144,56,200361,1,8,0:0:0:0:
256,152,200575,1,0,0:0:0:0:
376,184,200789,6,0,B|424:296|424:296|488:328,1,187.5,0|8,0:0|0:0,0:0:0:0:
256,288,201432,1,0,0:0:0:0:
136,184,201646,2,0,B|88:296|88:296|24:328,1,187.5,0|8,0:0|0:0,0:0:0:0:
16,192,202289,1,0,0:0:0:0:
48,88,202504,2,0,P|112:8|224:16,1,187.5,0|8,0:0|0:0,0:0:0:0:
464,88,203361,6,0,P|400:8|288:16,1,187.5,0|8,0:0|0:0,0:0:0:0:
256,88,204004,1,0,0:0:0:0:
182,171,204218,2,0,P|151:233|151:286,1,93.75
256,254,204646,2,0,P|256:317|287:369,1,93.75,8|0,0:0|0:0,0:0:0:0:
360,286,205075,2,0,P|386:331|462:360,1,93.75
456,224,205504,2,0,B|464:172|412:136,1,93.75,8|0,0:0|0:0,0:0:0:0:
328,72,205932,6,0,B|276:32|196:32|196:32|136:32,1,187.5,0|8,0:0|0:0,0:0:0:0:
87,131,206575,2,0,L|54:166,1,46.875
116,147,206789,2,0,L|106:192,1,46.875
156,160,207004,2,0,B|180:204|136:262,2,93.75,0|8|0,0:0|0:0|0:0,0:0:0:0:
196,56,207646,1,0,0:0:0:0:
296,32,207861,1,0,0:0:0:0:
396,36,208075,2,0,P|444:44|480:80,1,93.75,8|0,0:0|0:0,0:0:0:0:
392,136,208504,6,0,L|344:220,1,93.75
184,308,208932,2,0,L|232:224,1,93.75
208,60,209361,2,0,L|160:144,1,93.75
348,216,209789,2,0,L|396:132,1,93.75
324,48,210218,1,0,0:0:0:0:
208,60,210432,1,0,0:0:0:0:
104,104,210646,1,8,0:0:0:0:
72,212,210861,1,0,0:0:0:0:
128,312,211075,6,0,P|216:336|320:296,1,187.5,0|8,0:0|0:0,0:0:0:0:
308,196,211718,1,0,0:0:0:0:
416,168,211932,2,2,P|444:255|420:345,1,187.5,2|10,0:0|0:0,0:0:0:0:
328,252,212575,1,0,0:0:0:0:
244,180,212789,2,0,L|220:134,3,46.875
217,211,213218,2,0,L|155:170,3,46.875,8|0|0|0,0:0|0:0|0:0|0:0,0:0:0:0:
194,247,213646,6,0,P|102:237|42:168,1,187.5,0|8,0:0|0:0,0:0:0:0:
112,64,214289,1,0,0:0:0:0:
208,40,214504,1,0,0:0:0:0:
304,40,214718,1,0,0:0:0:0:
416,72,214932,2,0,P|336:136|232:128,1,187.5,8|0,0:0|0:0,0:0:0:0:
144,128,215575,1,0,0:0:0:0:
56,176,215789,1,8,0:0:0:0:
48,264,216004,1,0,0:0:0:0:
128,320,216218,6,0,L|160:272,1,46.875
224,352,216432,2,0,L|232:296,1,46.875
320,344,216646,2,0,L|304:280,1,46.875
408,296,216861,2,0,L|368:248,1,46.875
472,216,217075,2,0,L|408:192,1,46.875
488,112,217289,2,0,L|416:120,1,46.875
364,128,217504,2,0,L|324:132,16,23.4375
260,80,218575,1,0,0:0:0:0:
152,48,218789,6,2,P|80:200|168:352,1,314.999990386963,0|0,0:0|0:0,0:0:0:0:
224,240,219646,1,0,0:0:0:0:
288,152,219861,1,0,0:0:0:0:
360,48,220075,2,2,P|432:200|344:352,1,314.999990386963,0|0,0:0|0:0,0:0:0:0:
264,344,220932,2,0,P|208:352|144:336,1,104.999996795654
88,264,221361,6,0,P|48:208|40:160,1,104.999996795654
160,184,221789,2,0,P|159:115|180:71,1,104.999996795654
343,80,222218,2,0,P|301:110|275:156,1,104.999996795654
352,176,222646,2,2,P|416:136|272:24,1,314.999990386963
240,96,223504,2,0,P|192:120|136:88,1,104.999996795654
88,48,223932,6,2,B|48:32|48:32|0:304|192:336,1,419.999987182618
256,244,225004,1,0,0:0:0:0:
338,332,225218,2,2,B|512:304|464:32|464:32|408:64,1,419.999987182618
256,32,226289,1,0,0:0:0:0:
144,152,226504,6,0,B|246:129,1,104.999996795654
344,216,226932,2,0,B|242:239,1,104.999996795654
345,326,227361,2,0,B|448:304,1,104.999996795654
232,344,227789,2,0,P|104:320|56:228,1,209.999993591309
52,144,228432,2,0,P|84:64|116:40,1,104.999996795654
200,40,228861,1,0,0:0:0:0:
304,48,229075,6,2,B|400:48|400:48|360:152|456:200|456:200|432:272|432:272|352:328,1,419.999987182618,4|0,0:0|0:0,0:0:0:0:
256,192,230146,1,0,0:0:0:0:
208,48,230361,2,0,B|112:48|112:48|152:152|56:200|56:200|80:272|80:272|160:328,1,419.999987182618,6|0,0:0|0:0,0:0:0:0:
256,224,231432,1,0,0:0:0:0:
312,88,231646,2,0,P|352:120|376:168,1,104.999996795654
200,88,232075,2,0,P|160:120|136:168,1,104.999996795654
256,152,232504,2,0,L|256:216,2,52.4999983978272
168,216,232932,6,0,P|192:272|168:328,1,104.999996795654
352,216,233361,2,0,P|328:272|352:328,1,104.999996795654
440,272,233789,2,0,P|464:216|440:160,1,104.999996795654
256,56,234218,6,2,B|195:106|195:106|130:57|19:47|31:187|31:187|111:243,1,419.999987182618
256,264,235289,1,0,0:0:0:0:
408,237,235504,2,2,B|480:187|480:187|492:47|381:57|316:106|316:106|256:56,1,419.999987182618
168,64,236575,1,0,0:0:0:0:
96,120,236789,6,0,P|72:168|80:216,1,104.999996795654
151,295,237218,2,0,P|196:318|248:311,1,104.999996795654
176,208,237646,2,0,L|260:146,1,104.999996795654
256,256,238075,5,0,0:0:0:0:
432,176,238289,1,0,0:0:0:0:
352,48,238504,1,0,0:0:0:0:
160,48,238718,1,0,0:0:0:0:
80,176,238932,1,0,0:0:0:0:
160,336,239146,1,0,0:0:0:0:
296,336,239361,6,0,P|368:328|400:304,1,104.999996795654,4|0,0:0|0:0,0:0:0:0:
393,310,239789,2,0,P|420:263|416:214,2,104.999996795654
312,208,240432,1,0,0:0:0:0:
312,80,240646,2,0,P|240:88|208:112,1,104.999996795654
215,106,241075,2,0,P|191:146|199:234,2,104.999996795654
120,32,241718,1,0,0:0:0:0:
64,120,241932,6,0,P|32:208|64:320,2,209.999993591309
152,224,243004,1,0,0:0:0:0:
280,196,243218,2,0,P|331:186|380:202,1,104.999996795654
328,292,243646,2,0,P|352:337|398:360,1,104.999996795654
424,248,244075,2,0,P|408:198|366:169,1,104.999996795654
248,168,244504,6,0,P|208:204|196:253,2,104.999996795654,4|0|0,0:0|0:0|0:0,0:0:0:0:
200,84,245039,2,0,L|156:116,3,52.4999983978272
152,220,245575,1,0,0:0:0:0:
264,216,245789,2,0,P|304:180|315:130,2,104.999996795654,4|0|0,0:0|0:0|0:0,0:0:0:0:
312,300,246324,2,0,L|356:268,3,52.4999983978272
360,164,246861,1,0,0:0:0:0:
268,228,247075,6,0,P|212:244|148:220,1,104.999996795654
80,148,247504,2,0,P|84:88|116:52,1,104.999996795654
196,140,247932,2,0,P|198:190|170:233,1,104.999996795654
68,280,248361,1,0,0:0:0:0:
80,148,248575,1,0,0:0:0:0:
200,80,248789,1,0,0:0:0:0:
328,116,249004,1,0,0:0:0:0:
344,268,249218,1,0,0:0:0:0:
216,304,249432,1,0,0:0:0:0:
120,215,249646,6,0,P|161:184|182:137,1,104.999996795654,4|0,0:0|0:0,0:0:0:0:
391,168,250075,2,0,P|350:199|329:246,1,104.999996795654
256,192,250504,1,0,0:0:0:0:
256,192,250611,1,0,0:0:0:0:
256,192,250718,1,0,0:0:0:0:
228,36,250932,2,0,P|274:91|329:109,1,104.999996795654,4|0,0:0|0:0,0:0:0:0:
283,347,251361,2,0,P|237:292|182:274,1,104.999996795654
104,184,251789,1,0,0:0:0:0:
80,152,251896,1,0,0:0:0:0:
64,116,252004,1,0,0:0:0:0:
64,76,252111,1,0,0:0:0:0:
72,32,252218,6,0,B|184:32|208:32|232:32|304:88,1,209.999993591309
275,67,252861,1,0,0:0:0:0:
234,167,253075,2,0,L|215:274,1,104.999996795654
321,235,253504,2,0,P|324:298|360:339,1,104.999996795654
133,176,253932,2,0,P|93:225|40:237,1,104.999996795654
44,140,254361,1,0,0:0:0:0:
112,56,254575,1,0,0:0:0:0:
227,41,254789,6,2,B|300:72|352:32|352:32|412:12|464:164|336:276,1,419.999987182618,4|0,0:0|0:0,0:0:0:0:
256,192,255861,1,0,0:0:0:0:
163,119,256075,2,2,B|48:220|100:372|160:352|160:352|212:312|285:343,1,419.999987182618,4|0,0:0|0:0,0:0:0:0:
396,328,257146,1,0,0:0:0:0:
408,216,257361,6,0,L|475:216,1,52.4999983978272
406,185,257575,2,0,L|461:166,1,52.4999983978272
386,150,257789,2,0,L|434:104,1,52.4999983978272
352,125,258004,2,0,L|377:73,1,52.4999983978272
317,114,258218,2,0,L|322:49,1,52.4999983978272
275,115,258432,2,0,L|265:53,1,52.4999983978272
243,124,258646,2,2,P|219:231|398:209,1,314.999990386963
408,144,259504,2,0,P|403:87|371:47,1,104.999996795654
187,230,259932,6,0,P|185:276|156:311,1,89.9999972534181,4|0,0:0|0:0,0:0:0:0:
325,230,260361,2,0,P|327:276|356:311,1,89.9999972534181,0|0,0:0|0:0,0:0:0:0:
159,101,260789,1,0,0:0:0:0:
353,101,261004,1,0,0:0:0:0:
183,153,261218,6,0,P|130:174|68:161,1,89.9999972534181,0|0,0:0|0:0,0:0:0:0:
329,153,261646,2,0,P|382:174|444:161,1,89.9999972534181
158,272,262075,1,0,0:0:0:0:
352,272,262289,1,0,0:0:0:0:
256,120,262504,6,0,L|256:8,1,89.9999972534181
256,232,262932,2,0,L|256:352,1,89.9999972534181
128,264,263361,1,0,0:0:0:0:
80,144,263575,1,0,0:0:0:0:
136,40,263789,2,0,P|187:16|255:22,1,89.9999972534181
320,128,264218,2,0,P|264:104|200:120,2,89.9999972534181
256,200,264861,1,0,0:0:0:0:
208,280,265075,6,0,B|232:320|232:368,1,89.9999972534181
203,106,265504,2,0,B|157:107|115:83,1,89.9999972534181
356,189,265932,2,0,B|378:148|420:124,1,89.9999972534181
256,40,266361,5,0,0:0:0:0:
104,192,266789,1,0,0:0:0:0:
256,344,267218,1,0,0:0:0:0:
408,192,267646,5,0,0:0:0:0:
408,192,267861,1,0,0:0:0:0:
256,103,268075,1,0,0:0:0:0:
256,103,268289,1,0,0:0:0:0:
256,280,268504,1,0,0:0:0:0:
256,280,268718,1,0,0:0:0:0:
184,192,268932,2,0,L|80:192,2,89.9999972534181
336,192,269575,1,0,0:0:0:0:
440,128,269789,1,0,0:0:0:0:
352,40,270004,1,0,0:0:0:0:
256,40,270218,6,0,B|200:40|176:40|152:40|112:112,1,168.750006437302
193,244,271075,1,0,0:0:0:0:
318,139,271289,1,0,0:0:0:0:
396,277,271504,2,0,B|360:344|336:344|312:344|256:344,1,168.750006437302
160,344,272361,2,0,L|96:344,1,56.2500021457673
88,232,272789,6,0,L|64:176,1,56.2500021457673
176,160,273218,2,0,L|208:112,1,56.2500021457673
312,152,273646,2,0,L|368:144,2,56.2500021457673
256,48,274289,1,0,0:0:0:0:
256,48,274504,2,0,P|212:12|143:4,1,112.500004291535
72,104,275146,1,0,0:0:0:0:
146,206,275361,6,0,P|161:242|182:264,1,56.2500021457673
322,278,275789,2,0,P|346:247|354:217,1,56.2500021457673
297,89,276218,2,0,P|258:83|229:92,1,56.2500021457673
256,192,276646,1,0,0:0:0:0:
408,116,280504,6,0,P|420:172|320:288,1,209.999993591309,4|0,0:0|0:0,0:0:0:0:
304,168,281146,1,0,0:0:0:0:
268,48,281361,1,0,0:0:0:0:
184,148,281575,1,0,0:0:0:0:
208,252,281789,2,0,P|157:259|113:233,1,104.999996795654
76,124,282218,2,0,P|100:72|184:52,1,104.999996795654
268,48,282646,2,0,L|321:48,2,52.4999983978272
428,80,283075,6,0,P|460:136|428:280,1,209.999993591309,4|0,0:0|0:0,0:0:0:0:
344,336,283718,2,0,L|296:368,1,52.4999983978272
344,336,283932,2,0,P|296:304|272:256,1,104.999996795654
224,160,284361,2,0,P|197:115|153:87,1,104.999996795654
136,200,284789,2,0,P|80:176|16:208,1,104.999996795654
112,296,285218,2,0,P|163:297|205:267,1,104.999996795654
272,176,285646,6,0,P|376:112|476:236,1,300,4|0,0:0|0:0,0:0:0:0:
368,224,286718,1,0,0:0:0:0:
284,296,286932,2,0,L|220:332,3,52.4999983978272
200,320,287361,2,0,L|136:296,3,52.4999983978272
112,288,287789,2,0,B|52:260|56:200,1,104.999996795654
120,112,288218,6,0,P|157:147|165:198,1,104.999996795654,4|0,0:0|0:0,0:0:0:0:
392,112,288646,2,0,P|354:147|346:198,1,104.999996795654
304,312,289075,2,0,P|256:328|188:288,1,104.999996795654
256,216,289504,1,0,0:0:0:0:
256,108,289718,1,0,0:0:0:0:
156,40,289932,1,0,0:0:0:0:
124,64,290039,1,0,0:0:0:0:
100,96,290146,1,0,0:0:0:0:
88,132,290254,1,0,0:0:0:0:
84,172,290361,1,0,0:0:0:0:
92,208,290468,1,0,0:0:0:0:
108,244,290575,1,0,0:0:0:0:
136,276,290682,1,0,0:0:0:0:
168,296,290789,6,0,P|284:302|366:222,2,209.999993591309,4|0|0,0:0|0:0|0:0,0:0:0:0:
236,184,291861,1,0,0:0:0:0:
216,72,292075,2,0,P|176:28|96:20,1,104.999996795654
236,184,292504,2,0,P|289:210|366:189,1,104.999996795654
444,164,292932,1,0,0:0:0:0:
144,120,293146,2,0,L|88:96,1,52.4999983978272
144,120,293361,6,0,P|104:176|120:312,1,209.999993591309,4|0,0:0|0:0,0:0:0:0:
172,36,294004,2,0,P|218:59|236:107,1,104.999996795654
236,107,294432,1,0,0:0:0:0:
232,208,294646,2,0,L|224:264,3,52.4999983978272
240,296,295075,2,0,L|284:340,3,52.4999983978272
320,332,295504,2,0,L|368:312,1,52.4999983978272
400,288,295718,2,0,L|428:228,1,52.4999983978272
424,204,295932,6,0,P|392:164|312:148,1,104.999996795654,4|0,0:0|0:0,0:0:0:0:
169,145,296361,2,0,P|120:163|88:204,1,104.999996795654,4|0,0:0|0:0,0:0:0:0:
180,292,296789,1,0,0:0:0:0:
332,292,297004,1,0,0:0:0:0:
440,208,297218,2,0,P|432:140|376:88,1,104.999996795654
296,72,297646,1,0,0:0:0:0:
336,188,297861,1,0,0:0:0:0:
288,296,298075,1,0,0:0:0:0:
168,264,298289,1,0,0:0:0:0:
144,224,298396,1,0,0:0:0:0:
140,184,298504,6,2,P|200:64|416:96,1,359.999989013672,4|0,0:0|0:0,0:0:0:0:
464,180,299575,1,0,0:0:0:0:
416,280,299789,2,0,L|392:328,1,52.4999983978272
360,344,300004,2,0,L|280:356,1,52.4999983978272
272,340,300218,2,0,L|208:304,3,52.4999983978272
216,284,300646,2,0,L|228:212,1,52.4999983978272
224,200,300861,2,0,L|188:148,1,52.4999983978272
172,124,301075,6,0,B|141:86|152:60|152:60|220:25|314:60,1,209.999993591309,4|0,0:0|0:0,0:0:0:0:
396,120,301718,2,0,P|404:183|360:228,1,104.999996795654
284,280,302146,2,0,P|276:217|320:172,1,104.999996795654
396,120,302575,1,0,0:0:0:0:
312,36,302789,2,0,P|261:22|212:38,1,104.999996795654
172,136,303218,1,0,0:0:0:0:
200,244,303432,1,0,0:0:0:0:
268,344,303646,6,0,B|452:376|476:140,1,314.999990386963,4|0,0:0|0:0,0:0:0:0:
412,68,304504,1,0,0:0:0:0:
300,36,304718,1,0,0:0:0:0:
192,72,304932,2,0,L|88:112,1,104.999996795654
180,232,305361,2,0,L|254:157,1,104.999996795654
368,232,305789,2,0,L|401:277,1,52.4999983978272
328,257,306004,2,0,L|344:307,1,52.4999983978272
280,273,306218,6,0,P|253:322|104:326,2,209.999993591309,4|0|0,0:0|0:0|0:0,0:0:0:0:
248,160,307289,1,0,0:0:0:0:
80,60,307504,2,0,P|85:111|123:146,1,104.999996795654
248,160,307932,2,0,P|242:108|204:73,2,104.999996795654
192,252,308575,1,0,0:0:0:0:
92,280,308789,6,0,P|124:336|188:348,1,104.999996795654,4|0,0:0|0:0,0:0:0:0:
288,228,309218,2,0,P|256:172|192:160,2,104.999996795654
292,344,309861,1,0,0:0:0:0:
184,284,310075,1,0,0:0:0:0:
112,184,310289,5,0,0:0:0:0:
256,48,310504,1,0,0:0:0:0:
256,336,310718,1,0,0:0:0:0:
400,184,310932,1,0,0:0:0:0:
112,184,311146,1,0,0:0:0:0:
116,76,311361,6,0,B|228:112|324:44|324:44|420:116,1,314.999990386963,4|0,0:0|0:0,0:0:0:0:
312,192,312218,1,0,0:0:0:0:
196,192,312432,1,0,0:0:0:0:
111,282,312646,2,0,B|188:340|188:340|284:272|396:308,1,314.999990386963,0|0,0:0|0:0,0:0:0:0:
440,196,313504,1,0,0:0:0:0:
388,76,313718,1,0,0:0:0:0:
272,44,313932,6,0,P|216:48|176:80,1,104.999996795654,4|0,0:0|0:0,0:0:0:0:
260,144,314361,2,0,P|286:193|279:244,1,104.999996795654,0|0,0:0|0:0,0:0:0:0:
180,212,314789,1,0,0:0:0:0:
272,44,315004,1,0,0:0:0:0:
372,216,315218,2,0,P|380:284|336:336,1,104.999996795654
276,232,315646,2,0,P|276:172|320:132,1,104.999996795654
408,80,316075,1,0,0:0:0:0:
416,212,316289,1,0,0:0:0:0:
324,304,316504,6,0,P|240:328|200:300,1,104.999996795654,4|0,0:0|0:0,0:0:0:0:
252,208,316932,2,0,P|199:201|149:230,1,104.999996795654
154,225,317361,1,0,0:0:0:0:
176,96,317575,1,0,0:0:0:0:
276,48,317789,2,0,P|327:49|369:79,1,104.999996795654
388,112,318111,1,0,0:0:0:0:
392,152,318218,2,0,P|374:200|331:230,2,104.999996795654
344,52,318861,1,0,0:0:0:0:
224,56,319075,6,0,L|160:56,3,52.4999983978272,2|0|0|0,0:0|0:0|0:0|0:0,0:0:0:0:
232,88,319504,2,0,L|174:117,3,52.4999983978272
248,112,319932,2,0,L|214:166,3,52.4999983978272
280,136,320361,6,2,P|313:183|304:280,1,150,2|6,0:0|0:0,0:0:0:0:
144,72,321646,6,0,P|120:112|112:160,1,89.9999972534181,4|0,0:0|0:0,0:0:0:0:
368,312,322075,2,0,P|392:272|400:224,1,89.9999972534181
168,272,322504,1,0,0:0:0:0:
344,112,322718,1,0,0:0:0:0:
136,304,322932,6,0,P|176:328|224:336,1,89.9999972534181,4|0,0:0|0:0,0:0:0:0:
376,80,323361,2,0,P|335:56|288:48,1,89.9999972534181
336,280,323789,1,0,0:0:0:0:
176,104,324004,1,0,0:0:0:0:
368,80,324218,6,0,B|352:104|416:136|336:176,1,89.9999972534181,4|0,0:0|0:0,0:0:0:0:
256,120,324646,1,0,0:0:0:0:
256,264,324861,1,0,0:0:0:0:
144,304,325075,2,0,B|160:280|96:248|176:208,1,89.9999972534181
323,308,325504,5,4,0:0:0:0:
188,75,325718,1,0,0:0:0:0:
188,308,325932,1,0,0:0:0:0:
323,75,326146,1,0,0:0:0:0:
121,191,326361,1,0,0:0:0:0:
391,192,326575,1,0,0:0:0:0:
200,136,326789,6,0,B|160:112|160:112|144:64,1,89.9999972534181,4|0,0:0|0:0,0:0:0:0:
200,248,327218,2,0,B|176:288|176:288|127:304,1,89.9999972534181
312,248,327646,1,0,0:0:0:0:
312,136,328075,6,0,B|352:112|352:112|368:64,1,89.9999972534181,4|0,0:0|0:0,0:0:0:0:
312,248,328504,2,0,B|336:288|336:288|384:304,1,89.9999972534181
200,248,328932,1,0,0:0:0:0:
200,248,329146,1,0,0:0:0:0:
277,170,329361,6,0,L|329:118,3,44.999998626709,4|0|0|0,0:0|0:0|0:0|0:0,0:0:0:0:
277,213,329789,2,0,L|329:265,3,44.999998626709
234,213,330218,2,0,L|182:265,3,44.999998626709
234,170,330646,2,0,L|182:118,3,44.999998626709,4|0|0|0,0:0|0:0|0:0|0:0,0:0:0:0:
256,128,331075,1,0,0:0:0:0:
168,48,331289,1,0,0:0:0:0:
344,48,331504,1,0,0:0:0:0:
432,192,331718,1,0,0:0:0:0:
368,320,331932,6,0,L|264:320,2,89.9999972534181,4|0|0,0:0|0:0|0:0,0:0:0:0:
256,192,332575,1,0,0:0:0:0:
144,64,332789,2,0,L|234:64,2,89.9999972534181,0|0|4,0:0|0:0|0:0,0:0:0:0:
72,160,333432,1,0,0:0:0:0:
120,288,333646,1,0,0:0:0:0:
256,328,333861,1,0,0:0:0:0:
256,192,334075,1,0,0:0:0:0:
424,88,334504,6,0,P|392:48|320:32,1,89.9999972534181,4|0,0:0|0:0,0:0:0:0:
88,88,334932,2,0,P|120:48|192:32,1,89.9999972534181
256,128,335361,2,0,L|256:176,3,44.999998626709
256,224,335789,2,0,B|290:265|290:265|334:279,2,89.9999972534181,0|0|0,0:0|0:0|0:0,0:0:0:0:
256,224,336432,2,0,B|221:265|221:265|177:279,2,89.9999972534181
344,136,337075,5,4,0:0:0:0:
168,136,337289,1,0,0:0:0:0:
296,56,337504,1,0,0:0:0:0:
216,56,337718,1,0,0:0:0:0:
256,176,337932,6,0,L|256:256,1,75,0|4,0:0|0:0,0:0:0:0:
360,296,338575,5,0,0:0:0:0:
256,376,338789,1,0,0:0:0:0:
152,296,339004,1,0,0:0:0:0:
256,376,339218,1,0,0:0:0:0:
360,296,339432,1,8,0:0:0:0:
400,184,339646,6,0,P|400:128|384:88,1,89.9999972534181
288,192,340075,2,0,P|272:248|224:288,1,89.9999972534181
112,184,340504,2,0,P|112:128|128:88,1,89.9999972534181
224,192,340932,2,0,P|240:248|288:288,1,89.9999972534181
352,336,341361,1,0,0:0:0:0:
392,344,341468,1,0,0:0:0:0:
432,336,341575,1,0,0:0:0:0:
464,304,341682,1,0,0:0:0:0:
488,264,341789,1,0,0:0:0:0:
496,224,341896,1,0,0:0:0:0:
488,184,342004,1,0,0:0:0:0:
472,144,342111,1,0,0:0:0:0:
448,112,342218,6,0,P|380:56|256:72,1,194.999991073609,4|0,0:0|0:0,0:0:0:0:
196,128,342861,1,0,0:0:0:0:
152,224,343075,1,0,0:0:0:0:
192,324,343289,1,0,0:0:0:0:
300,352,343504,2,0,P|408:324|456:236,1,194.999991073609,4|0,0:0|0:0,0:0:0:0:
452,148,344146,1,0,0:0:0:0:
384,60,344361,1,0,0:0:0:0:
276,32,344575,1,0,0:0:0:0:
164,48,344789,6,0,P|91:112|98:214,1,194.999991073609,4|0,0:0|0:0,0:0:0:0:
152,292,345432,1,0,0:0:0:0:
248,332,345646,1,0,0:0:0:0:
356,300,345861,1,0,0:0:0:0:
444,352,346075,2,0,P|450:258|379:197,1,194.999991073609,4|0,0:0|0:0,0:0:0:0:
268,152,346718,1,0,0:0:0:0:
364,80,346932,1,0,0:0:0:0:
280,252,347361,5,4,0:0:0:0:
160,272,347575,2,0,P|116:244|96:184,1,97.4999955368044
200,176,348004,1,0,0:0:0:0:
240,72,348218,2,0,P|284:100|304:160,1,97.4999955368044
400,192,348646,2,0,P|316:251|223:217,1,194.999991073609,4|0,0:0|0:0,0:0:0:0:
148,152,349289,1,0,0:0:0:0:
76,68,349504,2,0,B|24:108|48:184,1,97.4999955368044
64,268,349932,6,0,P|126:334|222:328,1,194.999991073609,4|0,0:0|0:0,0:0:0:0:
328,276,350575,1,0,0:0:0:0:
392,184,350789,1,0,0:0:0:0:
400,76,351004,1,0,0:0:0:0:
288,40,351218,2,0,L|232:24,1,48.7499977684022,4|0,0:0|0:0,0:0:0:0:
248,80,351432,2,0,L|168:56,1,48.7499977684022
208,120,351646,2,0,L|144:104,4,48.7499977684022
264,276,352504,6,0,P|316:280|380:236,1,97.4999955368044,4|0,0:0|0:0,0:0:0:0:
248,108,352932,2,0,P|196:104|132:148,1,97.4999955368044,4|0,0:0|0:0,0:0:0:0:
120,228,353361,1,0,0:0:0:0:
228,212,353575,1,0,0:0:0:0:
344,192,353789,2,0,L|460:168,2,97.4999955368044
228,212,354431,1,0,0:0:0:0:
160,128,354646,1,0,0:0:0:0:
276,112,354861,1,0,0:0:0:0:
380,68,355075,6,0,P|388:136|348:188,1,97.4999955368044,4|0,0:0|0:0,0:0:0:0:
296,224,355504,2,0,P|336:260|396:260,1,97.4999955368044
192,316,355932,2,0,L|220:260,3,48.7499977684022
164,320,356361,2,0,P|110:298|59:180,1,194.999991073609,4|0,0:0|0:0,0:0:0:0:
180,204,357004,2,0,P|204:156|252:140,1,97.4999955368044
120,88,357432,1,0,0:0:0:0:
242,140,357646,6,0,P|318:147|388:277,1,194.999991073609,4|0,0:0|0:0,0:0:0:0:
460,32,358504,2,0,P|428:80|372:96,1,97.4999955368044
288,104,358932,1,4,0:0:0:0:
172,124,359146,2,0,P|128:145|104:186,1,97.4999955368044
216,228,359575,1,0,0:0:0:0:
240,260,359682,1,0,0:0:0:0:
276,280,359789,2,0,P|335:286|383:251,1,97.4999955368044
376,136,360218,5,4,0:0:0:0:
368,270,360432,1,0,0:0:0:0:
256,192,360646,1,0,0:0:0:0:
256,192,361075,5,4,0:0:0:0:
256,192,361504,5,4,0:0:0:0:
256,192,361718,12,0,363218,0:0:0:0:
256,192,363646,5,0,0:0:0:0:
232,48,364075,6,2,B|360:96|449:168|449:168|448:272|320:344,1,450.000017166138,4|0,0:0|0:0,0:0:0:0:
256,208,365146,1,0,0:0:0:0:
166,328,365361,2,2,B|64:272|62:168|62:168|152:96|280:48,1,450.000017166138
400,112,366432,1,0,0:0:0:0:
404,240,366646,6,0,P|368:296|296:312,1,112.500004291535,4|0,0:0|0:0,0:0:0:0:
404,144,367075,2,0,P|368:88|296:72,1,112.500004291535,0|0,0:0|0:0,0:0:0:0:
296,184,367504,1,0,0:0:0:0:
184,152,367718,1,0,0:0:0:0:
144,144,367825,1,0,0:0:0:0:
104,144,367932,2,0,P|72:192|88:264,1,112.500004291535
120,344,368361,2,0,P|172:304|176:240,1,112.500004291535
192,140,368789,2,0,L|226:81,1,56.2500021457673
252,72,369004,2,0,L|312:92,1,56.2500021457673
336,104,369218,6,0,P|376:168|116:252,1,450.000017166138,4|0,0:0|0:0,0:0:0:0:
60,144,370289,2,0,L|116:120,1,56.2500021457673
60,144,370504,2,0,L|92:216,2,56.2500021457673
124,40,370932,2,0,P|179:34|229:58,1,112.500004291535
304,136,371361,1,0,0:0:0:0:
364,240,371575,1,0,0:0:0:0:
304,136,371789,6,0,P|264:184|192:180,1,112.500004291535,4|0,0:0|0:0,0:0:0:0:
104,68,372218,2,0,P|164:64|232:116,1,112.500004291535
220,188,372646,1,0,0:0:0:0:
184,292,372861,1,0,0:0:0:0:
72,288,373075,2,0,L|72:232,1,56.2500021457673
92,200,373289,2,0,L|132:160,1,56.2500021457673
168,148,373504,2,0,L|228:160,1,56.2500021457673
260,152,373718,2,0,L|320:128,1,56.2500021457673
352,136,373932,2,0,L|408:172,1,56.2500021457673
168,148,374361,6,0,P|190:249|310:309,1,225.000008583069,4|0,0:0|0:0,0:0:0:0:
324,312,374896,1,0,0:0:0:0:
364,312,375004,2,0,P|416:292|457:240,1,112.500004291535
348,200,375432,1,0,0:0:0:0:
272,128,375646,2,0,P|216:56|228:8,1,112.500004291535
352,64,376075,2,0,P|408:136|396:184,1,112.500004291535
380,256,376504,2,0,L|364:320,2,56.2500021457673
264,344,376932,6,2,P|240:160|100:24,1,337.500012874604,4|0,0:0|0:0,0:0:0:0:
84,136,377789,1,0,0:0:0:0:
128,240,378004,1,0,0:0:0:0:
228,316,378218,2,0,L|332:271,1,112.500004291535
456,208,378646,2,0,L|352:162,1,112.500004291535
240,240,379075,1,0,0:0:0:0:
200,256,379182,1,0,0:0:0:0:
160,280,379289,1,0,0:0:0:0:
128,304,379396,1,0,0:0:0:0:
104,328,379504,6,0,B|64:368|64:368|88:232|48:80,1,337.500012874604,4|0,0:0|0:0,0:0:0:0:
50,89,380361,1,0,0:0:0:0:
220,72,380575,2,0,L|180:116,1,56.2500021457673
220,72,380789,2,0,P|244:128|308:160,1,112.500004291535
396,156,381218,2,0,P|380:216|308:260,1,112.500004291535
228,288,381646,1,0,0:0:0:0:
144,216,381861,1,0,0:0:0:0:
256,192,382075,12,0,384004,0:0:0:0:
256,72,384218,5,0,0:0:0:0:
256,184,384432,1,0,0:0:0:0:
256,288,384646,2,0,P|296:344|352:352,1,112.500004291535,4|0,0:0|0:0,0:0:0:0:
384,352,384968,1,0,0:0:0:0:
432,336,385075,2,0,B|472:312|480:264|476:120,1,225.000008583069
384,64,385718,1,0,0:0:0:0:
256,48,385932,2,0,B|256:120|256:128|280:176,1,112.500004291535
256,336,386361,2,0,B|256:264|256:256|232:208,1,112.500004291535
216,184,386682,1,0,0:0:0:0:
184,136,386789,1,0,0:0:0:0:
304,112,387004,1,0,0:0:0:0:
120,232,387218,6,2,B|88:288|168:360|176:360|184:360|496:360,1,450.000017166138,4|0,0:0|0:0,0:0:0:0:
456,312,388182,1,0,0:0:0:0:
432,264,388289,1,0,0:0:0:0:
408,216,388396,1,0,0:0:0:0:
384,168,388504,2,0,L|352:112,3,56.2500021457673
280,168,388932,2,0,L|312:112,3,56.2500021457673
208,112,389361,2,0,L|264:64,1,56.2500021457673
152,32,389575,2,0,L|216:8,1,56.2500021457673
288,16,389789,6,2,B|408:32|472:136|472:136|464:300|464:300|376:328,1,450.000017166138,4|0,0:0|0:0,0:0:0:0:
276,312,390861,1,0,0:0:0:0:
164,284,391075,2,0,P|110:271|80:225,1,112.500004291535
76,184,391396,1,0,0:0:0:0:
84,140,391504,2,0,P|113:93|166:80,1,112.500004291535
296,96,391932,2,0,L|352:128,3,56.2500021457673
276,128,392361,6,0,P|244:172|252:248,1,112.500004291535,4|0,0:0|0:0,0:0:0:0:
320,292,392789,2,0,P|256:328|204:316,1,112.500004291535
136,256,393218,2,0,L|144:200,1,56.2500021457673
168,160,393432,2,0,L|216:104,1,56.2500021457673
248,88,393646,2,0,L|304:72,3,56.2500021457673
352,80,394075,2,0,L|405:103,3,56.2500021457673
440,136,394504,1,0,0:0:0:0:
352,228,394718,1,0,0:0:0:0:
236,280,394932,6,2,B|188:192|76:160|44:112|44:72|84:16|164:-16|220:48|244:128,1,450.000017166138,4|0,0:0|0:0,0:0:0:0:
256,192,396004,1,0,0:0:0:0:
288,84,396218,2,2,B|293:49|349:-7|429:17|469:73|469:113|437:161|325:193|277:281,1,450.000017166138
160,308,397289,1,0,0:0:0:0:
84,224,397504,2,0,B|12:160|148:104|28:16,2,225.000008583069
176,140,398575,1,0,0:0:0:0:
268,60,398789,2,0,P|324:40|388:52,1,112.500004291535
404,68,399111,1,0,0:0:0:0:
436,96,399218,2,0,P|468:156|456:208,1,112.500004291535
356,288,399646,1,0,0:0:0:0:
344,168,399861,1,0,0:0:0:0:
356,288,400075,6,0,P|232:292|168:212,2,225.000008583069
284,184,401146,1,0,0:0:0:0:
240,92,401361,2,0,P|184:72|120:88,1,112.500004291535
272,292,401789,2,0,P|328:312|392:296,1,112.500004291535
240,92,402218,2,0,L|224:148,3,56.2500021457673
240,92,402646,6,0,B|176:76|120:128|112:168|112:168|84:272,2,225.000008583069,4|0|0,0:0|0:0|0:0,0:0:0:0:
252,220,403718,1,0,0:0:0:0:
368,264,403932,1,0,0:0:0:0:
376,216,404039,1,0,0:0:0:0:
352,168,404146,1,0,0:0:0:0:
304,144,404254,1,0,0:0:0:0:
256,136,404361,1,0,0:0:0:0:
208,144,404468,1,0,0:0:0:0:
160,160,404575,1,0,0:0:0:0:
128,200,404682,1,0,0:0:0:0:
120,248,404789,1,0,0:0:0:0:
144,288,404896,1,0,0:0:0:0:
192,304,405004,1,0,0:0:0:0:
240,280,405111,1,0,0:0:0:0:
280,248,405218,6,2,B|288:192|304:128|416:24|416:24|416:140|464:200,1,450.000017166138,4|0,0:0|0:0,0:0:0:0:
400,296,406289,1,0,0:0:0:0:
272,316,406504,2,0,P|208:320|148:272,1,112.500004291535
167,86,406932,2,0,P|216:61|272:68,1,112.500004291535
256,192,407361,1,0,0:0:0:0:
124,192,407575,1,0,0:0:0:0:
256,192,407789,6,0,P|280:241|330:263,2,112.500004291535
364,156,408432,1,0,0:0:0:0:
288,72,408646,1,0,0:0:0:0:
368,304,410361,6,0,P|376:240|408:192,1,112.500004291535,4|0,0:0|0:0,0:0:0:0:
144,80,410789,2,0,P|136:144|104:192,1,112.500004291535
368,80,411218,2,0,P|304:72|256:40,1,112.500004291535
144,304,411646,2,0,P|208:312|256:344,1,112.500004291535
184,208,412075,1,0,0:0:0:0:
328,176,412289,1,0,0:0:0:0:
272,264,412504,1,0,0:0:0:0:
240,120,412718,1,0,0:0:0:0:
320,232,412932,6,0,B|320:288|320:304|376:336,1,112.500004291535,4|0,0:0|0:0,0:0:0:0:
192,152,413361,2,0,B|192:96|192:80|136:48,1,112.500004291535
344,112,413789,1,0,0:0:0:0:
256,192,414004,1,0,0:0:0:0:
168,272,414218,1,0,0:0:0:0:
344,272,414432,1,0,0:0:0:0:
256,192,414646,1,0,0:0:0:0:
168,112,414861,1,0,0:0:0:0:
280,32,415075,1,0,0:0:0:0:
408,72,415289,1,0,0:0:0:0:
488,168,415504,6,0,P|462:246|341:315,1,225.000008583069,4|0,0:0|0:0,0:0:0:0:
344,200,416146,1,0,0:0:0:0:
158,333,416361,2,0,P|211:280|220:192,1,112.500004291535
114,94,416789,2,0,P|167:147|256:156,1,112.500004291535
353,50,417218,2,0,P|300:103|291:192,1,112.500004291535
397,289,417646,2,0,P|344:236|256:227,1,112.500004291535
80,264,418075,6,2,B|152:184|96:48|96:48|192:120|336:72,1,450.000017166138,4|0,0:0|0:0,0:0:0:0:
216,184,419146,1,0,0:0:0:0:
160,296,419361,2,0,P|248:304|288:288,1,112.500004291535
320,168,419789,2,0,P|375:160|428:176,2,112.500004291535
216,184,420432,1,0,0:0:0:0:
301,329,420646,1,0,0:0:0:0:
352,88,420861,5,0,0:0:0:0:
392,240,421075,1,0,0:0:0:0:
216,176,421289,2,0,P|224:96|208:32,2,112.500004291535
160,296,421932,1,0,0:0:0:0:
120,144,422146,1,0,0:0:0:0:
296,208,422361,2,0,P|288:288|304:352,2,112.500004291535
232,48,423004,6,0,B|176:64|176:64|112:112,1,112.500004291535,0|4,0:0|0:0,0:0:0:0:
360,128,423432,2,0,B|400:168|400:168|480:192,1,112.500004291535
160,208,423861,2,0,B|120:248|120:248|40:272,1,112.500004291535
328,296,424289,2,0,B|384:312|384:312|448:360,1,112.500004291535
164,48,425361,5,0,0:0:0:0:
288,84,425575,1,0,0:0:0:0:
376,160,425789,6,2,P|256:312|144:136,1,450.000017166138,4|0,0:0|0:0,0:0:0:0:
256,192,426861,1,0,0:0:0:0:
296,92,427075,2,0,P|340:56|420:64,1,112.500004291535
216,92,427504,2,0,P|172:56|92:64,1,112.500004291535
132,168,427932,1,0,0:0:0:0:
176,272,428146,1,0,0:0:0:0:
288,316,428361,6,0,P|376:316|428:224,1,194.999991073609
336,144,430932,6,0,L|344:200,3,56.2500021457673,4|0|0|0,0:0|0:0|0:0|0:0,0:0:0:0:
336,248,431361,2,0,L|312:304,3,56.2500021457673
272,336,431789,2,0,L|208:344,1,56.2500021457673
168,320,432004,2,0,L|120:272,1,56.2500021457673
112,232,432218,2,0,L|96:176,3,56.2500021457673
120,128,432646,2,0,L|152:72,3,56.2500021457673
200,64,433075,2,0,L|256:64,1,56.2500021457673
304,96,433289,2,0,L|328:152,1,56.2500021457673
312,200,433504,6,0,L|272:240,3,56.2500021457673,4|0|0|0,0:0|0:0|0:0|0:0,0:0:0:0:
224,264,433932,2,0,L|160:256,3,56.2500021457673
120,224,434361,2,0,L|96:160,1,56.2500021457673
112,120,434575,2,0,L|160:56,1,56.2500021457673
200,56,434789,2,0,L|256:56,1,56.2500021457673
312,64,435004,2,0,L|360:96,1,56.2500021457673
392,144,435218,2,0,L|424:208,1,56.2500021457673
400,248,435432,2,0,L|360:288,1,56.2500021457673
312,320,435646,1,0,0:0:0:0:
256,192,435861,1,0,0:0:0:0:
184,64,436075,6,2,B|8:192|80:344|80:344|240:344,1,450.000017166138,4|0,0:0|0:0,0:0:0:0:
304,248,437146,1,0,0:0:0:0:
184,64,437361,2,0,P|216:120|272:144,1,112.500004291535
388,136,437789,2,0,P|355:80|285:57,2,112.500004291535
388,240,438432,1,0,0:0:0:0:
312,332,438646,6,0,P|256:352|184:304,1,112.500004291535,4|0,0:0|0:0,0:0:0:0:
120,248,439075,1,0,0:0:0:0:
228,168,439289,1,0,0:0:0:0:
228,168,439396,1,0,0:0:0:0:
228,168,439504,1,0,0:0:0:0:
104,112,439718,1,0,0:0:0:0:
120,248,439932,1,0,0:0:0:0:
228,168,440146,1,0,0:0:0:0:
216,40,440361,1,0,0:0:0:0:
104,112,440575,1,0,0:0:0:0:
228,168,440789,1,0,0:0:0:0:
216,40,441004,1,0,0:0:0:0:
104,112,441218,5,4,0:0:0:0:
160,232,441432,1,0,0:0:0:0:
292,276,441646,1,0,0:0:0:0:
416,240,441861,1,0,0:0:0:0:
432,120,442075,1,0,0:0:0:0:
344,40,442289,1,0,0:0:0:0:
224,32,442504,1,0,0:0:0:0:
120,64,442718,1,0,0:0:0:0:
80,176,442932,5,0,0:0:0:0:
144,288,443146,1,0,0:0:0:0:
264,336,443361,1,0,0:0:0:0:
368,296,443575,1,0,0:0:0:0:
414,199,443789,5,0,0:0:0:0:
403,151,443896,1,0,0:0:0:0:
380,106,444004,1,0,0:0:0:0:
346,70,444111,1,0,0:0:0:0:
304,46,444218,1,0,0:0:0:0:
256,34,444325,1,0,0:0:0:0:
206,35,444432,1,0,0:0:0:0:
159,51,444539,1,0,0:0:0:0:
118,78,444646,1,0,0:0:0:0:
89,118,444754,1,0,0:0:0:0:
77,165,444861,1,0,0:0:0:0:
82,214,444968,1,0,0:0:0:0:
104,260,445075,2,0,L|132:300,16,28.1250010728836
304,224,446361,6,0,P|264:191|252:143,1,97.4999955368044
388,132,446789,2,0,P|432:164|444:208,1,97.4999955368044
392,324,447218,1,0,0:0:0:0:
304,224,447432,1,0,0:0:0:0:
288,100,447646,2,0,P|311:54|381:32,1,97.4999955368044
388,132,448075,2,0,P|364:177|294:199,1,97.4999955368044
188,200,448504,2,0,P|137:209|96:269,1,97.4999955368044
324,200,448932,6,0,P|306:292|220:329,2,194.999991073609
276,64,450004,1,0,0:0:0:0:
148,72,450218,2,0,L|133:133,3,48.7499977684022
120,152,450646,2,0,L|84:197,1,48.7499977684022
76,224,450861,2,0,L|96:268,1,48.7499977684022
116,300,451075,2,0,P|144:324|216:324,1,97.4999955368044
328,272,451504,5,0,0:0:0:0:
372,144,451718,1,0,0:0:0:0:
240,172,451932,1,0,0:0:0:0:
372,144,452146,1,0,0:0:0:0:
272,52,452361,2,0,P|228:24|152:36,1,97.4999955368044
96,92,452789,1,0,0:0:0:0:
132,200,453004,1,0,0:0:0:0:
248,260,453218,1,0,0:0:0:0:
132,200,453432,1,0,0:0:0:0:
236,136,453646,1,0,0:0:0:0:
356,204,453861,1,0,0:0:0:0:
312,320,454075,6,0,P|248:288|184:288,1,97.4999955368044
200,64,454504,2,0,P|264:96|328:96,1,97.4999955368044
416,192,454932,2,0,L|432:240,1,48.7499977684022
368,200,455146,2,0,L|368:256,1,48.7499977684022
320,208,455361,2,0,P|252:219|200:176,1,97.4999955368044
152,100,455789,1,0,0:0:0:0:
288,84,456004,1,0,0:0:0:0:
224,208,456218,1,0,0:0:0:0:
188,224,456325,1,0,0:0:0:0:
144,224,456432,1,0,0:0:0:0:
104,208,456539,1,0,0:0:0:0:
76,188,456646,6,0,P|48:140|60:80,1,97.4999955368044
180,136,457075,2,0,P|200:172|200:236,1,97.4999955368044
100,312,457504,1,0,0:0:0:0:
76,188,457718,1,0,0:0:0:0:
180,136,457932,2,0,B|248:108|248:108|304:88|368:136,1,194.999991073609
440,224,458575,1,0,0:0:0:0:
376,320,458789,1,0,0:0:0:0:
256,336,459004,1,0,0:0:0:0:
144,288,459218,6,0,L|60:212,1,97.4999955368044
236,208,459646,2,0,L|196:120,1,97.4999955368044
356,192,460075,2,0,L|360:72,1,97.4999955368044
480,216,460504,2,0,L|468:268,2,48.7499977684022
359,94,460932,1,0,0:0:0:0:
196,120,461146,1,0,0:0:0:0:
72,224,461361,1,0,0:0:0:0:
224,272,461575,1,0,0:0:0:0:
196,120,461789,6,0,P|284:64|384:96,1,194.999991073609
304,184,462432,1,0,0:0:0:0:
212,268,462646,1,0,0:0:0:0:
116,200,462861,1,0,0:0:0:0:
168,80,463075,2,0,P|269:42|355:85,1,194.999991073609
408,192,463718,1,0,0:0:0:0:
284,260,463932,1,0,0:0:0:0:
160,224,464146,1,0,0:0:0:0:
148,100,464361,6,0,P|196:112|230:146,1,97.4999955368044
372,280,464789,2,0,P|324:268|289:233,1,97.4999955368044
364,100,465218,2,0,P|316:112|281:146,1,97.4999955368044
140,280,465646,2,0,P|188:268|222:233,1,97.4999955368044
312,128,466075,2,0,L|344:72,1,48.7499977684022
352,152,466289,2,0,L|400:112,1,48.7499977684022
384,184,466504,2,0,P|416:228|416:296,1,97.4999955368044
136,48,466932,6,0,L|152:112,3,48.7499977684022
240,88,467361,2,0,L|232:144,1,48.7499977684022
328,144,467575,2,0,L|296:200,1,48.7499977684022
400,224,467789,2,0,L|352:264,3,48.7499977684022
288,312,468218,2,0,L|336:360,1,48.7499977684022
192,264,468432,2,0,L|208:328,1,48.7499977684022
112,192,468646,2,0,L|112:248,1,48.7499977684022
88,80,468861,2,0,L|48:128,1,48.7499977684022
184,48,469075,2,0,L|192:96,1,48.7499977684022
280,72,469289,2,0,L|304:120,1,48.7499977684022
384,144,469504,6,0,L|432:176,3,48.7499977684022
440,224,469932,2,0,L|440:288,1,48.7499977684022
416,320,470146,2,0,L|368:344,1,48.7499977684022
320,352,470361,2,0,L|256:328,1,48.7499977684022
232,312,470575,2,0,L|184:272,1,48.7499977684022
160,240,470789,2,0,L|128:168,3,48.7499977684022
128,144,471218,2,0,L|136:96,1,48.7499977684022
176,56,471432,2,0,L|224:32,1,48.7499977684022
272,24,471646,2,0,L|328:32,1,48.7499977684022
368,64,471861,2,0,L|400:104,1,48.7499977684022
416,152,472075,6,0,L|424:208,4,48.7499977684022
160,56,472932,6,0,L|120:96,1,48.7499977684022
104,136,473146,2,0,L|96:184,1,48.7499977684022
104,232,473361,2,0,L|128:280,1,48.7499977684022
176,304,473575,2,0,L|232:312,3,48.7499977684022
280,304,474004,2,0,L|336:280,1,48.7499977684022
264,224,474218,2,0,L|320:240,1,48.7499977684022
288,144,474432,2,0,L|336:184,1,48.7499977684022
344,80,474646,6,0,L|376:136,3,48.7499977684022
392,168,475075,2,0,L|400:232,1,48.7499977684022
384,264,475289,2,0,L|344:320,1,48.7499977684022
312,328,475504,2,0,L|256:344,1,48.7499977684022
208,336,475718,2,0,L|160:328,1,48.7499977684022
112,296,475932,2,0,L|88:272,16,24.3749988842011
104,56,477218,6,0,P|168:96|232:88,1,97.4999955368044
408,56,477646,2,0,P|344:96|280:88,1,97.4999955368044
256,160,478075,2,0,L|256:272,2,97.4999955368044
256,56,478718,1,0,0:0:0:0:
140,120,478932,1,0,0:0:0:0:
371,128,479146,1,0,0:0:0:0:
140,232,479361,1,0,0:0:0:0:
371,240,479575,1,0,0:0:0:0:
264,304,479789,6,0,P|176:320|128:304,1,97.4999955368044
264,80,480218,2,0,P|176:64|128:80,1,97.4999955368044
136,192,480646,1,0,0:0:0:0:
256,192,480861,1,0,0:0:0:0:
376,192,481075,1,0,0:0:0:0:
376,80,481289,2,0,B|336:40|336:40|248:40,1,97.4999955368044
376,304,481718,2,0,B|336:344|336:344|248:344,1,97.4999955368044
184,336,482146,1,0,0:0:0:0:
96,264,482361,6,0,P|80:208|120:112,1,150,4|0,0:0|0:0,0:0:0:0:
256,48,483218,1,0,0:0:0:0:
403,123,483646,2,0,P|431:191|416:264,1,150,4|0,0:0|0:0,0:0:0:0:
256,192,484504,5,0,0:0:0:0:
256,192,484932,5,0,0:0:0:0:
256,192,485039,12,4,486218,0:0:0:0:
