osu file format v14

[General]
AudioFilename: John Murphy - The Surface Of The Sun.mp3
AudioLeadIn: 0
PreviewTime: 36035
Countdown: 0
SampleSet: Soft
StackLeniency: 0.7
Mode: 3
LetterboxInBreaks: 0
SpecialStyle: 1
WidescreenStoryboard: 1

[Editor]
DistanceSpacing: 1
BeatDivisor: 4
GridSize: 8
TimelineZoom: 2.200005

[Metadata]
Title:The Surface Of The Sun
TitleUnicode:The Surface Of The Sun
Artist:John Murphy
ArtistUnicode:John Murphy
Creator:Akaix3
Version:Hard
Source:Sunshine
Tags:Piano Soundtrack Adagio in D Minor
BeatmapID:628433
BeatmapSetID:277311

[Difficulty]
HPDrainRate:8
CircleSize:7
OverallDifficulty:8
ApproachRate:5
SliderMultiplier:1.4
SliderTickRate:1

[Events]
//Background and Video events
0,0,"123123.jpg",0,0
//Break Periods
//Storyboard Layer 0 (Background)
//Storyboard Layer 1 (Fail)
//Storyboard Layer 2 (Pass)
//Storyboard Layer 3 (Foreground)
//Storyboard Sound Samples

[TimingPoints]
35,375,4,2,0,5,1,0
316,-100,4,2,0,5,0,0
36035,-100,4,2,0,5,0,1
89753,-100,4,2,0,5,0,0

[HitObjects]
182,192,35,5,0,0:0:0:0:
256,192,222,1,0,0:0:0:0:
329,192,410,1,0,0:0:0:0:
402,192,597,1,0,0:0:0:0:
256,192,785,1,0,0:0:0:0:
109,192,972,1,0,0:0:0:0:
475,192,1160,5,0,0:0:0:0:
182,192,1160,1,0,0:0:0:0:
256,192,1347,1,0,0:0:0:0:
109,192,1535,1,0,0:0:0:0:
182,192,1722,1,0,0:0:0:0:
256,192,1910,1,0,0:0:0:0:
329,192,2097,1,0,0:0:0:0:
475,192,2285,1,0,0:0:0:0:
182,192,2285,1,0,0:0:0:0:
329,192,2472,1,0,0:0:0:0:
256,192,2660,1,0,0:0:0:0:
182,192,2847,1,0,0:0:0:0:
329,192,3035,1,0,0:0:0:0:
256,192,3222,1,0,0:0:0:0:
109,192,3410,1,0,0:0:0:0:
402,192,3410,1,0,0:0:0:0:
329,192,3597,1,0,0:0:0:0:
182,192,3785,1,0,0:0:0:0:
36,192,3972,1,0,0:0:0:0:
256,192,4160,1,0,0:0:0:0:
182,192,4347,1,0,0:0:0:0:
329,192,4535,1,0,0:0:0:0:
36,192,4535,1,0,0:0:0:0:
475,192,4722,1,0,0:0:0:0:
109,192,4910,1,0,0:0:0:0:
256,192,5097,1,0,0:0:0:0:
402,192,5285,1,0,0:0:0:0:
109,192,5472,1,0,0:0:0:0:
182,192,5660,1,0,0:0:0:0:
475,192,5660,1,0,0:0:0:0:
329,192,5847,1,0,0:0:0:0:
109,192,6035,1,0,0:0:0:0:
36,192,6222,1,0,0:0:0:0:
256,192,6410,1,0,0:0:0:0:
402,192,6597,1,0,0:0:0:0:
475,192,6785,1,0,0:0:0:0:
36,192,6785,1,0,0:0:0:0:
256,192,6972,1,0,0:0:0:0:
182,192,7160,1,0,0:0:0:0:
329,192,7347,1,0,0:0:0:0:
256,192,7535,1,0,0:0:0:0:
182,192,7722,1,0,0:0:0:0:
109,192,7910,1,0,0:0:0:0:
402,192,7910,1,0,0:0:0:0:
182,192,8097,1,0,0:0:0:0:
475,192,8285,1,0,0:0:0:0:
329,192,8472,1,0,0:0:0:0:
402,192,8660,1,0,0:0:0:0:
256,192,8847,1,0,0:0:0:0:
36,192,9035,1,0,0:0:0:0:
329,192,9035,1,0,0:0:0:0:
182,192,9222,1,0,0:0:0:0:
109,192,9410,1,0,0:0:0:0:
36,192,9597,1,0,0:0:0:0:
256,192,9785,1,0,0:0:0:0:
182,192,9972,1,0,0:0:0:0:
109,192,10160,1,0,0:0:0:0:
329,192,10160,1,0,0:0:0:0:
475,192,10347,1,0,0:0:0:0:
402,192,10535,1,0,0:0:0:0:
329,192,10722,1,0,0:0:0:0:
256,192,10910,1,0,0:0:0:0:
36,192,11097,1,0,0:0:0:0:
182,192,11285,1,0,0:0:0:0:
475,192,11285,1,0,0:0:0:0:
256,192,11472,1,0,0:0:0:0:
329,192,11660,1,0,0:0:0:0:
402,192,11847,1,0,0:0:0:0:
256,192,12035,1,0,0:0:0:0:
109,192,12222,1,0,0:0:0:0:
182,192,12410,1,0,0:0:0:0:
329,192,12410,1,0,0:0:0:0:
256,192,12597,1,0,0:0:0:0:
109,192,12785,1,0,0:0:0:0:
182,192,12972,1,0,0:0:0:0:
402,192,13160,1,0,0:0:0:0:
256,192,13347,1,0,0:0:0:0:
109,192,13535,1,0,0:0:0:0:
475,192,13535,1,0,0:0:0:0:
36,192,13722,1,0,0:0:0:0:
256,192,13910,1,0,0:0:0:0:
329,192,14097,1,0,0:0:0:0:
182,192,14285,1,0,0:0:0:0:
402,192,14472,1,0,0:0:0:0:
256,192,14660,1,0,0:0:0:0:
36,192,14660,1,0,0:0:0:0:
475,192,14847,1,0,0:0:0:0:
329,192,15035,1,0,0:0:0:0:
256,192,15222,1,0,0:0:0:0:
109,192,15410,1,0,0:0:0:0:
36,192,15597,1,0,0:0:0:0:
109,192,15785,1,0,0:0:0:0:
256,192,15785,1,0,0:0:0:0:
402,192,15972,1,0,0:0:0:0:
329,192,16160,1,0,0:0:0:0:
256,192,16347,1,0,0:0:0:0:
475,192,16535,1,0,0:0:0:0:
402,192,16722,1,0,0:0:0:0:
109,192,16910,1,0,0:0:0:0:
256,192,16910,1,0,0:0:0:0:
182,192,17097,1,0,0:0:0:0:
36,192,17285,1,0,0:0:0:0:
109,192,17472,1,0,0:0:0:0:
475,192,17660,1,0,0:0:0:0:
402,192,17847,1,0,0:0:0:0:
256,192,18035,1,0,0:0:0:0:
329,192,18035,128,0,19160:0:0:0:0:
182,192,18222,1,0,0:0:0:0:
109,192,18410,1,0,0:0:0:0:
36,192,18597,1,0,0:0:0:0:
109,192,18785,1,0,0:0:0:0:
256,192,18972,1,0,0:0:0:0:
182,192,19160,1,0,0:0:0:0:
475,192,19160,1,0,0:0:0:0:
109,192,19347,1,0,0:0:0:0:
36,192,19535,1,0,0:0:0:0:
256,192,19722,1,0,0:0:0:0:
475,192,19910,1,0,0:0:0:0:
182,192,20097,1,0,0:0:0:0:
402,192,20285,1,0,0:0:0:0:
109,192,20285,1,0,0:0:0:0:
256,192,20472,1,0,0:0:0:0:
182,192,20660,1,0,0:0:0:0:
329,192,20847,1,0,0:0:0:0:
402,192,21035,1,0,0:0:0:0:
475,192,21222,1,0,0:0:0:0:
256,192,21410,1,0,0:0:0:0:
109,192,21410,1,0,0:0:0:0:
182,192,21597,1,0,0:0:0:0:
475,192,21785,1,0,0:0:0:0:
329,192,21785,128,0,22535:0:0:0:0:
36,192,21785,1,0,0:0:0:0:
256,192,21972,1,0,0:0:0:0:
36,192,22160,1,0,0:0:0:0:
182,192,22347,1,0,0:0:0:0:
402,192,22535,1,0,0:0:0:0:
109,192,22535,1,0,0:0:0:0:
256,192,22722,1,0,0:0:0:0:
182,192,22910,1,0,0:0:0:0:
329,192,23097,1,0,0:0:0:0:
36,192,23285,1,0,0:0:0:0:
182,192,23472,1,0,0:0:0:0:
109,192,23660,1,0,0:0:0:0:
402,192,23660,1,0,0:0:0:0:
36,192,23847,1,0,0:0:0:0:
256,192,24035,1,0,0:0:0:0:
475,192,24222,1,0,0:0:0:0:
402,192,24410,1,0,0:0:0:0:
329,192,24597,1,0,0:0:0:0:
109,192,24785,1,0,0:0:0:0:
256,192,24785,1,0,0:0:0:0:
329,192,24972,1,0,0:0:0:0:
402,192,25160,1,0,0:0:0:0:
475,192,25347,1,0,0:0:0:0:
329,192,25535,1,0,0:0:0:0:
402,192,25722,1,0,0:0:0:0:
256,192,25910,1,0,0:0:0:0:
109,192,25910,1,0,0:0:0:0:
329,192,26097,1,0,0:0:0:0:
182,192,26285,1,0,0:0:0:0:
36,192,26285,128,0,27035:0:0:0:0:
402,192,26285,1,0,0:0:0:0:
256,192,26472,1,0,0:0:0:0:
329,192,26660,1,0,0:0:0:0:
475,192,26847,1,0,0:0:0:0:
402,192,27035,1,0,0:0:0:0:
256,192,27035,1,0,0:0:0:0:
329,192,27222,1,0,0:0:0:0:
182,192,27410,1,0,0:0:0:0:
109,192,27597,1,0,0:0:0:0:
256,192,27785,1,0,0:0:0:0:
182,192,27972,1,0,0:0:0:0:
402,192,28160,1,0,0:0:0:0:
109,192,28160,1,0,0:0:0:0:
329,192,28347,1,0,0:0:0:0:
475,192,28535,1,0,0:0:0:0:
402,192,28722,1,0,0:0:0:0:
329,192,28910,1,0,0:0:0:0:
256,192,29097,1,0,0:0:0:0:
36,192,29285,1,0,0:0:0:0:
329,192,29285,1,0,0:0:0:0:
109,192,29472,1,0,0:0:0:0:
182,192,29660,1,0,0:0:0:0:
256,192,29847,1,0,0:0:0:0:
109,192,30035,1,0,0:0:0:0:
182,192,30222,1,0,0:0:0:0:
109,192,30410,1,0,0:0:0:0:
402,192,30410,1,0,0:0:0:0:
329,192,30597,1,0,0:0:0:0:
475,192,30785,1,0,0:0:0:0:
256,192,30785,128,0,31535:0:0:0:0:
109,192,30785,1,0,0:0:0:0:
182,192,30972,1,0,0:0:0:0:
36,192,31160,1,0,0:0:0:0:
329,192,31347,1,0,0:0:0:0:
402,192,31535,1,0,0:0:0:0:
109,192,31535,1,0,0:0:0:0:
475,192,31722,1,0,0:0:0:0:
182,192,31910,1,0,0:0:0:0:
256,192,32097,1,0,0:0:0:0:
329,192,32285,1,0,0:0:0:0:
109,192,32472,1,0,0:0:0:0:
402,192,32660,1,0,0:0:0:0:
36,192,32660,1,0,0:0:0:0:
329,192,32847,1,0,0:0:0:0:
109,192,33035,1,0,0:0:0:0:
182,192,33222,1,0,0:0:0:0:
256,192,33410,1,0,0:0:0:0:
402,192,33597,1,0,0:0:0:0:
36,192,33785,1,0,0:0:0:0:
329,192,33785,1,0,0:0:0:0:
256,192,33972,1,0,0:0:0:0:
182,192,34160,1,0,0:0:0:0:
109,192,34347,1,0,0:0:0:0:
182,192,34535,1,0,0:0:0:0:
109,192,34722,1,0,0:0:0:0:
256,192,34910,1,0,0:0:0:0:
475,192,34910,1,0,0:0:0:0:
329,192,35097,1,0,0:0:0:0:
402,192,35285,1,0,0:0:0:0:
475,192,35472,1,0,0:0:0:0:
182,192,35660,1,0,0:0:0:0:
329,192,35660,1,0,0:0:0:0:
36,192,35847,1,0,0:0:0:0:
402,192,36035,1,0,0:0:0:0:
256,192,36035,128,0,37160:0:0:0:0:
109,192,36035,1,0,0:0:0:0:
329,192,36222,1,0,0:0:0:0:
36,192,36410,1,0,0:0:0:0:
182,192,36410,1,0,0:0:0:0:
109,192,36597,1,0,0:0:0:0:
475,192,36785,1,0,0:0:0:0:
329,192,36785,1,0,0:0:0:0:
109,192,36972,1,0,0:0:0:0:
402,192,37160,1,0,0:0:0:0:
36,192,37160,128,0,37535:0:0:0:0:
182,192,37160,1,0,0:0:0:0:
329,192,37347,1,0,0:0:0:0:
256,192,37535,1,0,0:0:0:0:
475,192,37535,1,0,0:0:0:0:
182,192,37722,1,0,0:0:0:0:
109,192,37910,1,0,0:0:0:0:
402,192,37910,1,0,0:0:0:0:
182,192,38097,1,0,0:0:0:0:
329,192,38285,1,0,0:0:0:0:
475,192,38285,1,0,0:0:0:0:
36,192,38285,1,0,0:0:0:0:
256,192,38472,1,0,0:0:0:0:
402,192,38472,1,0,0:0:0:0:
182,192,38660,1,0,0:0:0:0:
329,192,38660,1,0,0:0:0:0:
256,192,38847,1,0,0:0:0:0:
402,192,39035,1,0,0:0:0:0:
109,192,39035,1,0,0:0:0:0:
36,192,39222,1,0,0:0:0:0:
329,192,39410,1,0,0:0:0:0:
109,192,39410,1,0,0:0:0:0:
475,192,39410,128,0,39785:0:0:0:0:
256,192,39597,1,0,0:0:0:0:
182,192,39785,1,0,0:0:0:0:
402,192,39785,1,0,0:0:0:0:
109,192,39972,1,0,0:0:0:0:
329,192,39972,128,0,40160:0:0:0:0:
256,192,40160,1,0,0:0:0:0:
36,192,40160,1,0,0:0:0:0:
402,192,40347,1,0,0:0:0:0:
109,192,40535,1,0,0:0:0:0:
475,192,40535,128,0,41660:0:0:0:0:
256,192,40535,1,0,0:0:0:0:
182,192,40722,1,0,0:0:0:0:
402,192,40910,1,0,0:0:0:0:
256,192,40910,1,0,0:0:0:0:
182,192,41097,1,0,0:0:0:0:
109,192,41285,1,0,0:0:0:0:
256,192,41285,1,0,0:0:0:0:
36,192,41472,1,0,0:0:0:0:
109,192,41660,1,0,0:0:0:0:
402,192,41660,1,0,0:0:0:0:
256,192,41660,128,0,42035:0:0:0:0:
36,192,41847,1,0,0:0:0:0:
329,192,42035,1,0,0:0:0:0:
182,192,42035,1,0,0:0:0:0:
475,192,42222,1,0,0:0:0:0:
402,192,42410,1,0,0:0:0:0:
256,192,42410,1,0,0:0:0:0:
36,192,42597,1,0,0:0:0:0:
109,192,42785,1,0,0:0:0:0:
329,192,42785,1,0,0:0:0:0:
475,192,42785,1,0,0:0:0:0:
256,192,42972,1,0,0:0:0:0:
402,192,42972,1,0,0:0:0:0:
182,192,43160,1,0,0:0:0:0:
329,192,43160,1,0,0:0:0:0:
256,192,43347,1,0,0:0:0:0:
402,192,43535,1,0,0:0:0:0:
182,192,43535,1,0,0:0:0:0:
475,192,43722,1,0,0:0:0:0:
402,192,43910,1,0,0:0:0:0:
256,192,43910,1,0,0:0:0:0:
109,192,43910,128,0,44285:0:0:0:0:
329,192,44097,1,0,0:0:0:0:
182,192,44285,1,0,0:0:0:0:
475,192,44285,1,0,0:0:0:0:
36,192,44472,1,0,0:0:0:0:
402,192,44472,1,0,0:0:0:0:
256,192,44660,1,0,0:0:0:0:
182,192,44660,1,0,0:0:0:0:
329,192,44847,1,0,0:0:0:0:
402,192,45035,1,0,0:0:0:0:
182,192,45035,128,0,46160:0:0:0:0:
109,192,45035,1,0,0:0:0:0:
256,192,45222,1,0,0:0:0:0:
329,192,45410,1,0,0:0:0:0:
475,192,45410,1,0,0:0:0:0:
256,192,45597,1,0,0:0:0:0:
475,192,45785,1,0,0:0:0:0:
329,192,45785,1,0,0:0:0:0:
402,192,45972,1,0,0:0:0:0:
329,192,46160,1,0,0:0:0:0:
475,192,46160,1,0,0:0:0:0:
36,192,46160,128,0,46535:0:0:0:0:
109,192,46347,1,0,0:0:0:0:
402,192,46535,1,0,0:0:0:0:
256,192,46535,1,0,0:0:0:0:
182,192,46722,1,0,0:0:0:0:
36,192,46910,1,0,0:0:0:0:
329,192,46910,1,0,0:0:0:0:
109,192,47097,1,0,0:0:0:0:
256,192,47285,1,0,0:0:0:0:
475,192,47285,1,0,0:0:0:0:
36,192,47285,1,0,0:0:0:0:
329,192,47472,1,0,0:0:0:0:
109,192,47660,1,0,0:0:0:0:
402,192,47660,1,0,0:0:0:0:
329,192,47847,1,0,0:0:0:0:
182,192,48035,1,0,0:0:0:0:
36,192,48035,1,0,0:0:0:0:
256,192,48222,1,0,0:0:0:0:
475,192,48410,1,0,0:0:0:0:
109,192,48410,1,0,0:0:0:0:
329,192,48410,128,0,48785:0:0:0:0:
182,192,48597,1,0,0:0:0:0:
256,192,48785,1,0,0:0:0:0:
475,192,48785,128,0,49535:0:0:0:0:
109,192,48785,1,0,0:0:0:0:
182,192,48972,1,0,0:0:0:0:
109,192,49160,1,0,0:0:0:0:
402,192,49160,1,0,0:0:0:0:
36,192,49347,1,0,0:0:0:0:
109,192,49535,1,0,0:0:0:0:
256,192,49535,1,0,0:0:0:0:
402,192,49535,1,0,0:0:0:0:
182,192,49722,1,0,0:0:0:0:
256,192,49910,1,0,0:0:0:0:
402,192,49910,1,0,0:0:0:0:
182,192,50097,1,0,0:0:0:0:
109,192,50285,1,0,0:0:0:0:
256,192,50285,1,0,0:0:0:0:
36,192,50472,1,0,0:0:0:0:
402,192,50660,1,0,0:0:0:0:
182,192,50660,1,0,0:0:0:0:
256,192,50660,128,0,51035:0:0:0:0:
329,192,50847,1,0,0:0:0:0:
109,192,51035,1,0,0:0:0:0:
402,192,51035,1,0,0:0:0:0:
36,192,51222,1,0,0:0:0:0:
109,192,51410,1,0,0:0:0:0:
256,192,51410,1,0,0:0:0:0:
182,192,51597,1,0,0:0:0:0:
475,192,51785,1,0,0:0:0:0:
256,192,51785,1,0,0:0:0:0:
109,192,51785,1,0,0:0:0:0:
402,192,51972,1,0,0:0:0:0:
182,192,51972,1,0,0:0:0:0:
109,192,52160,1,0,0:0:0:0:
329,192,52160,1,0,0:0:0:0:
182,192,52347,1,0,0:0:0:0:
256,192,52535,1,0,0:0:0:0:
475,192,52535,1,0,0:0:0:0:
329,192,52722,1,0,0:0:0:0:
109,192,52910,1,0,0:0:0:0:
182,192,52910,128,0,53285:0:0:0:0:
402,192,52910,1,0,0:0:0:0:
475,192,53097,1,0,0:0:0:0:
329,192,53285,1,0,0:0:0:0:
402,192,53285,1,0,0:0:0:0:
256,192,53472,1,0,0:0:0:0:
36,192,53472,128,0,54035:0:0:0:0:
402,192,53660,1,0,0:0:0:0:
182,192,53660,1,0,0:0:0:0:
475,192,53847,1,0,0:0:0:0:
402,192,54035,1,0,0:0:0:0:
182,192,54035,1,0,0:0:0:0:
256,192,54222,1,0,0:0:0:0:
182,192,54410,1,0,0:0:0:0:
329,192,54410,1,0,0:0:0:0:
109,192,54597,1,0,0:0:0:0:
256,192,54785,1,0,0:0:0:0:
475,192,54785,1,0,0:0:0:0:
402,192,54972,1,0,0:0:0:0:
329,192,55160,1,0,0:0:0:0:
475,192,55160,1,0,0:0:0:0:
182,192,55160,128,0,55535:0:0:0:0:
256,192,55347,1,0,0:0:0:0:
109,192,55535,1,0,0:0:0:0:
402,192,55535,1,0,0:0:0:0:
36,192,55722,1,0,0:0:0:0:
475,192,55910,1,0,0:0:0:0:
256,192,55910,1,0,0:0:0:0:
329,192,56097,1,0,0:0:0:0:
402,192,56285,1,0,0:0:0:0:
256,192,56285,1,0,0:0:0:0:
109,192,56285,1,0,0:0:0:0:
182,192,56472,1,0,0:0:0:0:
329,192,56472,1,0,0:0:0:0:
36,192,56660,1,0,0:0:0:0:
475,192,56660,1,0,0:0:0:0:
109,192,56847,1,0,0:0:0:0:
182,192,57035,1,0,0:0:0:0:
329,192,57035,1,0,0:0:0:0:
256,192,57222,1,0,0:0:0:0:
402,192,57410,1,0,0:0:0:0:
475,192,57410,1,0,0:0:0:0:
109,192,57410,128,0,57785:0:0:0:0:
329,192,57597,1,0,0:0:0:0:
182,192,57785,1,0,0:0:0:0:
402,192,57785,1,0,0:0:0:0:
36,192,57785,128,0,58535:0:0:0:0:
329,192,57972,1,0,0:0:0:0:
475,192,57972,128,0,58535:0:0:0:0:
402,192,58160,1,0,0:0:0:0:
256,192,58160,1,0,0:0:0:0:
182,192,58347,1,0,0:0:0:0:
402,192,58535,1,0,0:0:0:0:
329,192,58535,1,0,0:0:0:0:
109,192,58535,1,0,0:0:0:0:
256,192,58722,1,0,0:0:0:0:
402,192,58910,1,0,0:0:0:0:
182,192,58910,1,0,0:0:0:0:
329,192,59097,1,0,0:0:0:0:
256,192,59285,1,0,0:0:0:0:
475,192,59285,1,0,0:0:0:0:
402,192,59472,1,0,0:0:0:0:
36,192,59660,1,0,0:0:0:0:
329,192,59660,1,0,0:0:0:0:
182,192,59660,128,0,60035:0:0:0:0:
402,192,59847,1,0,0:0:0:0:
256,192,60035,1,0,0:0:0:0:
475,192,60035,1,0,0:0:0:0:
329,192,60222,1,0,0:0:0:0:
182,192,60410,1,0,0:0:0:0:
402,192,60410,1,0,0:0:0:0:
109,192,60597,1,0,0:0:0:0:
475,192,60785,1,0,0:0:0:0:
329,192,60785,1,0,0:0:0:0:
36,192,60785,1,0,0:0:0:0:
109,192,60972,1,0,0:0:0:0:
256,192,60972,1,0,0:0:0:0:
36,192,61160,1,0,0:0:0:0:
182,192,61160,1,0,0:0:0:0:
329,192,61347,1,0,0:0:0:0:
182,192,61535,1,0,0:0:0:0:
475,192,61535,1,0,0:0:0:0:
402,192,61722,1,0,0:0:0:0:
109,192,61910,1,0,0:0:0:0:
256,192,61910,1,0,0:0:0:0:
36,192,61910,128,0,62285:0:0:0:0:
402,192,62097,1,0,0:0:0:0:
329,192,62285,1,0,0:0:0:0:
475,192,62285,128,0,63035:0:0:0:0:
182,192,62285,1,0,0:0:0:0:
256,192,62472,1,0,0:0:0:0:
402,192,62472,128,0,63035:0:0:0:0:
182,192,62660,1,0,0:0:0:0:
329,192,62660,1,0,0:0:0:0:
36,192,62847,1,0,0:0:0:0:
256,192,63035,1,0,0:0:0:0:
109,192,63035,1,0,0:0:0:0:
329,192,63035,1,0,0:0:0:0:
182,192,63222,1,0,0:0:0:0:
475,192,63410,1,0,0:0:0:0:
256,192,63410,1,0,0:0:0:0:
329,192,63597,1,0,0:0:0:0:
402,192,63785,1,0,0:0:0:0:
256,192,63785,1,0,0:0:0:0:
109,192,63972,1,0,0:0:0:0:
36,192,64160,1,0,0:0:0:0:
182,192,64160,1,0,0:0:0:0:
475,192,64160,128,0,64535:0:0:0:0:
329,192,64160,1,0,0:0:0:0:
256,192,64347,1,0,0:0:0:0:
109,192,64535,1,0,0:0:0:0:
402,192,64535,1,0,0:0:0:0:
36,192,64722,1,0,0:0:0:0:
182,192,64910,1,0,0:0:0:0:
475,192,64910,1,0,0:0:0:0:
329,192,65097,1,0,0:0:0:0:
256,192,65285,1,0,0:0:0:0:
36,192,65285,1,0,0:0:0:0:
402,192,65285,1,0,0:0:0:0:
475,192,65472,1,0,0:0:0:0:
329,192,65472,1,0,0:0:0:0:
402,192,65660,1,0,0:0:0:0:
182,192,65660,1,0,0:0:0:0:
256,192,65847,1,0,0:0:0:0:
182,192,66035,1,0,0:0:0:0:
329,192,66035,1,0,0:0:0:0:
36,192,66222,1,0,0:0:0:0:
475,192,66410,1,0,0:0:0:0:
182,192,66410,1,0,0:0:0:0:
109,192,66410,128,0,66785:0:0:0:0:
329,192,66410,1,0,0:0:0:0:
402,192,66597,1,0,0:0:0:0:
256,192,66785,1,0,0:0:0:0:
475,192,66785,128,0,67535:0:0:0:0:
36,192,66972,1,0,0:0:0:0:
329,192,66972,1,0,0:0:0:0:
402,192,66972,128,0,67535:0:0:0:0:
182,192,67160,1,0,0:0:0:0:
109,192,67160,1,0,0:0:0:0:
256,192,67347,1,0,0:0:0:0:
109,192,67535,1,0,0:0:0:0:
36,192,67535,1,0,0:0:0:0:
329,192,67535,1,0,0:0:0:0:
182,192,67722,1,0,0:0:0:0:
256,192,67910,1,0,0:0:0:0:
402,192,67910,1,0,0:0:0:0:
329,192,68097,1,0,0:0:0:0:
402,192,68285,1,0,0:0:0:0:
256,192,68285,1,0,0:0:0:0:
329,192,68472,1,0,0:0:0:0:
36,192,68660,1,0,0:0:0:0:
475,192,68660,1,0,0:0:0:0:
109,192,68660,128,0,69035:0:0:0:0:
256,192,68660,1,0,0:0:0:0:
182,192,68847,1,0,0:0:0:0:
256,192,69035,1,0,0:0:0:0:
402,192,69035,1,0,0:0:0:0:
329,192,69222,1,0,0:0:0:0:
475,192,69410,1,0,0:0:0:0:
256,192,69410,1,0,0:0:0:0:
402,192,69597,1,0,0:0:0:0:
182,192,69785,1,0,0:0:0:0:
329,192,69785,1,0,0:0:0:0:
475,192,69785,1,0,0:0:0:0:
109,192,69972,1,0,0:0:0:0:
36,192,69972,1,0,0:0:0:0:
256,192,70160,1,0,0:0:0:0:
182,192,70160,1,0,0:0:0:0:
402,192,70347,1,0,0:0:0:0:
329,192,70535,1,0,0:0:0:0:
475,192,70535,1,0,0:0:0:0:
36,192,70722,1,0,0:0:0:0:
109,192,70910,1,0,0:0:0:0:
256,192,70910,1,0,0:0:0:0:
402,192,70910,128,0,71285:0:0:0:0:
475,192,70910,1,0,0:0:0:0:
329,192,71097,1,0,0:0:0:0:
182,192,71285,1,0,0:0:0:0:
36,192,71285,1,0,0:0:0:0:
256,192,71472,1,0,0:0:0:0:
475,192,71472,128,0,72035:0:0:0:0:
109,192,71660,1,0,0:0:0:0:
329,192,71660,1,0,0:0:0:0:
36,192,71847,1,0,0:0:0:0:
256,192,72035,1,0,0:0:0:0:
402,192,72035,1,0,0:0:0:0:
109,192,72035,1,0,0:0:0:0:
182,192,72222,1,0,0:0:0:0:
109,192,72410,1,0,0:0:0:0:
256,192,72410,1,0,0:0:0:0:
36,192,72597,1,0,0:0:0:0:
256,192,72785,1,0,0:0:0:0:
402,192,72785,1,0,0:0:0:0:
329,192,72972,1,0,0:0:0:0:
109,192,73160,1,0,0:0:0:0:
402,192,73160,1,0,0:0:0:0:
475,192,73160,128,0,73535:0:0:0:0:
256,192,73347,1,0,0:0:0:0:
329,192,73535,1,0,0:0:0:0:
109,192,73535,1,0,0:0:0:0:
182,192,73722,1,0,0:0:0:0:
256,192,73910,1,0,0:0:0:0:
475,192,73910,1,0,0:0:0:0:
329,192,74097,1,0,0:0:0:0:
109,192,74285,1,0,0:0:0:0:
402,192,74285,1,0,0:0:0:0:
182,192,74285,1,0,0:0:0:0:
256,192,74472,1,0,0:0:0:0:
36,192,74472,1,0,0:0:0:0:
109,192,74660,1,0,0:0:0:0:
329,192,74660,1,0,0:0:0:0:
402,192,74847,1,0,0:0:0:0:
36,192,75035,1,0,0:0:0:0:
182,192,75035,1,0,0:0:0:0:
109,192,75222,1,0,0:0:0:0:
475,192,75410,1,0,0:0:0:0:
182,192,75410,1,0,0:0:0:0:
329,192,75410,128,0,75785:0:0:0:0:
256,192,75597,1,0,0:0:0:0:
36,192,75785,1,0,0:0:0:0:
182,192,75785,128,0,76535:0:0:0:0:
402,192,75972,1,0,0:0:0:0:
475,192,75972,128,0,76535:0:0:0:0:
329,192,76160,1,0,0:0:0:0:
109,192,76160,1,0,0:0:0:0:
256,192,76347,1,0,0:0:0:0:
402,192,76535,1,0,0:0:0:0:
109,192,76535,1,0,0:0:0:0:
36,192,76535,1,0,0:0:0:0:
329,192,76722,1,0,0:0:0:0:
475,192,76910,1,0,0:0:0:0:
256,192,76910,1,0,0:0:0:0:
329,192,77097,1,0,0:0:0:0:
256,192,77285,1,0,0:0:0:0:
109,192,77285,1,0,0:0:0:0:
182,192,77472,1,0,0:0:0:0:
475,192,77660,1,0,0:0:0:0:
36,192,77660,1,0,0:0:0:0:
329,192,77660,128,0,78035:0:0:0:0:
256,192,77660,1,0,0:0:0:0:
182,192,77847,1,0,0:0:0:0:
109,192,78035,1,0,0:0:0:0:
475,192,78035,1,0,0:0:0:0:
182,192,78222,1,0,0:0:0:0:
256,192,78410,1,0,0:0:0:0:
402,192,78410,1,0,0:0:0:0:
329,192,78597,1,0,0:0:0:0:
36,192,78785,1,0,0:0:0:0:
182,192,78785,1,0,0:0:0:0:
402,192,78785,1,0,0:0:0:0:
109,192,78972,1,0,0:0:0:0:
256,192,78972,1,0,0:0:0:0:
329,192,79160,1,0,0:0:0:0:
182,192,79160,1,0,0:0:0:0:
402,192,79347,1,0,0:0:0:0:
475,192,79535,1,0,0:0:0:0:
329,192,79535,1,0,0:0:0:0:
402,192,79722,1,0,0:0:0:0:
475,192,79910,1,0,0:0:0:0:
182,192,79910,1,0,0:0:0:0:
36,192,79910,128,0,80285:0:0:0:0:
329,192,80097,1,0,0:0:0:0:
256,192,80285,1,0,0:0:0:0:
402,192,80285,128,0,81035:0:0:0:0:
109,192,80285,1,0,0:0:0:0:
329,192,80472,1,0,0:0:0:0:
475,192,80472,128,0,81035:0:0:0:0:
182,192,80660,1,0,0:0:0:0:
36,192,80660,1,0,0:0:0:0:
256,192,80847,1,0,0:0:0:0:
329,192,81035,1,0,0:0:0:0:
109,192,81035,1,0,0:0:0:0:
182,192,81035,1,0,0:0:0:0:
475,192,81222,1,0,0:0:0:0:
256,192,81410,1,0,0:0:0:0:
402,192,81410,1,0,0:0:0:0:
36,192,81597,1,0,0:0:0:0:
402,192,81785,1,0,0:0:0:0:
109,192,81785,1,0,0:0:0:0:
256,192,81972,1,0,0:0:0:0:
329,192,82160,1,0,0:0:0:0:
182,192,82160,1,0,0:0:0:0:
402,192,82160,128,0,82535:0:0:0:0:
109,192,82347,1,0,0:0:0:0:
36,192,82535,1,0,0:0:0:0:
256,192,82535,1,0,0:0:0:0:
109,192,82722,1,0,0:0:0:0:
182,192,82910,1,0,0:0:0:0:
329,192,82910,1,0,0:0:0:0:
256,192,83097,1,0,0:0:0:0:
475,192,83285,1,0,0:0:0:0:
109,192,83285,1,0,0:0:0:0:
329,192,83285,1,0,0:0:0:0:
182,192,83472,1,0,0:0:0:0:
402,192,83472,1,0,0:0:0:0:
329,192,83660,1,0,0:0:0:0:
109,192,83660,1,0,0:0:0:0:
402,192,83847,1,0,0:0:0:0:
36,192,84035,1,0,0:0:0:0:
256,192,84035,1,0,0:0:0:0:
109,192,84222,1,0,0:0:0:0:
256,192,84410,1,0,0:0:0:0:
475,192,84410,1,0,0:0:0:0:
329,192,84410,128,0,84785:0:0:0:0:
402,192,84597,1,0,0:0:0:0:
182,192,84785,1,0,0:0:0:0:
109,192,84785,128,0,85535:0:0:0:0:
475,192,84785,1,0,0:0:0:0:
402,192,84972,1,0,0:0:0:0:
256,192,84972,1,0,0:0:0:0:
36,192,84972,128,0,85535:0:0:0:0:
475,192,85160,1,0,0:0:0:0:
329,192,85160,1,0,0:0:0:0:
402,192,85347,1,0,0:0:0:0:
182,192,85535,1,0,0:0:0:0:
475,192,85535,1,0,0:0:0:0:
256,192,85535,1,0,0:0:0:0:
36,192,85722,1,0,0:0:0:0:
256,192,85910,1,0,0:0:0:0:
109,192,85910,1,0,0:0:0:0:
402,192,86097,1,0,0:0:0:0:
475,192,86285,1,0,0:0:0:0:
329,192,86285,1,0,0:0:0:0:
109,192,86472,1,0,0:0:0:0:
182,192,86660,1,0,0:0:0:0:
475,192,86660,1,0,0:0:0:0:
402,192,86660,128,0,87035:0:0:0:0:
256,192,86847,1,0,0:0:0:0:
329,192,87035,1,0,0:0:0:0:
109,192,87035,1,0,0:0:0:0:
36,192,87222,1,0,0:0:0:0:
182,192,87410,1,0,0:0:0:0:
402,192,87410,1,0,0:0:0:0:
329,192,87597,1,0,0:0:0:0:
402,192,87785,1,0,0:0:0:0:
475,192,87785,1,0,0:0:0:0:
256,192,87785,1,0,0:0:0:0:
182,192,87972,1,0,0:0:0:0:
329,192,87972,1,0,0:0:0:0:
256,192,88160,1,0,0:0:0:0:
109,192,88160,1,0,0:0:0:0:
182,192,88347,1,0,0:0:0:0:
109,192,88535,1,0,0:0:0:0:
402,192,88535,1,0,0:0:0:0:
256,192,88722,1,0,0:0:0:0:
329,192,88910,1,0,0:0:0:0:
182,192,88910,1,0,0:0:0:0:
36,192,88910,128,0,89285:0:0:0:0:
475,192,88910,1,0,0:0:0:0:
402,192,89097,1,0,0:0:0:0:
256,192,89285,1,0,0:0:0:0:
109,192,89285,1,0,0:0:0:0:
475,192,89472,1,0,0:0:0:0:
182,192,89472,128,0,90035:0:0:0:0:
109,192,89660,1,0,0:0:0:0:
402,192,89660,1,0,0:0:0:0:
256,192,89660,1,0,0:0:0:0:
329,192,89847,1,0,0:0:0:0:
36,192,90035,1,0,0:0:0:0:
475,192,90035,1,0,0:0:0:0:
256,192,90222,1,0,0:0:0:0:
329,192,90410,1,0,0:0:0:0:
182,192,90410,1,0,0:0:0:0:
402,192,90597,1,0,0:0:0:0:
475,192,90785,1,0,0:0:0:0:
36,192,90785,1,0,0:0:0:0:
256,192,90972,1,0,0:0:0:0:
109,192,91160,1,0,0:0:0:0:
402,192,91160,1,0,0:0:0:0:
475,192,91160,128,0,91535:0:0:0:0:
182,192,91347,1,0,0:0:0:0:
402,192,91535,1,0,0:0:0:0:
256,192,91535,1,0,0:0:0:0:
329,192,91722,1,0,0:0:0:0:
256,192,91910,1,0,0:0:0:0:
36,192,91910,1,0,0:0:0:0:
109,192,92097,1,0,0:0:0:0:
329,192,92285,1,0,0:0:0:0:
182,192,92285,1,0,0:0:0:0:
36,192,92285,1,0,0:0:0:0:
256,192,92472,1,0,0:0:0:0:
109,192,92472,1,0,0:0:0:0:
182,192,92660,1,0,0:0:0:0:
329,192,92660,1,0,0:0:0:0:
402,192,92847,1,0,0:0:0:0:
329,192,93035,1,0,0:0:0:0:
475,192,93035,1,0,0:0:0:0:
256,192,93222,1,0,0:0:0:0:
109,192,93410,1,0,0:0:0:0:
402,192,93410,1,0,0:0:0:0:
182,192,93410,128,0,93785:0:0:0:0:
256,192,93597,1,0,0:0:0:0:
329,192,93785,1,0,0:0:0:0:
475,192,93785,1,0,0:0:0:0:
256,192,93972,1,0,0:0:0:0:
36,192,93972,128,0,94535:0:0:0:0:
402,192,94160,1,0,0:0:0:0:
109,192,94160,1,0,0:0:0:0:
256,192,94347,1,0,0:0:0:0:
182,192,94535,1,0,0:0:0:0:
329,192,94535,1,0,0:0:0:0:
256,192,94722,1,0,0:0:0:0:
182,192,94910,1,0,0:0:0:0:
329,192,94910,1,0,0:0:0:0:
109,192,95097,1,0,0:0:0:0:
402,192,95285,1,0,0:0:0:0:
256,192,95285,1,0,0:0:0:0:
329,192,95472,1,0,0:0:0:0:
182,192,95660,1,0,0:0:0:0:
475,192,95660,1,0,0:0:0:0:
109,192,95660,128,0,96035:0:0:0:0:
256,192,95847,1,0,0:0:0:0:
329,192,96035,1,0,0:0:0:0:
182,192,96035,1,0,0:0:0:0:
402,192,96222,1,0,0:0:0:0:
109,192,96410,1,0,0:0:0:0:
329,192,96410,1,0,0:0:0:0:
182,192,96597,1,0,0:0:0:0:
402,192,96785,1,0,0:0:0:0:
36,192,96785,1,0,0:0:0:0:
256,192,96785,1,0,0:0:0:0:
329,192,96972,1,0,0:0:0:0:
182,192,96972,1,0,0:0:0:0:
256,192,97160,1,0,0:0:0:0:
109,192,97160,1,0,0:0:0:0:
182,192,97347,1,0,0:0:0:0:
475,192,97535,1,0,0:0:0:0:
36,192,97535,1,0,0:0:0:0:
256,192,97722,1,0,0:0:0:0:
109,192,97910,1,0,0:0:0:0:
329,192,97910,1,0,0:0:0:0:
402,192,97910,128,0,98285:0:0:0:0:
256,192,98097,1,0,0:0:0:0:
182,192,98285,1,0,0:0:0:0:
109,192,98285,1,0,0:0:0:0:
475,192,98472,1,0,0:0:0:0:
329,192,98472,1,0,0:0:0:0:
36,192,98472,128,0,99035:0:0:0:0:
256,192,98660,1,0,0:0:0:0:
402,192,98660,1,0,0:0:0:0:
182,192,98847,1,0,0:0:0:0:
109,192,99035,1,0,0:0:0:0:
402,192,99035,1,0,0:0:0:0:
256,192,99035,1,0,0:0:0:0:
475,192,99222,1,0,0:0:0:0:
329,192,99410,1,0,0:0:0:0:
182,192,99410,1,0,0:0:0:0:
475,192,99597,1,0,0:0:0:0:
36,192,99785,1,0,0:0:0:0:
256,192,99785,1,0,0:0:0:0:
182,192,99972,1,0,0:0:0:0:
109,192,100160,1,0,0:0:0:0:
475,192,100160,1,0,0:0:0:0:
256,192,100160,128,0,100535:0:0:0:0:
402,192,100347,1,0,0:0:0:0:
475,192,100535,1,0,0:0:0:0:
36,192,100535,1,0,0:0:0:0:
402,192,100722,1,0,0:0:0:0:
329,192,100910,1,0,0:0:0:0:
182,192,100910,1,0,0:0:0:0:
36,192,101097,1,0,0:0:0:0:
475,192,101285,1,0,0:0:0:0:
329,192,101285,1,0,0:0:0:0:
109,192,101285,1,0,0:0:0:0:
402,192,101472,1,0,0:0:0:0:
256,192,101472,1,0,0:0:0:0:
475,192,101660,1,0,0:0:0:0:
329,192,101660,1,0,0:0:0:0:
182,192,101847,1,0,0:0:0:0:
475,192,102035,1,0,0:0:0:0:
109,192,102035,1,0,0:0:0:0:
402,192,102222,1,0,0:0:0:0:
36,192,102410,1,0,0:0:0:0:
182,192,102410,1,0,0:0:0:0:
329,192,102410,128,0,102785:0:0:0:0:
475,192,102597,1,0,0:0:0:0:
109,192,102785,1,0,0:0:0:0:
256,192,102785,1,0,0:0:0:0:
402,192,102972,1,0,0:0:0:0:
182,192,102972,1,0,0:0:0:0:
475,192,102972,128,0,103535:0:0:0:0:
256,192,103160,1,0,0:0:0:0:
109,192,103160,1,0,0:0:0:0:
182,192,103347,1,0,0:0:0:0:
402,192,103535,1,0,0:0:0:0:
329,192,103535,1,0,0:0:0:0:
36,192,103535,1,0,0:0:0:0:
109,192,103722,1,0,0:0:0:0:
402,192,103910,1,0,0:0:0:0:
182,192,103910,1,0,0:0:0:0:
256,192,104097,1,0,0:0:0:0:
109,192,104285,1,0,0:0:0:0:
402,192,104285,1,0,0:0:0:0:
329,192,104472,1,0,0:0:0:0:
182,192,104660,1,0,0:0:0:0:
36,192,104660,1,0,0:0:0:0:
475,192,104660,128,0,105035:0:0:0:0:
256,192,104847,1,0,0:0:0:0:
329,192,105035,1,0,0:0:0:0:
109,192,105035,1,0,0:0:0:0:
402,192,105222,1,0,0:0:0:0:
36,192,105410,1,0,0:0:0:0:
475,192,105410,1,0,0:0:0:0:
182,192,105597,1,0,0:0:0:0:
402,192,105785,1,0,0:0:0:0:
256,192,105785,1,0,0:0:0:0:
109,192,105785,1,0,0:0:0:0:
329,192,105972,1,0,0:0:0:0:
182,192,105972,1,0,0:0:0:0:
402,192,106160,1,0,0:0:0:0:
109,192,106160,1,0,0:0:0:0:
256,192,106347,1,0,0:0:0:0:
475,192,106535,1,0,0:0:0:0:
36,192,106535,1,0,0:0:0:0:
402,192,106722,1,0,0:0:0:0:
256,192,106910,1,0,0:0:0:0:
109,192,106910,1,0,0:0:0:0:
36,192,106910,128,0,107285:0:0:0:0:
402,192,107097,1,0,0:0:0:0:
182,192,107285,1,0,0:0:0:0:
329,192,107285,1,0,0:0:0:0:
402,192,107472,1,0,0:0:0:0:
475,192,107472,128,0,108035:0:0:0:0:
329,192,107660,1,0,0:0:0:0:
109,192,107660,1,0,0:0:0:0:
256,192,107847,1,0,0:0:0:0:
182,192,108035,1,0,0:0:0:0:
36,192,108035,1,0,0:0:0:0:
402,192,108035,1,0,0:0:0:0:
109,192,108222,1,0,0:0:0:0:
256,192,108410,1,0,0:0:0:0:
402,192,108410,1,0,0:0:0:0:
182,192,108597,1,0,0:0:0:0:
475,192,108785,1,0,0:0:0:0:
329,192,108785,1,0,0:0:0:0:
402,192,108972,1,0,0:0:0:0:
36,192,109160,1,0,0:0:0:0:
475,192,109160,1,0,0:0:0:0:
256,192,109160,128,0,109535:0:0:0:0:
182,192,109347,1,0,0:0:0:0:
109,192,109535,1,0,0:0:0:0:
402,192,109535,1,0,0:0:0:0:
36,192,109722,1,0,0:0:0:0:
402,192,109910,1,0,0:0:0:0:
182,192,109910,1,0,0:0:0:0:
475,192,110097,1,0,0:0:0:0:
36,192,110285,1,0,0:0:0:0:
182,192,110285,1,0,0:0:0:0:
329,192,110285,1,0,0:0:0:0:
256,192,110472,1,0,0:0:0:0:
402,192,110472,1,0,0:0:0:0:
329,192,110660,1,0,0:0:0:0:
475,192,110660,1,0,0:0:0:0:
402,192,110847,1,0,0:0:0:0:
36,192,111035,1,0,0:0:0:0:
256,192,111035,1,0,0:0:0:0:
182,192,111222,1,0,0:0:0:0:
402,192,111410,1,0,0:0:0:0:
109,192,111410,1,0,0:0:0:0:
256,192,111410,128,0,111785:0:0:0:0:
475,192,111597,1,0,0:0:0:0:
329,192,111785,1,0,0:0:0:0:
182,192,111785,1,0,0:0:0:0:
109,192,111972,1,0,0:0:0:0:
475,192,111972,128,0,112535:0:0:0:0:
36,192,112160,1,0,0:0:0:0:
256,192,112160,1,0,0:0:0:0:
182,192,112347,1,0,0:0:0:0:
36,192,112535,1,0,0:0:0:0:
329,192,112535,1,0,0:0:0:0:
109,192,112535,1,0,0:0:0:0:
402,192,112722,1,0,0:0:0:0:
256,192,112910,1,0,0:0:0:0:
475,192,112910,1,0,0:0:0:0:
109,192,113097,1,0,0:0:0:0:
475,192,113285,1,0,0:0:0:0:
182,192,113285,1,0,0:0:0:0:
329,192,113472,1,0,0:0:0:0:
36,192,113660,1,0,0:0:0:0:
256,192,113660,1,0,0:0:0:0:
182,192,113660,128,0,114035:0:0:0:0:
402,192,113847,1,0,0:0:0:0:
475,192,114035,1,0,0:0:0:0:
329,192,114035,1,0,0:0:0:0:
402,192,114222,1,0,0:0:0:0:
256,192,114410,1,0,0:0:0:0:
475,192,114410,1,0,0:0:0:0:
182,192,114597,1,0,0:0:0:0:
36,192,114785,1,0,0:0:0:0:
109,192,114785,1,0,0:0:0:0:
402,192,114785,1,0,0:0:0:0:
182,192,114972,1,0,0:0:0:0:
329,192,114972,1,0,0:0:0:0:
256,192,115160,1,0,0:0:0:0:
402,192,115160,1,0,0:0:0:0:
329,192,115347,1,0,0:0:0:0:
475,192,115535,1,0,0:0:0:0:
36,192,115535,1,0,0:0:0:0:
256,192,115722,1,0,0:0:0:0:
329,192,115910,1,0,0:0:0:0:
402,192,115910,1,0,0:0:0:0:
182,192,115910,128,0,116285:0:0:0:0:
475,192,116097,1,0,0:0:0:0:
402,192,116285,1,0,0:0:0:0:
256,192,116285,1,0,0:0:0:0:
109,192,116472,1,0,0:0:0:0:
36,192,116472,128,0,117035:0:0:0:0:
182,192,116660,1,0,0:0:0:0:
402,192,116660,1,0,0:0:0:0:
329,192,116847,1,0,0:0:0:0:
256,192,117035,1,0,0:0:0:0:
402,192,117035,1,0,0:0:0:0:
475,192,117222,1,0,0:0:0:0:
36,192,117410,1,0,0:0:0:0:
256,192,117597,1,0,0:0:0:0:
329,192,117785,1,0,0:0:0:0:
475,192,117972,1,0,0:0:0:0:
402,192,118160,1,0,0:0:0:0:
109,192,118160,1,0,0:0:0:0:
329,192,118347,1,0,0:0:0:0:
256,192,118535,1,0,0:0:0:0:
182,192,118722,1,0,0:0:0:0:
36,192,118910,1,0,0:0:0:0:
182,192,119097,1,0,0:0:0:0:
109,192,119285,1,0,0:0:0:0:
402,192,119285,1,0,0:0:0:0:
36,192,119472,1,0,0:0:0:0:
475,192,119660,1,0,0:0:0:0:
402,192,119847,1,0,0:0:0:0:
329,192,120035,1,0,0:0:0:0:
182,192,120222,1,0,0:0:0:0:
475,192,120410,1,0,0:0:0:0:
36,192,120410,1,0,0:0:0:0:
256,192,120597,1,0,0:0:0:0:
109,192,120785,1,0,0:0:0:0:
36,192,120972,1,0,0:0:0:0:
256,192,121160,1,0,0:0:0:0:
475,192,121347,1,0,0:0:0:0:
329,192,121535,1,0,0:0:0:0:
182,192,121535,1,0,0:0:0:0:
109,192,121722,1,0,0:0:0:0:
36,192,121910,1,0,0:0:0:0:
182,192,122097,1,0,0:0:0:0:
329,192,122285,1,0,0:0:0:0:
475,192,122472,1,0,0:0:0:0:
256,192,122660,1,0,0:0:0:0:
182,192,122660,1,0,0:0:0:0:
109,192,122847,1,0,0:0:0:0:
36,192,123035,1,0,0:0:0:0:
256,192,123222,1,0,0:0:0:0:
402,192,123410,1,0,0:0:0:0:
475,192,123597,1,0,0:0:0:0:
256,192,123785,1,0,0:0:0:0:
402,192,123785,1,0,0:0:0:0:
329,192,123972,1,0,0:0:0:0:
182,192,124160,1,0,0:0:0:0:
36,192,124347,1,0,0:0:0:0:
256,192,124535,1,0,0:0:0:0:
402,192,124722,1,0,0:0:0:0:
182,192,124910,1,0,0:0:0:0:
36,192,124910,1,0,0:0:0:0:
256,192,125097,1,0,0:0:0:0:
329,192,125285,1,0,0:0:0:0:
182,192,125472,1,0,0:0:0:0:
402,192,125660,1,0,0:0:0:0:
256,192,125847,128,0,129222:0:0:0:0:
