osu file format v3

[General]
AudioFilename: Pokemon Theme Song.mp3
AudioLeadIn: 0
AudioHash: e79f241808ccc765c6df935b1e754b63
PreviewTime: -1
SampleSet: Normal
EditorBookmarks: -50

[Metadata]
Title:Pokemon Theme Song
Artist:John Loeffler
Creator:Zyid
Version:Normal

[Difficulty]
HPDrainRate:6
CircleSize:5
OverallDifficulty:6
SliderMultiplier: 1.4
SliderTickRate: 1

[Events]
0,0,"pkmn.jpg"
2,59735,66348
2,123459,133589
3,0,255,255,255

[TimingPoints]
13406,413.793103448276

[HitObjects]
256,192,6578,1,0,
256,192,7612,1,4,
96,96,8440,6,4,B|96:96|320:96,1,210
256,192,10095,1,4,
160,96,12371,5,0,
320,96,12785,1,0,
416,128,13199,1,4,
256,192,15681,5,4,
192,96,16716,5,0,
288,96,17337,1,0,
416,96,17957,1,4,
256,192,19405,6,0,B|256:192|320:128,2,70
128,160,21681,5,0,
224,160,22302,1,0,
288,224,22716,6,0,B|288:224|352:160,2,70
192,96,24164,5,4,
288,96,24785,1,4,
192,96,25612,5,4,
256,96,26026,1,4,
320,96,26440,1,0,
96,320,27061,6,4,B|96:320|256:192,1,140
32,160,28302,2,4,B|32:160|96:160|260:160|480:160,1,420
224,96,29957,5,4,
320,96,30578,1,4,
320,192,31199,1,0,
256,192,32647,6,0,B|256:192|320:128,2,70
128,96,33681,5,6,
288,96,34095,1,0,
352,96,34302,1,0,
416,96,34716,2,4,B|416:96|416:192|416:320,2,210
192,128,38026,5,4,
288,128,38440,1,4,
384,128,38854,1,4,
256,256,39268,6,0,B|256:256|320:192,2,70
256,256,40302,6,0,B|256:256|128:256,5,140
192,96,43199,1,4,
288,96,43819,1,4,
288,192,44440,1,4,
224,128,45888,6,0,B|224:128|288:64,2,70
128,320,46923,5,4,
288,320,47337,1,2,
352,320,47543,1,0,
416,320,47957,2,4,B|416:320|416:224|416:96,2,210
128,192,51268,5,4,
256,192,51681,1,4,
384,192,52095,1,4,
128,128,53130,1,0,
176,128,53337,1,0,
256,128,53750,1,4,
352,128,54578,1,4,
352,192,54992,1,4,
352,256,55405,1,4,
256,192,56233,12,6,59543
256,224,67405,6,0,B|256:224|320:160,2,70
96,96,68440,6,4,B|96:96|320:96,1,210
256,192,69681,1,0,
320,192,70095,1,0,
352,192,70302,1,4,
352,128,71130,6,0,B|352:128|64:128,2,280
192,320,73612,5,4,
256,320,74026,1,4,
320,320,74440,1,0,
64,192,75061,5,0,
112,192,75268,1,0,
160,192,75474,1,0,
208,192,75681,1,0,
288,192,76302,1,4,
352,192,76923,1,6,
192,128,77750,5,4,
256,128,77957,1,4,
256,128,78578,1,4,
256,64,79199,1,4,
256,192,80647,6,0,B|256:192|320:128,2,70
352,224,82095,5,4,
352,160,82923,1,4,
160,160,83337,1,4,
160,224,83543,1,4,
160,352,84578,1,0,
160,288,84992,1,0,
224,288,85406,1,0,
288,288,85819,1,0,
320,64,86854,5,4,
384,64,87268,1,4,
448,64,87681,1,0,
448,160,88302,5,4,
448,288,88716,1,4,
384,288,89543,2,0,B|384:288|384:64,1,210
64,192,90992,5,4,
64,192,91199,1,4,
160,192,91819,1,4,
224,192,92440,2,4,B|224:192|512:192,1,280
64,224,93888,6,0,B|64:224|128:160,2,70
128,96,94923,5,4,
288,96,95337,1,2,
352,96,95543,1,0,
416,96,95957,2,0,B|416:96|416:192|416:320,2,210
128,288,98440,5,0,
177,238,98647,1,0,
226,188,98854,1,0,
352,160,99268,1,4,
288,224,99681,1,4,
224,288,100095,1,6,
64,224,100509,6,4,B|64:224|128:160,2,70
64,288,101543,2,0,B|64:288|128:288|192:288|256:288|320:288|384:288|448:288|448:192|448:128,1,420
410,133,102992,1,4,
340,132,103406,1,4,
256,192,104440,5,0,
192,128,104854,1,0,
192,256,105061,1,4,
320,256,105474,1,4,
320,128,105681,1,4,
256,192,107130,6,4,B|256:192|320:128,2,70
384,352,108164,5,0,
352,320,108371,1,0,
320,352,108578,1,0,
288,320,108785,1,0,
256,352,109199,2,0,B|256:352|224:352|192:352|160:352|128:352|92:314|64:288|32:256|32:224|32:192|68:158|56:132|88:98|130:-6|360:104|352:96,1,560
288,64,112509,1,0,
288,128,112923,1,0,
288,192,113337,1,0,
64,64,114371,5,0,
112,64,114578,1,0,
192,64,114992,1,4,
448,320,115819,1,0,
384,320,116233,1,0,
320,320,116647,1,4,
64,64,117681,6,4,B|64:64|192:64,1,140
64,128,118302,2,4,B|64:128|128:128|160:128,1,140
64,192,118923,2,4,B|64:192|160:192,1,140
320,128,120164,5,4,
320,160,120371,1,0,
320,224,120785,1,4,
256,128,121406,1,0,
224,256,121612,1,0,
192,128,121819,1,0,
160,256,122026,1,4,
128,192,122440,2,4,B|128:192|416:192,1,280
288,160,134647,5,4,
224,160,135061,1,4,
176,160,135268,1,4,
192,224,135681,2,4,B|192:224|384:224|512:224,1,280
256,192,137543,12,0,140026
224,160,141268,5,4,
288,160,141681,1,4,
336,160,141888,1,4,
320,224,142302,2,4,B|320:224|128:224|0:224,1,280
448,320,144578,6,4,B|448:320|64:32,1,420
256,192,147268,5,6,
448,64,149130,1,0,
416,96,149337,1,0,
384,128,149543,1,0,
352,160,149750,1,0,
320,192,149957,1,0,
256,256,150371,1,0,
224,288,150578,1,6,
128,128,151819,5,0,
160,128,152026,1,0,
192,128,152233,1,0,
224,128,152440,1,0,
320,128,152854,1,0,
384,128,153061,1,4,
128,128,155130,6,0,B|128:128|192:64,2,70
128,192,155957,1,0,
128,256,156371,1,0,
416,256,157406,5,0,
416,192,157612,1,0,
416,128,157819,1,0,
416,64,158026,1,0,
416,64,158440,1,4,
320,64,159061,1,0,
320,128,159268,1,0,
320,192,159474,1,0,
320,256,159681,1,0,
256,256,160509,2,0,B|256:256|256:32|32:64,2,280
384,64,163406,6,0,B|384:64|320:128,2,70
128,320,164440,5,0,
288,320,164854,1,2,
352,320,165061,1,0,
416,320,165474,2,4,B|416:320|416:224|416:96,2,210
128,288,167957,5,0,
177,238,168164,1,0,
226,188,168371,1,0,
352,160,168785,1,4,
288,224,169199,1,4,
224,288,169612,1,4,
64,224,170026,6,4,B|64:224|128:160,2,70
64,288,171061,2,4,B|64:288|128:288|192:288|256:288|320:288|384:288|448:288|448:192|448:128|448:64|448:96,1,490
256,192,173543,5,0,
224,160,173750,1,0,
288,224,173957,1,0,
288,160,174371,1,0,
256,192,174578,1,0,
224,160,174992,1,0,
224,224,175199,1,4,
64,192,176647,6,4,B|64:192|128:192,1,140
256,352,177681,1,0,
256,288,177888,1,0,
192,288,178095,1,0,
192,352,178302,1,0,
256,352,178716,2,0,B|256:352|288:352|320:352|352:352|384:352|420:314|448:288|480:256|480:224|480:192|444:158|456:132|424:98|382:-6|152:104|160:96,1,560
256,192,181199,5,0,
224,160,181406,1,0,
192,192,181612,1,4,
192,256,181819,1,0,
256,256,182026,1,4,
320,256,182440,1,4,
256,192,182854,1,4,
288,160,183888,5,0,
224,160,184095,1,0,
256,96,184509,5,4,
256,224,184923,1,2,
256,288,185337,5,0,
192,288,185750,1,0,
320,288,186164,1,4,
160,96,187199,6,6,B|160:96|256:192,1,140
256,192,187819,2,6,B|256:192|192:192|160:192,1,140
160,288,188440,2,6,B|160:288|256:192,1,140
416,160,189268,6,4,B|416:160|416:96|352:32|288:0|224:0|160:32|96:96|64:160|64:224|128:320|224:352|256:352|324:337|365:330|448:192,1,840
256,192,192578,5,4,
256,192,192785,1,4,
256,192,192992,1,6,
