osu file format v4

[General]
AudioFilename: Pokemon Theme Song.mp3
AudioLeadIn: 0
AudioHash: e79f241808ccc765c6df935b1e754b63
PreviewTime: -1
SampleSet: Normal
EditorBookmarks: -50

[Metadata]
Title:Pokemon Theme Song
Artist:John Loeffler
Creator:Zyid
Version:Hard

[Difficulty]
HPDrainRate:9
CircleSize:5
OverallDifficulty:7
SliderMultiplier: 1.4
SliderTickRate: 1

[Events]
0,0,"pkmn.jpg"
2,59735,66348
2,123459,133589
3,0,255,255,255

[TimingPoints]
13406,413.793103448276,4,1,1

[HitObjects]
352,288,6164,1,0,
320,256,6371,1,0,
288,224,6578,1,0,
224,160,6992,5,0,
160,160,7199,1,0,
96,160,7406,1,0,
32,160,7612,1,4,
32,96,8233,5,0,
96,96,8440,2,4,B|96:96|320:96,1,210
96,192,9888,5,0,
160,192,10095,1,4,
256,192,10509,1,0,
352,192,10923,1,0,
416,192,11337,1,6,
160,96,12371,5,0,
320,96,12785,1,0,
416,128,13199,1,4,
416,256,13819,5,0,
352,288,14233,1,4,
256,288,14647,1,0,
192,288,14854,1,0,
96,288,15268,1,4,
32,288,15681,1,4,
32,64,16509,5,0,
96,64,16716,1,0,
192,64,17130,1,0,
256,64,17337,1,0,
320,64,17750,1,0,
320,64,17957,2,4,B|320:64|320:352,1,280
384,64,19406,5,0,
416,96,19612,1,0,
448,128,19819,1,0,
352,128,20440,5,0,
352,192,20647,1,0,
352,256,20854,1,0,
352,320,21061,1,0,
256,320,21474,1,0,
192,320,21681,1,0,
96,320,22095,1,0,
32,320,22302,1,0,
64,224,22716,5,0,
96,192,22923,1,0,
128,160,23130,1,4,
224,160,23337,5,0,
288,160,23543,1,4,
384,160,24164,1,4,
384,256,24578,1,0,
384,320,24785,1,4,
192,96,25612,5,4,
256,96,26026,1,4,
320,96,26440,1,0,
320,224,26854,5,4,
256,224,27061,1,0,
192,224,27268,1,0,
128,224,27474,1,6,
32,224,28095,1,0,
32,160,28302,2,4,B|32:160|96:160|260:160|448:160,1,280
160,96,29750,5,0,
224,96,29957,1,4,
320,96,30578,1,4,
320,192,30992,1,0,
320,256,31199,1,4,
256,192,32647,5,2,
224,160,32854,1,2,
192,128,33061,1,2,
160,96,33681,5,6,
224,96,33888,1,0,
288,96,34095,1,2,
352,96,34302,1,4,
416,96,34716,2,4,B|416:96|416:192|416:320,2,210
64,128,37199,5,0,
96,128,37406,1,0,
128,128,37612,1,0,
160,128,37819,1,0,
256,128,38026,1,4,
320,128,38440,1,4,
384,128,38854,1,4,
384,224,39268,5,2,
384,256,39474,1,2,
384,288,39681,1,2,
320,288,40302,6,0,B|320:288|32:288,1,280
64,192,41337,1,0,
96,160,41543,1,4,
128,128,41750,1,4,
192,128,42164,1,4,
288,128,42785,5,0,
288,192,42992,1,0,
288,256,43199,1,4,
192,256,43612,1,0,
128,256,43819,1,4,
128,160,44233,1,0,
128,96,44440,1,4,
256,192,45888,5,2,
224,224,46095,1,2,
192,256,46302,1,2,
160,320,46923,5,6,
224,320,47130,1,0,
288,320,47337,1,2,
352,320,47543,1,4,
416,320,47957,2,4,B|416:320|416:224|416:96,2,210
320,128,50440,5,0,
256,128,50647,1,0,
192,128,50854,1,0,
128,128,51061,1,0,
128,192,51268,1,4,
224,192,51681,1,4,
320,192,52095,1,4,
128,320,53130,5,0,
176,320,53337,1,0,
256,320,53750,1,4,
352,320,54164,1,0,
352,256,54578,1,4,
352,192,54992,1,4,
352,128,55405,1,4,
256,192,56233,12,6,59543
256,192,67406,5,0,
224,192,67612,1,0,
192,192,67819,1,2,
96,96,68440,5,0,
128,96,68647,1,0,
160,96,68854,1,0,
192,96,69061,1,0,
256,160,69474,1,0,
320,224,69681,1,0,
384,224,70095,1,0,
416,224,70302,1,4,
416,96,71130,5,0,
352,96,71337,1,0,
288,96,71543,2,4,B|288:96|192:96,1,140
96,160,72164,1,0,
96,256,72578,1,4,
96,320,72785,1,6,
192,320,73612,5,4,
256,320,74026,1,4,
320,320,74440,1,0,
64,192,75061,5,0,
112,192,75268,1,0,
160,192,75474,1,0,
208,192,75681,1,0,
288,192,76302,1,4,
288,192,76923,1,6,
192,128,77750,5,4,
256,128,77957,1,4,
256,128,78371,1,0,
256,128,78578,1,4,
256,64,78992,1,0,
256,64,79199,1,4,
288,192,80647,5,0,
320,224,80854,1,0,
352,256,81061,1,0,
256,288,81681,5,0,
256,288,81888,1,0,
256,288,82095,1,4,
352,160,82716,1,0,
352,160,82923,1,4,
160,160,83337,1,4,
160,160,83543,1,4,
160,352,84578,5,0,
160,288,84992,1,0,
224,288,85406,1,0,
288,288,85819,1,0,
320,64,86854,5,4,
384,64,87268,1,4,
448,64,87681,1,0,
448,160,88302,5,4,
448,224,88509,1,0,
448,288,88716,1,4,
384,352,89337,1,0,
384,288,89543,2,0,B|384:288|384:64,1,210
32,192,90992,5,4,
32,192,91199,1,4,
128,192,91819,1,4,
224,192,92233,1,0,
224,192,92440,2,4,B|224:192|512:192,1,280
64,192,93888,5,0,
64,160,94095,1,0,
64,128,94302,1,0,
160,96,94923,5,6,
224,96,95130,1,0,
288,96,95337,1,2,
352,96,95543,1,4,
416,96,95957,2,0,B|416:96|416:192|416:320,2,210
128,288,98440,5,0,
177,238,98647,1,0,
226,188,98854,1,4,
352,160,99268,1,4,
288,224,99681,1,4,
224,288,100095,1,6,
64,160,100509,5,0,
64,192,100716,1,0,
64,224,100923,1,0,
64,288,101543,2,0,B|64:288|128:288|192:288|256:288|320:288|384:288|448:288|448:192|448:128,1,420
410,133,102992,1,4,
340,132,103406,1,4,
320,256,104026,5,0,
256,256,104233,1,0,
192,256,104440,1,0,
320,256,104854,1,0,
192,256,105061,1,4,
320,256,105474,1,4,
192,256,105681,1,4,
256,192,107130,5,0,
288,192,107337,1,0,
320,192,107543,1,0,
384,352,108164,5,0,
352,320,108371,1,0,
320,352,108578,1,0,
288,320,108785,1,0,
256,352,109199,2,0,B|256:352|224:352|192:352|160:352|128:352|92:314|64:288|32:256|32:224|32:192|68:158|56:132|88:98|130:-6|360:104|352:96,1,560
128,64,111681,5,4,
160,64,111888,1,0,
192,64,112095,1,4,
288,64,112509,1,4,
288,128,112923,1,4,
288,192,113337,1,4,
64,64,114371,5,0,
112,64,114578,1,0,
192,64,114992,1,4,
320,192,115406,1,4,
448,320,115819,1,0,
384,320,116233,1,0,
320,320,116647,1,4,
64,64,117681,6,4,B|64:64|192:64,1,140
64,128,118302,2,4,B|64:128|128:128|160:128,1,140
64,192,118923,2,4,B|64:192|160:192,1,140
320,64,119750,5,4,
320,96,119957,1,0,
320,128,120164,1,4,
320,160,120371,1,4,
320,224,120785,1,6,
256,128,121406,1,0,
224,256,121612,1,0,
192,128,121819,1,0,
160,256,122026,1,4,
128,192,122440,2,6,B|128:192|416:192,1,280
288,160,134647,5,4,
256,160,134854,1,0,
224,160,135061,1,4,
192,160,135268,1,4,
192,224,135681,2,4,B|192:224|384:224|512:224,1,280
256,192,137543,12,0,140026
224,160,141268,5,4,
256,160,141474,1,0,
288,160,141681,1,4,
336,160,141888,1,4,
320,224,142302,2,4,B|320:224|128:224|0:224,1,280
352,256,144578,6,4,B|352:256|64:64,1,280
128,160,145819,5,0,
160,128,146026,1,0,
192,160,146233,1,0,
224,128,146440,1,0,
256,160,146647,1,0,
288,128,146854,1,0,
384,160,147268,1,6,
448,64,149130,5,0,
416,96,149337,1,0,
384,128,149543,1,0,
352,160,149750,1,0,
320,192,149957,1,0,
256,256,150371,1,0,
224,288,150578,1,6,
128,128,151819,5,0,
160,128,152026,1,0,
192,128,152233,1,0,
224,128,152440,1,0,
320,128,152854,1,0,
384,128,153061,1,4,
64,320,154095,6,4,B|64:320|64:64,1,140
128,128,155130,2,4,B|128:128|192:64,2,70
128,192,155957,1,0,
128,256,156371,1,4,
416,256,157406,5,0,
416,192,157612,1,0,
416,128,157819,1,0,
416,64,158026,1,0,
416,64,158440,1,4,
320,32,159061,1,0,
320,96,159268,1,0,
320,160,159474,1,0,
320,224,159681,1,4,
320,320,160095,1,0,
256,320,160302,1,0,
256,256,160509,2,0,B|256:256|256:32|32:64,2,280
320,128,163406,5,2,
352,96,163612,1,2,
384,64,163819,1,2,
160,320,164440,5,6,
224,320,164647,1,0,
288,320,164854,1,4,
352,320,165061,1,4,
416,320,165474,2,4,B|416:320|416:224|416:96,2,210
128,288,167957,5,0,
177,238,168164,1,0,
226,188,168371,1,0,
352,160,168785,1,4,
288,224,169199,1,4,
224,288,169612,1,4,
64,160,170026,5,0,
64,192,170233,1,0,
64,224,170440,1,0,
64,288,171061,2,4,B|64:288|128:288|192:288|256:288|320:288|384:288,1,280
416,288,172095,1,4,
416,224,172509,1,4,
416,160,172923,1,4,
256,192,173543,5,0,
288,224,173750,1,0,
224,160,173957,1,0,
224,224,174371,1,0,
256,192,174578,1,0,
288,224,174992,1,0,
288,160,175199,1,4,
384,64,176647,5,2,
352,64,176854,1,2,
320,64,177061,1,2,
256,64,177681,1,0,
256,128,177888,1,0,
320,128,178095,1,0,
320,64,178302,1,0,
256,64,178716,2,0,B|256:64|224:64|192:64|160:64|128:64|92:102|64:128|32:160|32:192|32:224|68:258|56:284|88:318|130:422|360:312|352:320,1,560
256,192,181199,5,0,
288,224,181406,1,0,
320,192,181612,1,4,
320,128,181819,1,0,
256,128,182026,1,4,
192,128,182440,1,4,
256,192,182854,1,4,
160,192,183888,5,0,
160,192,184095,1,0,
256,192,184509,5,4,
256,192,184923,1,2,
352,192,185337,5,0,
256,192,185750,1,0,
160,192,186164,1,4,
256,192,187199,6,6,B|256:192|352:288,1,140
256,192,187819,2,6,B|256:192|192:192|160:192,1,140
256,192,188440,2,6,B|256:192|352:96,1,140
384,192,189268,5,4,
352,128,189474,1,0,
288,96,189681,1,4,
224,96,189888,1,4,
128,192,190302,1,6,
224,288,190923,1,4,
288,288,191130,1,0,
352,256,191337,1,4,
384,192,191543,1,4,
352,128,191957,2,0,B|352:128|320:96|288:96,1,140
256,192,192578,5,2,
256,192,192785,1,2,
256,192,192992,1,6,
