osu file format v6

[General]
AudioFilename: john cena - the time is now.mp31253201505_[mp3.teledyski.info].mp3
AudioLeadIn: 0
PreviewTime: -1
Countdown: 1
SampleSet: Normal
StackLeniency: 0.7
Mode: 0
LetterboxInBreaks: 1

[Editor]
DistanceSpacing: 0.800000011920929
BeatDivisor: 1
GridSize: 8

[Metadata]
Title:The time is now
Artist:John Cena
Creator:skate21
Version:Hard
Source:
Tags:

[Difficulty]
HPDrainRate:8
CircleSize:7
OverallDifficulty:7
SliderMultiplier:1.3
SliderTickRate:3

[Events]
//Background and Video events
0,0,"3846_john_cena_preview.jpg"
//Break Periods
//Storyboard Layer 0 (Background)
//Storyboard Layer 1 (Fail)
//Storyboard Layer 2 (Pass)
//Storyboard Layer 3 (Foreground)
//Storyboard Sound Samples
//Background Colour Transformations
3,100,163,162,255

[TimingPoints]
2388,279.827272727274,4,1,0,100,1,0

[HitObjects]
208,160,10887,1,0
128,200,11517,1,0
224,208,12146,1,0
280,200,12741,1,0
184,240,13336,1,0
64,168,14000,1,0
208,136,14560,1,0
296,120,15260,1,0
288,184,15539,1,0
248,96,16414,1,0
200,152,17673,1,0
264,144,18897,1,0
136,224,19457,2,0,C|424:224,1,260
264,144,20751,1,0
264,144,21975,1,0
264,144,22605,1,0
264,144,23200,1,0
224,192,23654,2,0,C|224:376,1,130
144,184,25054,1,0
192,176,26313,1,0
56,232,27292,2,0,C|328:72,1,260
264,152,28167,1,0
184,208,28971,1,0
168,136,30020,1,0
256,176,30370,1,0
400,96,30650,1,0
88,200,31245,2,0,C|496:136|304:304,1,650
112,96,33728,1,0
136,184,34952,2,0,C|312:200,6,130
216,96,37646,1,0
112,160,38485,1,0
280,144,39325,1,0
24,120,40724,1,0
176,192,41109,1,0
152,152,42962,5,0
208,232,43557,1,0
256,144,44816,1,0
264,176,46041,1,0
184,168,46670,1,0
216,136,47894,1,0
312,128,49119,1,0
392,184,50378,1,0
312,272,51602,1,0
352,144,52197,1,0
104,184,53456,1,0
352,144,54435,1,0
168,184,55310,1,0
400,184,55939,1,0
352,144,56394,1,0
336,256,57164,1,0
408,144,58388,1,0
160,192,59647,2,0,C|480:120|160:88,2,650
80,208,63110,2,0,C|512:200|208:256,1,650
88,168,65349,1,0
224,200,65628,1,0
224,200,66188,1,0
88,160,66993,1,0
240,168,68252,1,0
240,216,69546,1,0
256,192,70106,12,0,73106
240,216,74023,1,0
192,160,75038,5,0
344,184,75667,1,0
168,248,76262,1,0
224,144,76892,1,0
240,216,77661,1,0
232,168,78745,1,0
168,232,79375,1,0
128,160,79970,1,0
264,136,81229,1,0
176,176,81823,2,0,C|416:168,2,130
48,88,83537,1,0
256,192,84307,12,0,86107
128,320,87175,1,0
288,144,88015,5,0
144,208,89239,1,0
200,152,89869,1,0
264,288,90813,1,0
232,200,91687,1,0
40,168,92912,1,4
120,168,94765,1,0
112,272,95570,2,0,C|280:264,1,130
168,232,96619,2,0,C|320:192|240:288,1,260
128,176,99103,1,0
216,248,100327,1,0
256,192,101586,12,0,105186
112,184,106203,2,0,C|312:208,1,130
144,176,107742,5,0
256,176,109002,1,0
136,224,110856,1,0
152,160,112080,1,0
192,200,112919,1,0
248,160,113934,1,0
304,208,114598,1,0
304,208,115158,1,0
176,192,115788,1,0
312,216,116557,1,0
312,216,117117,1,0
264,168,117606,1,0
312,216,118236,1,0
312,216,118516,1,0
96,200,119460,2,0,C|376:192|64:248,2,520
256,192,122713,12,0,125512
208,184,126876,1,0
168,232,128730,1,0
280,112,129324,1,0
96,200,129989,2,0,C|480:216|168:288,1,650
240,168,132437,5,0
152,224,133032,1,0
160,136,134291,1,0
304,200,134886,1,0
184,256,136145,1,0
200,176,136740,1,0
144,232,137999,2,0,C|392:152,1,260
104,192,139853,1,0
296,168,140447,1,0
160,192,141741,1,0
256,192,142301,12,0,145901
224,216,146778,1,0
144,168,147828,5,0
232,216,148737,1,0
208,256,149682,1,0
256,184,150311,1,0
240,216,151256,1,0
208,256,152165,1,0
272,200,152795,1,0
192,200,153389,1,0
232,208,154019,1,0
376,224,154649,1,0
160,240,155243,1,0
240,216,156293,1,0
104,200,157097,2,0,C|344:176,1,130
248,216,157971,1,0
256,232,158951,2,0,C|80:112,1,130
248,216,160210,1,0
96,232,160805,2,0,C|432:160,1,260
248,216,162169,1,0
288,240,162659,2,0,C|0:40,1,260
376,88,164967,1,0
120,176,165737,1,0
264,192,166366,1,0
56,96,166926,1,0
152,224,167591,1,0
216,240,168815,5,0
200,160,169409,1,0
288,208,170039,1,0
96,232,171263,1,0
240,184,171893,1,0
240,232,172522,1,0
200,288,173082,1,0
48,248,173642,1,0
232,320,174481,1,0
384,256,175041,1,0
256,192,175601,12,0,177401
