osu file format v5

[General]
AudioFilename: Brahms.mp3
AudioLeadIn: 0
PreviewTime: -1
Countdown: 1
SampleSet: Soft
StackLeniency: 0.7
Mode: 0
LetterboxInBreaks: 1

[Metadata]
Title:Brahms(O2 Version)
Artist:Johannes Brahms
Creator:Crazy Jay
Version:Boring
Source:O2Jam
Tags:

[Difficulty]
HPDrainRate:5
CircleSize:3
OverallDifficulty:4
SliderMultiplier:1
SliderTickRate:2

[Events]
//Background and Video events
0,0,"Brahms.JPG"
//Break Periods
//Storyboard Layer 0 (Background)
//Storyboard Layer 1 (Failing)
//Storyboard Layer 2 (Passing)
//Storyboard Layer 3 (Foreground)
//Storyboard Sound Samples
//Background Colour Transformations
3,100,163,162,255

[TimingPoints]
42,413.793103448276,4,2,0,100,1

[Colours]
Combo1 : 0,240,240
Combo2 : 255,128,0
Combo3 : 255,255,0
Combo4 : 0,181,181

[HitObjects]
409,276,3352,1,2
408,76,3973,1,2
408,76,4179,1,0
408,76,4386,1,2
257,76,5007,1,2
256,276,5628,1,2
256,276,5835,1,0
256,276,6041,1,2
106,278,6662,1,2
104,77,7283,1,2
104,77,7490,1,0
104,77,7697,1,2
104,77,7904,1,8
203,76,8317,6,2,B|264:76,3,50
303,76,9145,2,2,B|372:77|382:139,1,100,2|10
426,216,9973,5,4
276,218,10593,2,8,B|206:218,1,50
125,219,11214,1,8
124,118,11628,1,4
273,119,12248,2,8,B|346:118,1,50
423,118,12869,1,8
425,218,13283,6,0,B|412:250|401:282|333:276,3,100,4|8|4|8
253,274,14938,2,0,B|219:268|185:261|167:210,3,100,4|8|4|8
118,138,16593,5,2
218,137,17007,1,8
318,136,17421,1,2
418,135,17835,1,8
417,234,18248,2,0,B|418:344,3,100,2|8|2|8
313,334,19904,5,2
213,332,20317,2,0,B|108:332,2,100,8|2|8
211,231,21559,1,2
211,130,21973,2,0,B|92:131,1,100,8|2
112,230,22800,1,8
212,230,23214,5,8
211,179,23421,1,8
211,128,23628,1,8
211,77,23835,1,8
160,78,24041,1,8
60,80,24455,2,4,B|60:146,2,50
210,79,25490,1,8
210,79,25697,1,8
210,79,26110,1,4
309,82,26524,6,8,B|309:153,6,50
311,182,28179,1,8
260,181,28386,1,8
209,181,28593,1,8
158,182,28800,1,8
107,182,29007,1,4
107,282,29421,1,4
207,282,29835,5,8
306,282,30248,1,8
251,198,30662,1,8
251,198,30869,1,8
251,198,31076,1,4
351,198,31490,5,4
350,97,31904,2,4,B|424:96|440:159,1,100
488,224,32731,1,2
488,224,32938,1,2
388,227,33352,2,0,B|279:227,1,100,8|8
237,227,33973,1,8
187,227,34179,1,8
136,227,34386,1,4
133,327,34800,5,4
233,327,35214,2,4,B|233:289|212:253|162:239,1,100
100,189,36042,1,2
100,189,36248,1,2
102,88,36662,2,8,B|219:88,1,100
252,88,37283,1,8
302,88,37490,1,8
352,88,37697,1,4
451,88,38110,5,4
453,188,38524,2,8,B|395:188,3,50,8|8|8|4
302,189,39559,1,4
300,88,39973,1,4
200,88,40386,1,8
200,88,40593,1,8
200,88,40800,1,8
200,88,41007,1,4
200,190,41421,5,4
350,186,42042,2,4,B|292:188,1,50
198,189,42662,1,4
97,189,43076,1,4
97,189,43283,1,4
48,276,43697,2,0,B|113:288,3,50
196,290,44731,6,8,B|307:292,1,100
396,291,45559,2,4,B|414:265|414:265|385:240|385:240|413:206|413:206|382:178|382:178,1,150
308,118,46593,1,4
207,118,47007,1,8
207,118,47214,1,8
207,118,47421,1,8
207,118,47628,1,4
203,18,48042,6,8,B|168:16|133:35|113:90,1,100
68,151,48869,2,4,B|50:177|50:177|79:202|79:202|51:236|51:236|82:264|82:264,1,150
161,315,49904,1,4
260,315,50317,1,8
310,315,50524,1,8
360,316,50731,1,8
410,316,50938,1,4
408,215,51352,5,8
408,215,51766,1,8
308,215,52179,1,2
308,215,52386,1,4
207,214,52800,1,4
204,113,53214,1,4
304,113,53628,2,0,B|373:113,3,50,8|8|8|4
454,111,54662,5,4
455,211,55076,1,4
354,212,55490,2,2,B|288:212,3,50,2|2|2|2
253,211,56317,1,4
249,318,56731,1,4
348,321,57145,2,2,B|347:248,3,50
345,220,57973,6,4,B|343:145|343:145|278:145|278:145|278:222,2,200
346,270,59835,5,2
346,320,60042,1,10
246,322,60455,1,2
195,322,60662,1,2
144,322,60869,1,10
144,221,61283,2,2,B|144:156,3,50,2|2|10|2
144,120,62110,1,2
194,120,62317,1,2
244,121,62524,1,10
344,122,62938,6,4,B|405:123|405:123|404:203|404:203|326:202,3,200
294,203,65628,5,2
243,203,65835,1,10
143,203,66248,1,2
143,253,66455,1,2
144,303,66662,1,10
244,303,67076,1,2
294,303,67283,1,2
343,304,67490,1,10
393,302,67697,2,2,B|392:238,3,50,2|2|10|2
392,151,68731,5,2
392,151,68938,1,2
392,151,69145,1,10
292,151,69559,1,2
292,151,69766,1,2
292,151,69973,1,10
192,151,70386,2,0,B|192:92,3,50,0|0|8|0
192,50,71214,5,4
192,200,71835,1,2
192,200,72042,1,2
342,200,72662,1,2
342,200,72869,1,2
345,49,73490,1,2
345,49,73697,1,2
349,249,74524,6,0,B|334:260|308:273|277:269|237:241,3,100,4|8|4|8
249,152,76179,2,0,B|234:141|208:128|177:132|140:167,3,100,4|8|4|8
71,206,77835,5,2
170,204,78248,1,2
270,204,78662,1,6
420,201,79283,1,4
420,201,79490,1,4
420,350,80110,2,0,B|420:312,2,25
219,350,81145,6,8,B|131:274,1,100
221,221,81973,2,8,B|302:144,1,100
219,81,82800,2,8,B|134:7,2,100
297,144,84042,1,4
197,144,84455,5,4
96,144,84869,1,4
143,232,85283,2,2,B|252:233,1,100,4|2
293,233,85904,1,2
392,232,86317,1,4
393,131,86731,2,8,B|394:78,3,50,8|8|8|4
293,85,87766,5,4
192,85,88179,1,4
242,171,88593,2,0,B|124:172,1,100,4|2
91,172,89214,1,2
91,272,89628,1,4
191,271,90042,2,0,B|190:208,3,50,8|8|8|4
290,221,91076,5,4
390,220,91490,1,8
390,169,91697,2,8,B|390:114,2,50,8|8|4
289,166,92524,1,4
292,265,92938,1,4
191,265,93352,1,8
140,265,93559,1,8
142,215,93766,1,8
141,164,93973,1,4
245,227,94386,5,4
44,222,95214,2,8,B|164:223,1,100
244,228,96042,5,4
443,226,96869,2,8,B|328:226,1,100
242,228,97697,5,4
240,28,98524,2,8,B|241:138,1,100
243,228,99352,1,2
243,228,99559,5,10
343,228,99973,6,2,B|383:228,6,25,2|2|2|2|2|2|6
256,192,101007,12,4,101835
