osu file format v5

[General]
AudioFilename: Crushing Day.mp3
AudioLeadIn: 0
PreviewTime: -1
Countdown: 1
SampleSet: Normal
StackLeniency: 0.7
Mode: 0
LetterboxInBreaks: 1
EditorDistanceSpacing: 0.800000011920929

[Metadata]
Title:Crushing Day
Artist:Joe Satriani
Creator:Bluephics
Version:Hard
Source:
Tags:surfing with the alien joe satriani crushing day

[Difficulty]
HPDrainRate:3
CircleSize:5
OverallDifficulty:7
SliderMultiplier:0.4
SliderTickRate:1

[Events]
//Background and Video events
//Break Periods
2,100962,110044
2,133432,135100
2,171622,173659
2,195237,206129
//Storyboard Layer 0 (Background)
//Storyboard Layer 1 (Failing)
//Storyboard Layer 2 (Passing)
//Storyboard Layer 3 (Foreground)
//Storyboard Sound Samples
//Background Colour Transformations
3,100,163,162,255

[TimingPoints]
400,184.490498739315,4,1,0,13,1,0

[HitObjects]
96,192,12945,2,0,B|384:192,4,280
96,128,18849,1,0
160,128,19587,1,0
224,128,20324,1,0
160,192,21062,1,0
96,256,22169,2,0,B|320:256,2,200
96,160,24752,1,0
128,160,25490,1,0
160,160,26228,1,0
192,160,26966,1,0
160,256,28442,5,0
192,256,28811,1,0
224,256,29180,1,0
256,256,29549,1,0
320,256,29918,2,0,B|352:256|352:256|384:256,4,40
320,192,31025,1,0
224,192,31394,2,0,B|288:192|288:192,4,40
160,192,32501,1,0
64,224,32870,2,0,B|128:192|128:224,10,40
64,288,34899,5,0
96,288,35084,1,0
128,288,35268,1,0
160,288,35453,1,0
192,288,35637,2,0,B|320:288,1,120
352,288,36375,1,0
160,64,36929,1,0
192,64,37298,1,0
64,160,37851,1,0
96,160,38036,1,0
160,160,38405,1,0
192,160,38589,1,0
224,160,38774,1,0
192,96,38958,2,0,B|480:96,2,280
192,160,41725,6,0,B|256:160,2,40
192,160,42279,1,0
160,224,42832,1,0
224,224,43201,2,0,B|288:224,2,40
224,224,43755,1,0
160,288,44308,1,0
224,288,44677,2,0,B|288:288,2,40
224,288,45231,1,0
160,192,45784,1,0
224,192,46153,2,0,B|288:192,2,40
224,192,46707,1,0
224,128,47260,1,0
256,128,47629,2,0,B|320:128,2,40
256,128,48183,1,0
320,128,48736,1,0
352,96,49105,2,0,B|384:64,2,40
352,96,49658,1,0
256,160,50212,1,0
192,96,50581,2,0,B|224:128,2,40
192,96,51134,1,0
256,96,51688,1,0
288,96,52057,2,0,B|352:96,4,40
288,128,52979,1,0
320,160,53164,1,0
288,192,53348,1,0
320,224,53533,1,0
128,96,54271,5,0
352,288,55009,1,0
128,160,55747,1,0
160,160,56485,2,0,B|352:160,2,160
160,160,57961,2,0,B|160:288,2,120
160,160,60174,1,0
224,160,60912,1,0
288,160,61650,1,0
128,96,62388,2,0,B|224:96,2,80
224,160,63495,1,0
224,224,63864,2,0,B|320:224|384:288|352:352|352:352,2,200
224,320,66078,5,0
192,288,66816,1,0
160,256,67554,1,0
128,224,68292,1,0
128,160,69768,2,0,B|224:160|224:64|256:96,2,120
256,160,71244,2,0,B|352:128,2,80
288,192,72351,1,0
256,224,72720,1,0
128,128,73273,1,0
160,128,73458,1,0
64,192,73827,1,0
96,192,74011,1,0
128,192,74196,1,0
160,192,74380,1,0
192,192,74565,1,0
224,192,74749,1,0
256,192,74934,2,0,B|384:192,2,120
256,128,76225,2,0,B|320:128,3,40
288,192,76963,2,0,B|352:192|384:256,1,120
256,288,77701,2,0,B|352:288,1,80
160,288,78254,2,0,B|224:288,1,40
96,288,78623,2,0,B|96:192,1,80
288,288,79177,5,0
224,224,79730,1,0
160,160,79915,1,0
160,96,80099,2,0,B|480:96,2,280
96,192,83051,6,0,B|160:192,2,40
96,192,83605,1,0
192,192,84158,1,0
256,192,84527,1,0
224,128,85081,1,0
192,64,85265,1,0
96,64,85634,1,0
96,96,85819,1,0
96,128,86003,1,0
96,160,86188,1,0
96,192,86372,1,0
96,224,86557,2,0,B|288:224,1,160
256,256,87479,2,0,B|384:256,1,120
384,224,88217,2,0,B|512:224,1,120
416,160,88955,1,0
320,128,89508,1,0
224,160,90062,1,0
128,224,90431,2,0,B|192:224,3,40
64,288,91169,1,0
96,256,91538,1,0
64,224,91722,1,0
96,192,91907,1,0
64,160,92091,1,0
96,128,92276,1,0
96,96,92460,2,0,B|160:128|160:192|224:192|288:128|288:64|384:256|384:288,1,360
288,256,94305,1,0
256,256,94490,1,0
224,256,94674,1,0
224,224,94859,2,0,B|288:160,1,80
224,160,95412,1,0
160,192,95966,1,0
128,256,96335,2,0,B|224:288,1,80
288,288,96888,1,0
288,288,97073,1,0
352,128,97442,1,0
320,160,97626,1,0
288,160,97810,1,0
256,192,97995,1,0
224,192,98179,1,0
128,224,98364,2,0,B|160:-64|192:256|224:-64|288:256|288:-96|192:160|192:192|224:192|320:192|352:160|352:128|352:96|320:64|288:64,1,480
224,32,100762,1,0
96,288,111094,6,0,B|192:160,1,240
256,192,112570,2,0,B|320:192,11,40
288,224,114784,2,0,B|416:224,1,120
96,96,115522,6,0,B|160:96,11,40
128,128,117735,2,0,B|288:128,1,120
128,224,118473,6,0,B|192:224,13,40
160,192,121056,2,0,B|256:192,1,80
256,192,121610,12,0,123270
96,128,124193,6,0,B|160:128,12,40
128,192,126591,2,0,B|288:192,1,120
128,64,127329,1,0
128,96,127513,1,0
128,96,127698,1,0
128,128,127882,1,0
128,128,128067,1,0
128,160,128251,1,0
128,192,128436,1,0
128,192,128620,1,0
128,192,128805,1,0
128,224,128989,1,0
128,224,129174,1,0
128,256,129358,1,0
128,256,129543,2,0,B|256:256,1,120
320,224,130281,2,0,B|384:224,13,40
288,160,132864,2,0,B|384:160,1,80
96,160,136000,5,0
128,160,136369,1,0
160,160,136553,2,0,B|224:160,4,40
96,192,137476,1,0
160,192,137845,2,0,B|224:192,2,40
160,256,138398,1,0
192,288,138583,1,0
256,288,138952,1,0
320,256,139321,1,0
320,192,139505,2,0,B|320:128,4,40
224,192,140428,1,0
224,160,140797,1,0
224,128,140981,2,0,B|160:128,4,40
128,128,141904,1,0
96,128,142273,1,0
96,160,142457,2,0,B|96:224,4,40
128,224,143380,1,0
192,256,143749,1,0
256,224,143933,2,0,B|288:192,4,40
320,160,144856,1,0
320,128,145225,1,0
288,96,145409,2,0,B|224:96,4,40
192,96,146331,1,0
160,96,146700,1,0
256,160,148176,5,0
256,160,148361,1,0
256,160,148545,1,0
256,160,148730,1,0
256,160,148914,1,0
224,256,149652,2,0,B|288:256,4,40
96,160,151128,5,0
96,160,151313,1,0
96,160,151497,1,0
96,160,151682,1,0
96,160,151866,1,0
192,256,152604,2,0,B|224:224,4,40
416,128,154080,5,0
384,128,154265,1,0
384,128,154449,1,0
352,128,154634,1,0
352,128,154818,1,0
288,224,155556,2,0,B|224:224,5,40
64,64,157032,5,0
64,64,157216,1,0
96,64,157401,1,0
96,64,157585,1,0
128,64,157770,1,0
128,64,157954,1,0
160,64,158139,1,0
160,64,158323,1,0
192,64,158508,1,0
192,64,158692,1,0
224,64,158877,2,0,B|416:64,1,160
256,192,159799,12,0,165334
256,192,165518,12,0,171422
224,160,174559,5,0
192,160,174928,1,0
160,160,175112,1,0
288,160,175481,2,0,B|352:160,1,40
288,224,176034,2,0,B|352:224,1,40
224,288,176588,2,0,B|288:288,1,40
224,224,177141,1,0
224,224,177326,1,0
224,224,177510,1,0
192,224,177695,1,0
192,224,177879,1,0
192,224,178064,1,0
128,224,178248,1,0
128,224,178433,1,0
128,224,178617,1,0
128,160,178802,1,0
128,160,178986,1,0
128,160,179171,1,0
192,160,179355,2,0,B|256:160,16,40
192,192,182492,1,0
224,192,182676,2,0,B|320:192,1,80
224,96,183599,5,0
224,96,183783,1,0
224,96,183968,1,0
224,96,184152,1,0
224,96,184337,1,0
160,160,186366,1,0
224,160,186735,1,0
288,160,187104,1,0
352,160,187473,1,0
160,224,187842,1,0
192,224,188026,1,0
224,224,188211,1,0
256,224,188395,2,0,B|416:224,1,120
64,96,189133,6,0,B|416:96,2,320
64,160,192270,2,0,B|96:288|224:320|352:256,1,440
320,96,194484,2,0,B|448:96,1,120
64,64,207029,5,0
64,64,207213,1,0
128,64,207582,1,0
128,128,207767,2,0,B|128:192,1,40
224,160,208320,5,0
224,96,208505,2,0,B|224:32,1,40
320,64,209058,5,0
320,128,209243,2,0,B|320:192,1,40
416,160,209796,5,0
416,96,209981,2,0,B|416:32,1,40
416,256,210534,5,0
352,256,210719,1,0
288,256,210903,1,0
224,256,211272,5,0
160,256,211457,2,0,B|96:256,1,40
96,224,212010,2,0,B|64:256,2,40
96,160,212748,1,0
160,128,212933,2,0,B|256:128,1,80
240,128,213302,2,0,B|416:128,1,160
416,160,214224,5,0
448,192,214408,1,0
416,224,214593,1,0
448,256,214777,1,0
416,288,214962,1,0
448,320,215146,1,0
384,352,215331,2,0,B|288:352,1,80
256,352,215884,6,0,B|192:352,1,40
256,288,216253,2,0,B|192:288,1,40
256,224,216622,2,0,B|192:224,1,40
256,160,216991,2,0,B|192:160,5,40
320,128,218098,2,0,B|64:64|32:64|32:96|320:192|352:192|352:224|352:256|64:224,1,720
352,64,221604,1,0
352,64,221788,2,0,B|32:32|64:224|352:320,1,560
448,320,224555,1,0
448,320,224740,2,0,B|416:96|128:64|32:160|32:256,1,560
384,192,227507,1,0
384,192,227692,2,0,B|320:256|192:256|128:160,1,280
136,171,229168,2,0,B|192:64|352:64|416:128,1,320
32,64,231382,6,0,B|160:64,1,120
128,128,232120,2,0,B|256:128,1,120
224,192,232858,2,0,B|352:192,1,120
480,256,233595,2,0,B|192:256,1,280
128,320,235071,2,0,B|480:320,1,320
64,64,237285,5,0
352,64,238023,1,0
64,256,238761,1,0
352,256,239499,1,0
352,64,240606,1,0
288,64,240975,2,0,B|160:64|64:160|32:256|32:256,1,320
64,64,243189,5,0
64,160,243927,2,0,B|224:160,1,120
256,160,244665,1,0
256,256,245403,2,0,B|0:64,1,280
448,32,246879,1,0
384,32,247248,1,0
320,32,247617,1,0
256,32,247986,1,0
64,128,248355,5,0
160,128,248908,1,0
256,128,249462,1,0
352,128,249831,1,0
448,128,250384,1,0
448,192,250938,1,0
416,224,251122,1,0
384,256,251307,1,0
352,224,251491,1,0
320,192,251676,1,0
320,96,251860,2,0,B|0:96,1,280
32,160,253336,5,0
64,160,253520,1,0
96,160,253705,1,0
128,160,253889,1,0
160,160,254074,2,0,B|288:160,1,120
320,160,254812,1,0
416,160,255365,1,0
448,256,255734,1,0
384,288,256288,1,0
288,288,256841,1,0
256,288,257026,1,0
224,288,257210,1,0
192,288,257395,1,0
160,288,257579,1,0
128,288,257764,2,0,B|32:256|0:128|96:64|256:64|352:64,1,480
416,64,260162,5,0
416,192,260716,1,0
416,320,261269,1,0
352,320,261638,2,0,B|224:320,1,120
96,96,262745,2,0,B|160:96,4,40
96,160,263667,2,0,B|416:160,1,280
384,224,265143,1,0
352,224,265328,1,0
320,224,265512,1,0
288,224,265697,1,0
224,224,265881,6,0,B|64:224,1,120
96,64,266619,1,0
192,128,267173,2,0,B|256:64,2,80
320,128,268095,1,0
320,192,268649,1,0
288,224,268833,1,0
320,256,269018,1,0
288,288,269202,1,0
320,320,269387,1,0
288,352,269571,2,0,B|96:352|64:224|160:64|256:32,1,480
64,64,271970,5,0
128,64,272523,1,0
192,64,273076,1,0
256,64,273445,1,0
320,64,273999,1,0
384,64,274552,1,0
416,96,274737,1,0
384,128,274921,1,0
352,160,275106,1,0
320,192,275290,1,0
352,224,275475,1,0
288,320,276397,1,0
192,320,276951,1,0
160,320,277135,1,0
64,64,277873,6,0,B|160:64,1,80
128,128,278427,2,0,B|192:128,1,40
160,192,278980,2,0,B|224:192,1,40
256,192,279349,2,0,B|352:192,1,80
320,224,279903,2,0,B|320:288,1,40
160,320,280456,2,0,B|192:288,4,40
0,256,281379,2,0,B|512:256,1,480
448,192,283777,5,0
384,192,284330,1,0
320,192,284884,1,0
256,192,285253,1,0
192,192,285806,1,0
128,192,286360,1,0
96,192,286544,1,0
64,160,286729,1,0
64,128,286913,1,0
96,96,287098,1,0
128,128,287282,2,0,B|320:128,1,160
352,128,288205,1,0
448,128,288758,1,0
448,128,288943,1,0
256,192,289681,12,0,295400
