osu file format v9

[General]
AudioFilename: 14 - Heavy Metal Anthem.mp3
AudioLeadIn: 2000
PreviewTime: 1749
Countdown: 0
SampleSet: Normal
StackLeniency: 0.7
Mode: 0
LetterboxInBreaks: 1

[Editor]
DistanceSpacing: 1
BeatDivisor: 4
GridSize: 4

[Metadata]
Title:Heavy Metal Anthem
Artist:Joe Rinoie
Creator:Hellzero
Version:Insane
Source:Shijou Saikyou no Deshi Kenichi
Tags:History's Strongest Disciple Aleks719 ShiroKitty

[Difficulty]
HPDrainRate:6
CircleSize:4
OverallDifficulty:6
ApproachRate:8
SliderMultiplier:1.5
SliderTickRate:1

[Events]
//Background and Video events
0,0,"BG.jpg"
//Break Periods
//Storyboard Layer 0 (Background)
//Storyboard Layer 1 (Fail)
//Storyboard Layer 2 (Pass)
//Storyboard Layer 3 (Foreground)
//Storyboard Sound Samples
//Background Colour Transformations
3,100,0,0,0

[TimingPoints]
95,333.333333333333,4,1,1,61,1,0
28182,-100,4,1,1,0,0,0
28349,-100,4,1,1,61,0,0
44087,-100,4,2,1,62,0,0
53337,-100,4,1,1,21,0,0
53712,-100,4,1,1,41,0,0
54045,-100,4,1,1,61,0,0
54594,-100,4,1,1,61,0,1
59928,-100,4,1,1,61,0,0
79928,-100,4,1,1,0,0,0

[Colours]
Combo1 : 123,21,6
Combo2 : 194,1,1
Combo3 : 239,128,80

[HitObjects]
256,192,94,12,0,1261
56,120,1594,6,0,B|144:120,1,75,0|8
160,192,1928,2,0,B|72:192,1,75,0|0
120,264,2261,1,0
184,304,2428,1,8
248,264,2595,1,0
376,192,2761,6,0,B|376:96,1,75,0|0
322,63,3095,1,8
247,63,3261,1,0
193,116,3428,2,0,B|193:196,1,75,0|0
117,191,3761,1,8
266,266,3928,2,8,B|192:304|122:269,1,150,12|0
63,136,4428,5,8
116,189,4595,1,0
168,136,4761,2,0,B|168:61,1,75,0|0
220,192,5094,1,8
273,138,5261,1,0
387,28,5428,6,0,B|387:132,1,75,0|0
387,178,5761,1,8
387,253,5928,2,0,B|387:328,2,75,0|0|0
311,253,6428,1,8
349,112,6594,2,0,B|276:141|246:215,1,150,12|0
96,216,7094,5,8
120,288,7261,1,0
180,336,7428,2,0,B|276:336,1,75,0|0
312,288,7761,1,8
336,216,7928,1,0
220,124,8094,6,0,B|220:204,2,75,0|0|8
288,88,8594,1,0
356,120,8761,2,0,B|452:120,1,75,0|0
464,192,9094,1,8
337,195,9261,2,0,B|376:254|464:267,1,150,12|0
340,344,9761,5,8
264,344,9928,1,0
264,268,10095,2,0,B|264:180,1,75,0|0
188,196,10428,1,8
188,120,10595,1,0
112,272,10761,6,2,B|112:176,1,75,2|2
396,272,11261,1,2
112,272,11595,1,2
256,40,11928,2,0,B|264:48|264:48|256:56|256:56|248:64|248:64|256:72|256:72|264:80|264:80|256:88|256:88|248:96|248:96|256:104|256:104|256:184,1,150,4|0
256,240,12428,5,8
192,200,12595,1,0
320,200,12761,2,0,B|408:200,1,75,0|0
432,136,13095,1,8
400,72,13261,1,0
256,40,13428,6,0,B|181:40,1,75,0|0
181,115,13761,1,8
127,168,13928,1,0
255,221,14095,2,0,B|180:221,1,75,0|0
126,274,14428,1,8
294,283,14594,2,0,B|233:305|233:305|229:315|229:315|159:341,1,150,12|0
112,192,15095,5,8
188,192,15261,1,0
264,192,15428,2,0,B|264:117,1,75,0|0
340,192,15761,1,8
416,192,15928,1,0
264,268,16095,6,0,B|264:372,2,75,0|0|8
264,192,16595,1,0
264,116,16761,2,0,B|264:41,2,75,0|0|8
193,266,17261,2,0,B|200:232|200:232|184:192|200:152|200:152|192:120,1,150,12|0
320,192,17761,5,8
392,208,17928,1,0
456,168,18095,2,0,B|456:93,1,75,0|0
392,56,18428,1,8
320,80,18595,1,0
204,136,18761,6,0,B|100:136,2,75,0|0|8
256,192,19261,1,0
331,192,19428,2,0,B|435:192,1,75,0|0
406,116,19761,1,8
473,299,19928,2,0,B|488:264|488:192|472:152,1,150,12|0
344,72,20428,5,8
272,72,20594,1,0
143,125,20761,2,0,B|218:125,1,75,0|0
271,178,21094,1,8
346,178,21261,1,0
142,231,21428,6,0,B|217:231,1,75,2|2
408,232,21928,1,2
40,192,22261,1,2
472,192,22594,1,4
104,232,23094,5,8
264,144,23428,1,0
312,88,23594,1,0
384,104,23761,1,8
336,160,23928,1,0
282,213,24094,6,0,B|226:269,1,75,0|0
153,266,24428,2,0,B|105:210,1,75,8|0
105,130,24761,2,0,B|161:82,1,75,0|0
241,82,25094,2,0,B|289:138,1,75,8|12
256,192,25428,12,8,26428
56,104,26761,5,0
126,71,26928,1,0
154,139,27094,1,8
224,111,27261,1,0
252,180,27428,1,0
320,152,27594,1,0
348,221,27761,1,8
376,288,27928,2,0,B|376:328|280:352|184:328|184:280,1,225,8|8
104,160,28761,2,0,B|103:215|124:230,2,75,0|0|8
240,72,29428,6,0,B|165:72,1,75,0|0
272,144,29761,2,0,B|347:144,1,75,8|0
240,216,30094,2,0,B|165:216,1,75,0|0
272,288,30428,1,0
346,288,30594,6,0,B|402:288|402:288|426:264|426:264|490:264,1,150,4|0
192,192,31261,2,0,B|131:192|131:192|107:168|107:168|51:168,1,150,4|0
346,96,31928,2,0,B|402:96|402:96|426:120|426:120|490:120,1,150,4|0
96,128,32594,2,0,B|184:88,1,75,6|0
200,168,32928,2,0,B|280:128,1,75,6|0
344,128,33261,6,0,B|392:216|320:296,1,150,6|0
288,328,33761,1,8
128,304,34094,1,0
80,248,34261,1,0
152,232,34428,1,8
88,88,34761,6,0,B|184:88,1,75
363,256,35094,2,0,B|288:256,1,75,8|0
224,136,35428,2,0,B|224:211,1,75,0|0
424,208,35761,2,0,B|424:128,1,75,8|0
424,56,36094,5,4
256,192,36428,1,0
88,328,36761,1,0
256,192,37094,1,0
100,192,37428,6,0,B|46:138,1,75,0|0
176,192,37761,1,8
252,192,37928,2,0,B|305:138,1,75,0|0
176,192,38261,1,0
176,268,38428,2,0,B|176:364,1,75,8|0
248,336,38761,6,0,B|322:366|394:334,1,150,4|0
312,56,39428,2,0,B|237:25|165:57,1,150
120,280,40095,5,0
196,280,40261,1,0
120,280,40428,1,8
72,224,40595,1,0
120,168,40761,1,0
196,168,40928,1,0
272,168,41095,1,8
276,244,41261,6,0,B|316:324|436:292,1,150,12|0
256,48,41928,1,0
40,192,42261,1,0
256,336,42595,1,0
256,48,42928,5,0
256,64,43011,1,0
256,80,43095,1,8
256,96,43178,1,0
256,112,43261,1,0
296,176,43428,1,8
220,176,43595,1,0
296,252,43761,1,8
220,252,43928,1,0
256,320,44095,5,0
256,320,44261,1,0
336,192,44428,1,8
336,192,44595,1,0
304,48,44761,1,0
304,48,44928,1,0
256,192,45095,1,8
256,192,45261,1,0
208,48,45428,5,0
208,48,45595,1,0
168,192,45761,1,8
168,192,45928,1,8
256,296,46095,1,0
256,296,46261,1,0
360,192,46428,1,8
360,192,46595,6,0,B|208:192,1,150,4|0
120,312,47095,1,8
120,312,47261,1,0
32,192,47428,1,0
32,192,47595,1,0
120,72,47761,1,8
120,72,47928,1,0
256,112,48095,5,8
256,112,48178,1,0
256,112,48261,1,0
256,112,48345,1,0
256,112,48428,1,8
256,272,48761,5,8
256,272,48845,1,0
256,272,48928,1,0
256,272,49011,1,0
256,272,49095,1,8
184,192,49261,6,0,B|224:240|296:144|344:208,1,150,4|0
400,320,49761,1,8
400,320,49928,1,0
400,168,50095,1,0
400,168,50261,1,0
320,48,50428,1,8
320,48,50595,1,0
192,48,50761,5,0
192,48,50928,1,0
112,168,51095,1,8
112,168,51261,1,8
112,320,51428,1,0
112,320,51595,1,0
256,288,51761,1,8
256,288,51928,6,0,B|256:112,1,150,4|0
112,192,52428,1,8
112,192,52595,1,0
256,136,52761,1,0
256,136,52928,1,0
400,192,53095,1,8
400,192,53261,1,0
256,288,53428,5,8
256,272,53511,1,0
256,256,53595,1,0
256,240,53678,1,0
256,224,53761,1,8
256,208,53845,1,0
256,192,53928,1,0
256,176,54011,1,0
256,160,54095,1,8
256,144,54178,1,0
256,128,54261,1,0
256,112,54345,1,0
256,96,54428,1,8
256,80,54511,1,0
256,64,54595,1,12
256,192,54678,12,0,55595
40,192,55761,5,8
72,216,55845,1,0
104,240,55928,2,0,B|176:272|256:256,1,150
296,192,56428,1,8
328,168,56511,1,0
360,144,56594,2,0,B|397:144,9,37.5
360,104,57428,6,0,B|360:56,3,37.5
322,66,57762,2,0,B|274:66,3,37.5,8|0|0|0
246,66,58095,2,0,B|208:66,3,37.5
208,103,58428,2,0,B|208:151,3,37.5,8|0|0|0
221,153,58761,5,0
234,166,58845,1,0
252,166,58928,1,0
270,166,59011,1,0
288,166,59095,1,8
306,166,59178,1,0
319,179,59261,1,0
332,192,59345,1,0
345,205,59428,1,8
358,218,59511,1,0
371,231,59595,1,0
389,231,59678,1,0
407,231,59761,1,8
240,304,59928,6,0,B|240:72,1,225,12|0
240,79,60594,1,0
312,192,60761,2,0,B|416:192,1,75,0|0
168,192,61095,2,0,B|64:192,1,75,8|0
240,156,61428,2,0,B|240:52,1,75,0|0
240,232,61761,2,0,B|240:336,1,75,8|0
168,333,62095,1,0
240,307,62261,1,0
312,332,62428,1,8
312,256,62595,1,0
312,256,62678,1,0
312,256,62761,5,4
168,256,62928,1,12
92,256,63095,6,0,B|57:204|165:193|154:131,1,150,8|0
232,144,63595,1,0
296,184,63761,1,8
304,112,63928,2,0,B|304:72,1,37.5
337,116,64094,2,0,B|344:80,1,37.5
371,123,64261,2,0,B|384:88,1,37.5
397,136,64428,2,0,B|416:104,1,37.5,8|0
423,147,64594,2,0,B|448:120,1,37.5
451,168,64761,2,0,B|480:144,1,37.5
480,184,64928,2,0,B|508:247|444:287|484:327,1,150,8|4
336,344,65428,5,0
264,344,65594,1,0
192,344,65761,2,0,B|192:296,2,37.5,8|0|0
192,40,66094,5,0
264,40,66260,1,0
336,40,66427,2,0,B|336:77,2,37.5,8|0|0
472,192,66761,5,0
400,192,66928,1,0
328,192,67095,2,0,B|280:192,2,37.5,8|0|0
40,192,67428,5,0
112,192,67595,1,0
184,192,67762,2,0,B|232:192,2,37.5,8|0|12
360,40,68095,5,0
360,116,68261,1,0
360,264,68428,2,0,B|360:189,1,75,8|8
256,192,68761,5,0
256,192,68928,1,0
256,116,69094,2,0,B|256:64,2,37.5,8|0|0
152,344,69428,5,0
152,268,69594,1,0
152,120,69761,2,0,B|152:195,1,75,8|8
256,192,70095,5,0
256,192,70261,1,0
256,192,70428,1,8
256,192,70511,1,0
256,192,70595,1,12
184,192,70761,5,0
224,128,70928,1,8
296,128,71095,1,0
336,192,71261,1,8
296,256,71428,1,0
224,256,71595,1,8
184,192,71761,1,0
112,192,71928,5,8
112,120,72095,2,0,B|112:72,2,37.5,8|0|8
112,264,72428,2,0,B|112:328,2,37.5,8|0|8
184,192,72761,2,0,B|256:192,2,37.5,8|0|8
40,192,73095,2,0,B|-8:192,2,37.5,8|0|8
56,344,73428,5,6
108,291,73595,1,0
54,237,73761,1,2
107,183,73928,1,0
54,130,74095,1,2
107,76,74261,1,0
272,72,74428,5,6
320,128,74595,1,2
272,184,74761,1,2
320,240,74928,1,0
192,288,75095,5,6
192,216,75261,1,0
192,144,75428,1,2
192,72,75595,1,0
128,40,75761,1,2
64,72,75928,1,0
48,216,76095,5,6
120,216,76261,1,2
192,216,76428,1,2
208,216,76511,1,0
224,216,76595,1,0
240,216,76678,1,0
256,216,76761,1,0
272,216,76845,1,0
288,216,76928,1,0
304,216,77011,1,0
320,216,77095,1,4
256,192,77178,12,0,79928
