osu file format v9

[General]
AudioFilename: Kaze no Gotoku - Gintama OP ver..mp3
AudioLeadIn: 1500
PreviewTime: 21157
Countdown: 0
SampleSet: Normal
StackLeniency: 0.4
Mode: 0
LetterboxInBreaks: 1

[Editor]
DistanceSpacing: 0.8
BeatDivisor: 4
GridSize: 8

[Metadata]
Title:Kaze no Gotoku (TV Size)
Artist:Joe Inoue
Creator:jericho2442
Version:Gintoki
Source:Yorinuki Gintama-san
Tags:opening OP 2 arken1015 arien666

[Difficulty]
HPDrainRate:6
CircleSize:4
OverallDifficulty:8
ApproachRate:8
SliderMultiplier:2
SliderTickRate:2

[Events]
//Background and Video events
Video,399,"Yorinuki Gintama-san Opening 2.AVI"
0,0,"Background.jpg"
//Break Periods
//Storyboard Layer 0 (Background)
//Storyboard Layer 1 (Fail)
//Storyboard Layer 2 (Pass)
//Storyboard Layer 3 (Foreground)
//Storyboard Sound Samples
//Background Colour Transformations
3,100,163,162,255

[TimingPoints]
407,319.148936170213,4,1,1,100,1,0
20832,-100,4,1,2,100,0,0
25220,-100,4,1,0,70,0,0
26098,-100,4,1,2,100,0,0
45557,-100,4,1,0,70,0,0
46513,-100,4,1,2,100,0,0
71896,-100,4,1,2,100,0,1
81789,-100,4,1,2,100,0,0
81949,-100,4,1,1,100,0,0

[Colours]
Combo1 : 240,5,5
Combo2 : 0,0,255
Combo3 : 192,192,192

[HitObjects]
256,264,407,2,0,B|256:336|320:352|320:352,1,100,8|0
336,272,726,2,0,B|386:322|443:288|443:288,1,100
400,224,1045,2,0,B|471:224|487:160|487:160,1,100
408,144,1364,2,0,B|458:93|424:36|424:36,1,100
360,80,1683,2,0,B|312:48|256:80|256:80,1,100
312,144,2002,2,0,B|264:176|208:144|208:144,1,100
136,144,2321,1,0
256,352,2800,5,0
176,352,2960,2,0,B|64:352|64:352,1,100,8|0
80,272,3279,2,0,B|152:264|152:192|152:192,1,100
232,208,3598,2,0,B|352:208|352:208,1,100
416,208,3917,2,0,B|416:144|352:120|352:120,1,100
288,128,4236,2,0,B|184:128|184:128,1,100
104,128,4555,2,0,B|104:64|160:48|160:48,1,100
232,48,4875,1,0
480,248,5513,6,0,B|480:184|416:168|416:168,3,100,8|0|0|0
400,248,6151,2,0,B|344:224|344:152|344:152|344:152,3,100,0|0|0|8
264,168,6789,2,0,B|264:272|264:272,4,100,0|8|8|0|0
24,168,7906,5,0
24,88,8066,2,0,B|88:88|104:152|104:152,3,100,8|0|0|0
184,144,8704,2,0,B|288:144|288:144,1,100,8|0
368,144,9024,2,0,B|368:216|296:232|296:232,1,100,8|0
240,224,9343,2,0,B|176:224|168:288|168:288,3,100,8|0|8|0
248,304,9981,1,4
256,32,10779,5,0
256,112,10938,1,8
328,72,11098,1,0
328,152,11258,1,0
256,192,11417,1,0
192,152,11577,1,8
192,72,11736,1,0
120,112,11896,1,0
120,192,12055,1,0
184,232,12215,1,8
256,272,12375,1,0
328,232,12534,1,0
32,352,13172,6,0,B|96:352|96:288|96:288,1,100,8|0
95,289,13492,2,0,B|199:289|199:289,1,100
195,289,13811,2,0,B|192:216|256:200|256:200,1,100,8|0
240,206,14130,2,0,B|352:208|352:208,1,100
340,207,14449,2,0,B|408:208|400:144|400:144,1,100,8|0
400,144,14768,2,0,B|408:72|336:80|336:80,1,100
343,79,15087,1,8
24,32,15726,5,8
24,112,15885,1,0
104,112,16045,1,0
104,32,16204,1,0
184,32,16364,1,8
184,112,16524,1,0
264,112,16683,1,0
264,32,16843,1,0
224,184,17002,5,8
304,184,17162,1,0
344,112,17321,1,0
344,32,17481,2,0,B|416:32|424:104|424:104,1,100,0|8
464,240,17960,5,0
384,240,18119,1,8
256,336,18438,1,0
176,336,18598,1,0
216,264,18758,1,0
216,184,18917,6,0,B|152:184|136:248|136:248,1,100,8|0
56,240,19236,2,0,B|56:128|56:128,1,100
56,56,19555,1,8
128,96,19715,1,0
136,16,19875,2,0,B|216:16|208:104|208:104,1,100
280,96,20194,1,8
32,192,21151,6,0,B|64:152|32:96|32:96|88:112|128:56|128:56,1,200,0|8
264,136,21789,2,0,B|232:176|264:232|264:232|208:216|168:272|168:272,1,200,0|8
336,272,22428,1,0
496,272,22747,2,0,B|432:272|408:208|408:208|456:192|440:128|440:128,1,200,0|8
280,136,23385,2,0,B|176:136|120:24|120:24|-8:48|40:184|40:184|152:184|168:296|168:296,1,600,0|8
168,376,24502,2,0,B|227:377|248:320|248:320|384:320|384:320|262:285|284:99|436:153|436:153,1,500
504,24,25619,1,8
344,24,25938,1,0
184,24,26258,6,0,B|136:72|80:32|80:32|40:96|104:136|104:136,1,200,0|8
96,272,26896,2,0,B|144:224|200:264|200:264|240:200|176:160|176:160,1,200,0|8
352,120,27534,1,0
352,280,27853,2,0,B|496:288|496:128|496:128,1,200,0|8
352,280,28492,2,0,B|232:280|168:368|168:368|152:272|24:248|24:248,3,400,0|8|0|8
256,32,31364,6,0,B|256:144|256:144|320:160|336:64|336:64,1,200,0|8
468,171,32002,2,0,B|468:59|468:59|404:43|388:139|388:139,1,200,0|8
360,256,32641,1,0
200,256,32960,2,0,B|136:256|120:312|120:312|184:320|176:376|176:376,1,200,0|8
280,256,33598,2,0,B|274:192|216:176|216:176|216:80|216:80|144:80|152:24|152:24,1,300
72,32,34236,2,0,B|72:112|136:144|136:144|136:248|136:248,1,200,8|0
136,288,34715,1,0
480,352,35513,5,0
480,272,35672,1,8
344,352,35992,2,0,B|352:128|136:160|136:160,1,300,0|8
168,240,36630,1,0
168,320,36789,1,0
104,280,36949,1,8
104,120,37268,2,0,B|104:56|136:32|176:32|176:32|368:32|368:32,1,300,0|8
424,32,37906,1,0
384,104,38066,1,0
464,104,38226,1,8
256,192,38545,12,4,39981
160,112,41577,6,0,B|266:48|363:118|363:118,2,200,0|8|0
160,272,42534,2,0,B|266:336|363:266|363:266,2,200,0|8|0
304,192,43492,1,0
464,192,43811,2,0,B|464:136|408:112|408:112|408:16|408:16|352:16|336:80|336:80|320:16|256:16|256:16|160:16|160:16|192:56|160:104|160:104,1,600,0|8
94,56,44928,2,0,B|62:125|91:184|163:212|258:204|244:75|244:75,1,300,0|8
240,248,45726,1,0
240,248,46045,1,8
80,248,46364,1,0
224,328,46683,6,0,B|288:336|320:272|320:272|408:272|408:272,2,200,0|8|0
224,168,47641,2,0,B|288:160|320:224|320:224|408:224|408:224,2,200,0|8|0
88,248,48598,1,0
88,248,48917,2,0,B|144:136|32:80|32:80|152:8|232:112|232:112,3,400,0|8|0|8
480,352,51789,6,0,B|376:352|376:352|400:304|400:304|328:304|328:304,1,200,0|8
200,352,52428,2,0,B|304:352|304:352|280:304|280:304|352:304|352:304,1,200,0|8
340,144,53066,1,0
176,144,53385,2,0,B|112:144|96:224|96:224|144:264|104:320|104:320,1,200,0|8
256,216,54024,2,0,B|312:216|328:288|328:288|414:288|414:288|424:216|496:216|496:216,1,300
472,136,54662,2,0,B|259:136|259:136,1,200,8|0
256,56,55141,1,0
88,352,55938,5,0
40,288,56098,1,8
40,128,56417,2,0,B|40:192|72:216|112:216|112:216|288:216|288:216,1,300,0|8
360,216,57055,1,0
320,288,57215,1,0
400,288,57375,1,8
472,144,57694,2,0,B|472:80|440:56|400:56|400:56|224:56|224:56,1,300,0|8
152,56,58332,1,0
192,128,58492,1,0
112,128,58651,1,8
256,192,58970,12,4,60406
256,32,61683,5,0
352,160,62002,1,0
352,80,62162,1,2
256,208,62481,1,0
256,288,62641,1,0
160,160,62960,1,0
160,80,63119,1,2
24,160,63438,1,0
24,240,63598,1,0
152,336,63917,1,2
312,336,64236,5,0
472,336,64555,2,0,B|472:272|432:248|432:248,1,100,0|2
432,88,65034,2,0,B|432:160|360:160|360:160,1,100
216,160,65513,2,0,B|152:160|152:232|152:232,1,100,0|2
216,80,65992,2,0,B|280:80|288:24|288:24,1,100
448,24,66470,1,2
448,184,66789,6,0,B|448:328|328:344|328:344,1,200
264,344,67268,2,0,B|264:288|320:264|320:264|248:200|248:200,1,200,2|0
248,120,67747,2,0,B|184:128|168:184|168:184|96:128|96:128,1,200
16,128,68226,2,0,B|16:336|16:336,1,200,2|0
96,328,68704,2,0,B|192:224|272:336|272:336,1,200,0|2
344,192,69343,6,0,B|408:192|416:128|416:128|352:120|352:48|352:48,1,200
273,69,69821,2,0,B|272:69|275:122|211:130|211:130|219:194|283:194,1,200,2|0
312,264,70300,2,0,B|176:256|176:384|176:384,1,200
96,384,70779,2,0,B|96:184|96:184,1,200,2|0
16,184,71258,2,0,B|16:128|56:104|88:104|88:104|168:104|168:104,1,200
328,104,71896,5,0
328,104,72055,1,0
408,104,72215,1,2
408,104,72375,1,0
448,176,72534,1,0
448,176,72694,1,2
408,248,72853,1,0
408,248,73013,1,0
328,248,73172,5,2
328,248,73332,1,0
288,176,73492,1,0
288,176,73651,1,0
248,248,73811,1,2
248,248,73970,1,0
208,176,74130,1,2
208,176,74289,1,0
128,176,74449,6,0,B|128:112|192:96|192:96,3,100,0|0|2|0
264,96,75087,2,0,B|368:96|368:96,3,100,0|0|2|0
448,96,75726,6,0,B|448:32|392:16|392:16,3,100,0|2|0|0
320,16,76364,2,0,B|216:16|216:16,3,100,2|0|2|0
144,48,77002,5,0
104,112,77162,1,0
104,192,77321,2,0,B|168:192|184:128|184:128,1,100,2|0
264,136,77641,1,0
264,216,77800,1,2
344,216,77960,2,0,B|352:288|272:304|272:304,1,100,0|0
296,376,78279,5,2
376,376,78438,1,0
456,376,78598,2,0,B|448:304|392:296|392:296,1,100
472,256,78917,1,2
472,176,79077,1,0
472,96,79236,2,0,B|408:96|392:160|392:160,1,100,2|0
312,152,79555,6,0,B|184:160|184:8|184:8,1,200
104,24,80034,2,0,B|104:232|104:232,1,200,2|0
104,304,80513,2,0,B|168:304|186:241|186:241|287:242|287:242,1,200,2|0
352,240,80992,1,2
256,24,81470,1,2
256,24,81630,1,0
256,24,81789,1,2
256,184,82109,5,0
256,184,82268,1,0
176,184,82428,2,0,B|176:248|240:264|240:264,1,100,8|0
232,344,82747,2,0,B|128:344|128:344,1,100
48,344,83066,2,0,B|48:288|104:264|104:264,1,100,8|0
32,224,83385,2,0,B|32:120|32:120,1,100
32,40,83704,2,0,B|96:40|112:96|112:96,1,100,8|0
192,88,84024,2,0,B|208:40|248:40|264:40|264:40|384:40|384:40,1,200,0|8
432,192,84662,5,0
432,192,84821,1,0
352,192,84981,2,0,B|352:256|424:280|424:280,1,100,8|0
408,352,85300,2,0,B|352:352|316:297|316:297,1,100
240,304,85619,2,0,B|136:304|136:304,1,100,8|0
56,304,85938,2,0,B|56:240|118:222|118:222,1,100
104,144,86258,2,0,B|104:40|104:40,1,100,8|0
184,45,86577,2,0,B|184:149|184:149|256:125|272:197|272:197,1,200,0|8
424,176,87215,1,4
