osu file format v9

[General]
AudioFilename: CLOSE BONUS.mp3
AudioLeadIn: 1000
PreviewTime: 42884
Countdown: 0
SampleSet: Normal
StackLeniency: 0.7
Mode: 0
LetterboxInBreaks: 1

[Editor]
DistanceSpacing: 1
BeatDivisor: 2
GridSize: 8

[Metadata]
Title:CLOSER (TV Size)
Artist:Joe Inoue
Creator:arien666
Version:Pu Tong
Source:Naruto Shippuuden
Tags:taiko taikosu arken1015 op4 Futsuu xierbaliti xier Ignacio

[Difficulty]
HPDrainRate:3
CircleSize:3
OverallDifficulty:3
ApproachRate:3
SliderMultiplier:0.72
SliderTickRate:1

[Events]
//Background and Video events
Video,-150,"OPEN BONUS.avi"
0,0,"queue CLOSED.jpg"
//Break Periods
//Storyboard Layer 0 (Background)
//Storyboard Layer 1 (Fail)
//Storyboard Layer 2 (Pass)
//Storyboard Layer 3 (Foreground)
//Storyboard Sound Samples
//Background Colour Transformations
3,100,163,162,255

[TimingPoints]
3092,361.44578313253,4,1,1,80,1,0
43573,-100,4,1,1,80,0,1
85501,-100,4,1,1,80,0,0

[Colours]
Combo1 : 112,196,193
Combo2 : 243,89,34

[HitObjects]
16,192,3092,1,8
256,352,4537,1,8
496,192,5983,5,8
256,32,7428,1,8
16,192,8875,5,8
256,352,10320,1,8
496,192,11766,5,8
256,104,13031,1,4
256,176,13393,2,4,B|256:232,1,36
40,192,14658,5,0
112,192,15019,1,8
184,192,15381,1,0
184,336,16104,1,0
256,336,16465,1,8
328,336,16826,1,0
472,192,17549,5,0
400,192,17910,1,8
328,192,18272,1,0
328,48,18995,1,0
256,48,19356,1,8
184,48,19717,1,4
184,192,20441,5,0
184,192,20622,1,0
432,192,21887,1,0
432,192,22068,1,0
216,56,23332,5,0
216,56,23513,1,0
453,140,24778,1,0
453,140,24959,1,0
453,244,25501,1,0
453,244,25682,1,0
360,192,26224,5,0
360,192,26405,1,0
112,192,27670,1,0
112,192,27851,1,0
296,360,29116,5,0
296,360,29297,1,0
480,192,30561,1,0
480,192,30742,1,0
408,112,31284,1,0
408,112,31465,1,0
320,48,32007,5,0
256,80,32369,1,0
192,112,32730,1,8
192,256,33453,1,0
128,288,33815,1,0
64,320,34176,1,8
64,64,34899,5,0
128,96,35260,1,0
192,128,35622,1,8
336,128,36345,1,0
408,136,36706,1,0
456,192,37067,1,0
408,248,37429,1,0
336,256,37790,5,4
192,256,38513,1,8
256,128,39236,1,0
292,65,39598,1,0
220,65,39959,1,8
152,192,40682,5,0
192,256,41043,1,0
256,288,41405,1,0
360,288,41947,1,4
64,192,43573,5,0
104,136,43935,1,8
160,96,44296,2,0,B|160:48,2,36
216,136,45019,1,0
256,192,45381,2,0,B|280:240|280:288,1,72,8|0
408,192,46465,5,0
355,140,46826,1,8
292,101,47188,2,0,B|292:45,2,36
220,101,47911,1,0
448,192,49357,5,0
408,248,49719,1,8
352,288,50080,2,0,B|352:336,2,36
296,248,50803,1,0
256,192,51165,2,0,B|232:144|232:96,1,72,8|0
104,192,52249,5,0
157,244,52610,1,8
220,283,52972,2,0,B|220:339,2,36
292,283,53695,1,4
256,144,54417,2,0,B|256:88,2,36
200,192,55140,6,0,B|104:192,1,72,0|8
56,192,55863,2,0,B|56:96,1,72,0|8
56,48,56585,2,0,B|136:48,1,72,0|8
312,192,58031,6,0,B|408:192,1,72,0|8
456,192,58754,2,0,B|456:288,1,72,0|8
456,336,59476,2,0,B|376:336,1,72,0|8
200,192,60923,6,0,B|104:192,1,72,0|8
56,192,61646,2,0,B|56:288,1,72,0|8
56,336,62369,1,4
256,256,63453,6,0,B|256:208,1,36
256,112,64176,1,8
256,112,64537,1,0
328,112,64899,2,0,B|368:72,1,36,0|8
128,192,66345,6,0,B|128:240,1,36
128,336,67068,1,8
128,336,67430,1,0
200,336,67791,2,0,B|248:336,1,36,0|8
488,336,69236,6,0,B|488:296,1,36
488,192,69959,1,8
488,192,70320,1,0
488,120,70682,2,0,B|456:88,1,36,0|8
208,96,72128,6,0,B|160:96,1,36
64,96,72851,1,8
64,96,73212,1,0
64,168,73573,2,0,B|64:208,1,36
64,312,74296,1,4
208,336,75019,6,0,B|240:304,1,36
309,234,75742,1,8
309,234,76104,1,0
309,162,76465,2,8,B|309:110,1,36
256,32,77188,1,0
112,32,77911,6,0,B|80:64,1,36
10,133,78634,1,8
10,133,78996,1,0
10,204,79357,2,8,B|10:256,1,36
10,348,80080,1,0
153,348,80802,6,0,B|201:348,1,36
297,348,81525,1,8
347,297,81887,1,0
316,231,82248,1,8
256,192,82610,2,0,B|256:144,2,36
256,336,83694,5,4
256,336,84055,1,4
