osu file format v9

[General]
AudioFilename: CLOSE BONUS.mp3
AudioLeadIn: 1000
PreviewTime: 42884
Countdown: 0
SampleSet: Normal
StackLeniency: 0.7
Mode: 0
LetterboxInBreaks: 1

[Editor]
DistanceSpacing: 1.34
BeatDivisor: 4
GridSize: 8

[Metadata]
Title:CLOSER (TV Size)
Artist:Joe Inoue
Creator:arien666
Version:Mo Wang
Source:Naruto Shippuuden
Tags:taiko taikosu arken1015 op4 Oni xierbaliti xier Ignacio

[Difficulty]
HPDrainRate:7
CircleSize:4
OverallDifficulty:6
ApproachRate:8
SliderMultiplier:1.44
SliderTickRate:1

[Events]
//Background and Video events
Video,-150,"OPEN BONUS.avi"
0,0,"queue CLOSED.jpg"
//Break Periods
//Storyboard Layer 0 (Background)
//Storyboard Layer 1 (Fail)
//Storyboard Layer 2 (Pass)
//Storyboard Layer 3 (Foreground)
//Storyboard Sound Samples
//Background Colour Transformations
3,100,163,162,255

[TimingPoints]
3092,361.44578313253,4,1,1,80,1,0
43573,-100,4,1,1,80,0,1
85501,-100,4,1,1,80,0,0

[Colours]
Combo1 : 112,196,193
Combo2 : 243,89,34

[HitObjects]
16,192,3092,1,8
496,192,3995,1,8
496,192,4357,1,8
496,192,5983,5,8
16,192,6886,1,8
16,192,7248,1,8
504,8,8875,5,8
8,376,10140,1,8
8,376,10502,1,8
256,192,11766,5,8
256,192,13031,1,4
208,8,13393,1,4
304,8,13573,1,4
256,192,13935,1,0
256,288,14116,1,0
344,240,14296,2,8,B|392:240,2,36
256,192,14658,5,0
64,192,15019,1,8
160,24,15381,1,0
110,106,15561,1,0
64,192,15742,1,8
256,192,16104,5,0
448,192,16465,1,8
352,360,16827,1,0
402,278,17007,1,0
448,192,17188,1,8
256,192,17549,5,0
64,192,17911,1,8
192,48,18272,1,0
192,144,18453,1,0
192,240,18634,1,8
192,336,18814,1,0
320,192,19176,5,0
416,192,19357,1,8
368,112,19537,1,0
368,16,19718,1,0
280,64,19899,2,8,B|240:64,2,36,0|8|8
88,64,20441,6,0,B|88:16,2,36
88,256,20983,1,8
88,352,21164,1,8
176,304,21345,1,8
176,208,21525,1,8
256,256,21706,1,8
256,160,21887,2,0,B|256:112,2,36
424,240,22429,5,8
424,144,22610,1,8
336,192,22791,1,8
336,288,22971,1,8
256,240,23152,1,8
256,336,23333,2,0,B|256:384,2,36,0|0|0
88,240,23874,5,8
88,144,24055,1,8
176,192,24236,1,8
176,288,24416,1,8
256,240,24597,1,8
256,336,24778,2,0,B|256:384,2,36,0|0|0
256,144,25320,5,8
256,48,25501,2,0,B|256:8,2,36
384,192,26043,1,8
480,192,26224,2,0,B|520:192,2,36
296,144,26766,5,8
296,240,26947,1,8
216,192,27128,1,8
216,288,27308,1,8
128,240,27489,1,8
128,336,27670,2,0,B|128:384,2,36
128,144,28212,5,8
128,240,28393,1,8
216,192,28573,1,8
216,288,28754,1,8
304,240,28935,1,8
304,336,29116,2,0,B|304:376,2,36
304,144,29658,5,8
384,192,29838,1,8
304,240,30019,1,8
384,288,30200,1,8
472,240,30381,1,8
472,336,30561,2,0,B|472:376,2,36
472,144,31104,5,8
472,144,31284,2,0,B|472:88,2,36
288,192,31826,1,8
288,192,32007,5,0
288,192,32188,1,0
96,192,32549,1,0
96,192,32730,1,8
472,96,33453,5,0
472,96,33634,1,0
472,288,33995,1,0
472,288,34176,1,8
40,288,34899,5,0
40,288,35080,1,0
40,96,35441,1,0
40,96,35622,1,8
416,192,36345,5,0
416,192,36525,1,0
248,96,36887,1,8
248,192,37067,1,0
248,288,37248,1,0
56,288,37610,5,8
56,192,37790,1,0
56,96,37971,1,0
224,192,38332,1,0
224,288,38513,1,8
496,16,39236,5,0
496,112,39417,1,0
320,192,39778,1,0
416,192,39959,1,8
32,192,40682,5,0
32,192,40863,1,0
128,192,41043,1,8
128,192,41224,1,8
224,192,41405,2,0,B|224:232,2,36,0|0|8
256,104,41766,2,0,B|256:64,2,36,0|0|8
424,192,42308,2,4,B|424:264,1,72
32,192,43573,5,0
224,192,43935,1,8
128,192,44116,2,0,B|128:232,2,36
92,101,44477,2,0,B|172:101,1,72,0|8
360,104,45019,5,0
456,104,45200,1,0
408,192,45381,1,8
360,272,45561,2,0,B|336:320,2,36
456,272,45923,1,0
408,360,46104,1,8
312,192,46465,5,0
120,192,46826,1,8
216,192,47007,2,0,B|216:152,2,36
216,288,47369,2,0,B|216:368,2,72,0|8|0
216,96,48091,5,0
216,96,48272,1,8
304,144,48453,2,0,B|344:144,2,36
216,192,48814,2,0,B|136:192,1,72,0|8
480,192,49357,5,0
288,192,49719,1,8
384,192,49900,2,0,B|384:152,2,36
420,283,50261,2,0,B|340:283,1,72,0|8
152,280,50803,5,0
56,280,50984,1,0
104,192,51165,1,8
152,104,51345,2,0,B|176:56,2,36
56,104,51707,1,0
104,16,51888,1,8
200,192,52249,5,0
392,192,52610,1,8
296,192,52791,2,0,B|296:232,2,36
296,96,53153,2,0,B|296:16,2,72,0|8|0
296,288,53875,5,0
296,288,54056,1,8
216,240,54236,1,0
120,240,54417,1,0
168,152,54598,1,8
72,152,54778,1,8
120,64,54959,1,0
24,64,55140,1,0
216,64,55501,5,8
256,152,55682,2,0,B|256:200,2,36
296,64,56043,2,0,B|384:64,1,72,0|8
256,224,56585,5,0
256,320,56766,1,0
160,320,56947,1,8
72,272,57128,2,0,B|32:272,2,36
160,224,57489,2,0,B|240:224,1,72,0|8
416,288,58031,5,0
416,96,58393,1,8
416,192,58573,2,0,B|464:192,2,36
320,192,58935,2,0,B|280:192|248:216,2,72,0|8|0
128,192,59658,5,0
32,192,59838,1,8
80,108,60019,2,0,B|80:60,2,36
128,192,60381,2,0,B|192:240,1,72,0|8
376,288,60923,5,0
376,96,61285,1,8
376,192,61465,2,0,B|424:192,2,36
280,192,61826,1,0
184,192,62007,1,8
72,344,62369,5,8
40,312,62459,1,8
24,264,62549,1,0
16,216,62640,1,0
16,168,62730,1,8
24,120,62820,1,8
40,72,62910,1,0
72,40,63000,1,0
120,24,63091,1,0
168,16,63182,1,0
216,16,63272,1,0
312,40,63453,1,0
392,96,63634,1,0
424,288,63995,5,0
328,288,64176,1,8
256,352,64357,1,0
208,352,64447,1,0
160,352,64537,1,0
88,288,64718,1,0
4,240,64899,1,8
88,192,65079,1,0
272,136,65441,5,0
184,96,65622,1,8
256,32,65803,1,0
304,32,65893,1,0
352,32,65983,1,0
424,96,66164,1,0
508,144,66345,1,8
424,192,66525,1,0
240,248,66887,5,0
328,288,67068,1,8
256,352,67248,1,0
208,352,67339,1,0
160,352,67429,1,0
88,288,67610,1,0
4,240,67791,1,8
4,143,67971,1,0
192,192,68332,5,0
256,120,68513,1,8
320,192,68694,2,0,B|360:192,2,36
256,264,69055,2,0,B|256:304,2,36,0|0|8
192,192,69417,6,0,B|112:192|48:128,1,144
16,56,69959,1,8
112,64,70140,2,0,B|120:16,2,36
192,120,70501,1,0
256,192,70682,1,8
320,120,70863,1,0
320,312,71224,5,0
256,384,71405,1,8
192,312,71585,1,0
144,312,71676,1,0
96,312,71766,1,0
144,232,71947,2,0,B|144:192|104:168,2,72,0|8|0
192,48,72670,5,0
256,120,72851,1,8
320,48,73031,1,0
368,48,73122,1,0
416,48,73212,1,0
368,128,73393,2,0,B|368:168|408:192,2,72,0|8|0
256,288,74116,5,0
256,288,74296,1,8
176,232,74477,1,0
208,200,74567,1,0
256,184,74658,1,8
304,200,74748,1,8
336,232,74838,1,0
256,288,75019,2,0,B|256:368,1,72,8|0
440,288,75561,5,0
440,192,75742,1,8
440,96,75923,1,0
392,96,76013,1,0
344,96,76104,1,0
256,48,76284,1,0
256,144,76465,1,8
344,96,76646,1,0
72,96,77008,5,0
72,192,77188,1,8
72,288,77369,1,0
120,288,77459,1,0
168,288,77550,1,0
256,336,77730,1,0
256,240,77911,1,8
168,288,78092,1,0
360,288,78453,5,0
456,288,78634,1,8
408,208,78814,1,0
408,159,78905,1,0
408,111,78995,1,0
408,16,79176,1,0
312,16,79357,1,8
312,112,79537,1,0
256,288,79899,5,0
256,192,80079,1,8
208,112,80260,1,0
208,112,80351,1,0
208,112,80441,1,0
128,56,80622,1,0
128,56,80712,1,0
128,56,80802,1,8
32,40,80983,1,0
32,232,81345,5,0
128,232,81525,1,8
80,315,81706,1,0
128,315,81796,1,0
176,315,81887,1,0
256,264,82067,1,0
336,320,82248,1,8
256,264,82429,1,0
336,208,82610,5,8
328,160,82700,1,8
320,112,82790,1,0
312,64,82881,1,0
304,16,82971,1,0
208,16,83152,1,8
200,64,83242,1,8
192,112,83332,1,0
184,160,83423,1,0
176,208,83513,1,0
256,160,83694,5,4
256,160,84055,1,4
