osu file format v9

[General]
AudioFilename: CLOSE BONUS.mp3
AudioLeadIn: 1000
PreviewTime: 42884
Countdown: 0
SampleSet: Normal
StackLeniency: 0.7
Mode: 0
LetterboxInBreaks: 1

[Editor]
DistanceSpacing: 0.94
BeatDivisor: 1
GridSize: 8

[Metadata]
Title:CLOSER (TV Size)
Artist:Joe Inoue
Creator:arien666
Version:Jian Dan
Source:Naruto Shippuuden
Tags:taiko taikosu arken1015 op4 Kantan xierbaliti xier Ignacio

[Difficulty]
HPDrainRate:2
CircleSize:3
OverallDifficulty:1
ApproachRate:2
SliderMultiplier:0.72
SliderTickRate:1

[Events]
//Background and Video events
Video,-150,"OPEN BONUS.avi"
0,0,"queue CLOSED.jpg"
//Break Periods
//Storyboard Layer 0 (Background)
//Storyboard Layer 1 (Fail)
//Storyboard Layer 2 (Pass)
//Storyboard Layer 3 (Foreground)
//Storyboard Sound Samples
//Background Colour Transformations
3,100,163,162,255

[TimingPoints]
3092,361.44578313253,4,1,1,80,1,0
43573,-100,4,1,1,80,0,1
85501,-100,4,1,1,80,0,0

[Colours]
Combo1 : 112,196,193
Combo2 : 243,89,34

[HitObjects]
24,192,3092,1,8
256,56,4537,1,8
488,192,5983,5,8
256,328,7429,1,8
24,192,8875,5,8
256,56,10320,1,8
256,328,11766,5,8
488,192,13212,1,4
256,56,14658,5,0
256,192,15381,1,0
138,124,16104,1,0
138,260,16826,1,0
256,328,17549,5,0
256,192,18272,1,0
374,260,18995,1,0
374,124,19718,2,0,B|353:88|311:71,1,72
256,56,20441,5,4
24,192,21887,1,0
256,328,23332,5,0
488,192,24778,1,0
392,96,25501,1,0
256,80,26224,5,0
8,192,27670,1,0
256,304,29116,5,0
504,192,30561,1,0
376,152,31284,1,0
256,88,32007,5,0
168,192,32730,1,8
256,296,33453,1,0
344,192,34176,1,8
480,192,34899,5,0
416,312,35622,1,8
280,312,36345,1,0
216,192,37068,1,0
80,192,37790,5,0
160,80,38513,1,8
256,176,39236,1,0
352,80,39959,1,8
432,192,40682,2,0,B|432:344|200:344,1,288,0|4
24,160,43573,5,0
56,96,43935,2,0,B|88:32,1,72
224,32,45019,1,4
440,192,46465,5,0
408,256,46827,2,0,B|376:320,1,72
240,320,47911,1,4
256,48,49357,5,0
216,104,49718,2,0,B|192:144|128:160,1,72
32,192,50802,1,4
256,336,52248,5,0
296,280,52610,2,0,B|320:240|384:224,1,72
480,192,53694,2,4,B|480:120,1,72
296,32,55140,5,0
200,128,55863,1,0
168,192,56224,2,0,B|136:256,1,72
424,232,58031,5,0
312,152,58754,1,0
256,104,59116,2,0,B|192:56,1,72
200,344,60923,5,0
296,248,61646,1,0
336,192,62007,1,0
376,136,62369,2,0,B|424:80|504:80,1,144,0|4
504,216,63814,5,0
456,264,64176,1,0
392,280,64537,1,0
256,280,65260,1,4
176,24,66706,5,0
233,59,67067,1,0
256,122,67429,1,0
256,257,68152,1,4
480,104,69598,5,0
440,160,69959,1,0
381,192,70320,1,0
245,192,71043,1,4
24,32,72489,5,0
72,80,72851,1,0
88,144,73212,1,0
88,280,73935,2,4,B|96:328|160:336,1,72
336,288,75381,5,0
392,248,75742,1,0
432,192,76104,1,0
392,136,76465,1,0
336,96,76826,1,0
144,288,78272,5,0
88,248,78633,1,0
48,192,78995,1,0
88,136,79356,1,0
144,96,79717,1,0
400,192,81164,5,0
296,104,81887,1,0
256,160,82248,1,0
195,192,82610,1,0
464,192,84055,5,4
