osu file format v9

[General]
AudioFilename: CLOSE BONUS.mp3
AudioLeadIn: 1000
PreviewTime: 42884
Countdown: 0
SampleSet: Soft
StackLeniency: 0.7
Mode: 0
LetterboxInBreaks: 1

[Editor]
Bookmarks: 66558
DistanceSpacing: 1.1
BeatDivisor: 4
GridSize: 8

[Metadata]
Title:CLOSER (TV Size)
Artist:Joe Inoue
Creator:arien666
Version:Ignacio's Insane
Source:Naruto Shippuuden
Tags:taiko taikosu arken1015 op4 xierbaliti xier Ignacio

[Difficulty]
HPDrainRate:6
CircleSize:4
OverallDifficulty:7
ApproachRate:8
SliderMultiplier:1.72
SliderTickRate:1

[Events]
//Background and Video events
Video,-150,"OPEN BONUS.avi"
0,0,"queue CLOSED.jpg"
//Break Periods
2,14858,20233
//Storyboard Layer 0 (Background)
//Storyboard Layer 1 (Fail)
//Storyboard Layer 2 (Pass)
//Storyboard Layer 3 (Foreground)
//Storyboard Sound Samples
//Background Colour Transformations
3,100,163,162,255

[TimingPoints]
3092,361.44578313253,4,2,2,40,1,0
3272,-100,4,2,2,35,0,0
3634,-100,4,2,2,40,0,0
3995,-100,4,2,2,35,0,0
5079,-100,4,2,2,40,0,0
5441,-100,4,2,2,35,0,0
5802,-100,4,2,2,40,0,0
6525,-100,4,2,2,30,0,0
6887,-100,4,2,2,40,0,0
7971,-100,4,2,2,20,0,0
8513,-100,4,2,2,40,0,0
11043,-100,4,2,2,25,0,0
14658,-100,4,1,2,35,0,0
20983,-100,4,2,2,40,0,0
21887,-100,4,1,2,40,0,0
22429,-100,4,2,2,40,0,0
23332,-100,4,1,2,40,0,0
23875,-100,4,2,2,40,0,0
24778,-100,4,1,2,40,0,0
25320,-100,4,2,2,40,0,0
25501,-100,4,1,2,40,0,0
26043,-100,4,2,2,40,0,0
26224,-100,4,1,2,40,0,0
26766,-100,4,2,2,40,0,0
27670,-100,4,1,2,40,0,0
28212,-100,4,2,2,40,0,0
29116,-100,4,1,2,40,0,0
29658,-100,4,2,2,40,0,0
30561,-100,4,1,2,40,0,0
31104,-100,4,2,2,40,0,0
31284,-100,4,1,2,40,0,0
31826,-100,4,2,2,40,0,0
32007,-100,4,1,2,40,0,0
32549,-100,4,2,2,40,0,0
34899,-100,4,2,2,30,0,0
35441,-100,4,2,2,40,0,0
37790,-100,4,2,2,30,0,0
38332,-100,4,2,2,40,0,0
40682,-100,4,2,2,30,0,0
42489,-100,4,1,2,30,0,0
43573,-100,4,1,2,35,0,1
62730,-100,4,1,2,28,0,1
62820,-100,4,1,2,31,0,1
62911,-100,4,1,2,33,0,1
63001,-100,4,1,2,35,0,1
71947,-100,4,1,2,28,0,1
72037,-100,4,1,2,31,0,1
72128,-100,4,1,2,33,0,1
72218,-100,4,1,2,35,0,1
79989,-100,4,1,2,32,0,1
80079,-100,4,1,2,35,0,1
82067,-100,4,1,2,23,0,1
82248,-100,4,1,2,25,0,1
82429,-100,4,1,2,27,0,1
82790,-100,4,1,2,25,0,1
83694,-100,4,1,2,20,0,1
84055,-100,4,1,2,25,0,1
85501,-100,4,2,2,18,0,0
86224,-100,4,2,2,13,0,0
86947,-100,4,2,2,8,0,0
87670,-100,4,2,2,5,0,0

[Colours]
Combo1 : 112,196,193
Combo2 : 243,89,34

[HitObjects]
104,216,2369,1,2
80,128,2549,1,0
144,64,2730,1,0
232,88,2911,2,0,B|296:152|288:256,1,172,2|0
448,328,3634,2,0,B|408:240|440:136,1,172,2|0
432,160,4357,1,0
192,328,5079,5,0
128,264,5260,2,0,B|80:288|72:352,1,86,2|0
72,152,5802,1,0
248,176,6164,2,0,B|344:200|408:112,1,172
240,48,6887,1,0
176,104,7067,1,0
96,72,7248,1,0
72,272,7610,2,0,B|168:248|224:344,1,172
440,264,8513,5,2
440,264,8694,1,0
360,48,9055,1,0
272,24,9236,1,2
208,88,9417,1,0
368,168,9778,1,0
208,256,10140,1,0
56,160,10501,1,0
56,160,10682,1,2
256,192,11043,12,0,14658
112,136,20983,5,0
168,64,21164,1,2
256,48,21345,1,0
344,64,21525,1,0
400,136,21706,2,0,B|440:176|408:240,1,86,0|0
344,264,22067,1,0
112,352,22429,6,0,B|72:312|104:248,1,86,0|2
48,200,22790,2,0,B|104:168|144:256|232:192,1,172
296,224,23332,1,0
296,224,23513,1,0
424,352,23875,5,0
480,280,24055,1,2
432,200,24236,1,0
368,136,24417,1,0
400,56,24598,6,0,B|504:56,1,86
368,136,24959,1,0
112,328,25320,6,0,B|8:328,1,86
144,248,25681,1,0
256,24,26043,6,0,B|256:120,1,86
256,200,26405,1,0
88,48,26766,5,0
88,48,26947,1,2
32,120,27128,1,0
104,176,27308,1,0
40,240,27489,2,0,B|40:288|72:320,1,86
152,360,27851,1,0
312,288,28212,6,0,B|416:280|480:360,2,172,0|2|0
256,216,29116,1,0
256,216,29296,1,0
128,88,29658,5,0
208,48,29838,1,2
304,48,30019,1,0
384,88,30200,1,0
384,88,30381,2,0,B|456:168,1,86
480,232,30742,1,0
128,88,31104,5,0
128,88,31284,2,0,B|56:168,1,86
256,344,31826,5,0
256,344,32007,2,0,B|256:232,1,86
432,216,32549,5,0
376,144,32730,1,2
408,56,32911,1,0
376,144,33091,1,0
288,120,33272,1,0
240,192,33453,1,2
200,112,33634,6,0,B|144:104|120:40,1,86
88,192,33995,2,0,B|32:200|8:264,1,86,0|2
120,328,34357,2,0,B|176:320|200:256,1,86
320,256,34718,2,0,B|376:264|400:328,1,86,0|2
248,40,35441,5,0
312,112,35622,1,2
400,72,35803,1,0
312,112,35983,1,0
392,168,36164,1,0
448,248,36345,1,2
384,320,36525,6,0,B|344:352|280:328,1,86
144,256,36887,2,0,B|184:224|248:248,1,86,0|2
128,96,37248,2,0,B|64:184,1,86
384,96,37610,2,0,B|448:184,1,86,0|2
192,360,38332,5,0
272,312,38513,1,2
368,336,38694,1,0
416,256,38874,1,0
360,176,39055,1,0
272,216,39236,1,2
176,200,39417,6,0,B|160:248|112:264,1,86
56,112,39778,2,0,B|72:64|120:48,1,86,0|2
272,80,40140,1,0
272,80,40320,1,0
400,176,40501,2,0,B|400:232|464:256,1,86,0|2
256,192,41043,12,0,42489
152,144,43573,6,0,B|80:96,1,86,2|0
360,144,43935,2,0,B|432:96,1,86,8|0
256,96,44296,2,0,B|256:-8,1,86,2|0
128,256,44658,1,8
128,256,44838,1,0
256,328,45019,1,0
256,328,45110,1,0
256,328,45200,1,0
384,256,45381,1,8
384,256,45561,1,0
464,152,45742,6,0,B|408:168|360:136,1,86,2|0
320,32,46104,2,0,B|264:16|208:48,1,86,8|0
112,72,46465,1,2
72,240,46646,1,0
72,240,46736,1,0
72,240,46826,1,8
240,192,47007,1,0
72,240,47188,6,0,B|40:320,1,86,2|0
256,280,47549,2,0,B|256:368,1,86,8|0
440,240,47911,2,0,B|472:320,1,86,2|0
352,168,48272,2,0,B|368:128|368:128|352:88,1,86,8|0
160,168,48634,2,0,B|144:128|144:128|160:88,1,86,0|0
256,32,48995,6,0,B|256:128,1,86,8|0
184,280,49357,1,0
256,352,49537,1,0
328,280,49718,1,8
480,216,49899,1,0
320,224,50080,5,0
480,264,50260,1,0
336,176,50441,6,0,B|320:136|360:88,1,86,8|0
464,312,50802,2,0,B|448:360|392:376,1,86
296,336,51164,1,8
224,248,51345,1,0
224,248,51435,1,0
224,248,51525,1,8
128,296,51706,1,0
40,144,51887,6,0,B|72:192|128:184,1,86,8|0
216,72,52248,2,0,B|328:72,1,86,2|0
472,144,52610,2,0,B|440:192|384:184,1,86,8|0
176,272,52971,2,0,B|160:312|160:312|176:352,1,86,2|0
336,272,53332,2,0,B|352:312|352:312|336:352,1,86,8|0
256,248,53694,6,0,B|256:144,1,86,2|0
160,80,54056,1,8
256,24,54236,1,0
352,80,54417,1,0
352,80,54598,1,0
448,168,54778,6,0,B|400:256,1,86,8|0
280,280,55140,2,0,B|232:200,1,86,8|0
128,280,55501,2,0,B|32:296,1,86,8|0
72,168,55863,1,0
168,112,56044,1,0
40,136,56224,5,8
200,144,56405,1,0
152,248,56585,6,0,B|160:304|216:336,1,86,2|0
352,344,56947,2,0,B|344:288|288:256,1,86,8|0
320,144,57308,2,0,B|368:128|416:160,1,86,2|0
488,56,57670,1,8
360,32,57851,6,0,B|256:8|200:88,1,172
80,96,58393,1,8
80,96,58573,2,0,B|176:144|144:272,1,172
64,336,59116,1,8
152,240,59296,1,0
272,280,59477,1,0
272,280,59567,1,0
272,280,59658,1,0
376,352,59838,2,0,B|464:304,1,86,8|0
488,184,60200,6,0,B|400:152,1,86
280,160,60561,1,8
208,264,60742,1,0
80,296,60923,1,0
80,296,61104,1,0
80,168,61284,2,0,B|32:72,1,86,8|0
168,104,61646,2,0,B|216:0,1,86
288,128,62007,2,0,B|392:96,1,86,8|0
480,168,62369,5,0
480,168,62459,1,0
480,168,62549,1,0
416,280,62730,1,8
416,280,62820,1,0
416,280,62911,1,0
416,280,63001,1,0
416,280,63091,2,0,B|392:328|336:344,1,86
240,272,63453,1,8
120,328,63634,6,0,B|128:240|16:192,1,172,0|0
104,88,64176,1,8
216,160,64357,2,0,B|304:200|384:128,1,172,0|0
448,32,64899,1,8
320,32,65079,2,0,B|216:0|144:88,1,172,0|0
88,176,65622,5,8
88,176,65802,1,0
216,208,65983,2,0,B|224:256|192:288,1,86
64,296,66345,1,8
64,296,66525,2,0,B|160:272|208:368,1,172
320,312,67067,1,8
464,216,67248,6,0,B|408:144|304:168,1,172
200,240,67790,1,8
56,152,67971,6,0,B|112:72|224:96,1,172
320,32,68513,2,0,B|424:48|448:144,1,172,8|0
424,264,69055,1,0
424,264,69236,1,8
312,328,69417,6,0,B|240:280|224:376|128:320,1,172
72,224,69959,1,8
144,120,70140,2,0,B|208:192,1,86
320,232,70501,1,0
368,112,70682,1,8
488,56,70863,2,0,B|392:88|320:16,1,172
200,24,71405,1,8
72,56,71585,2,0,B|64:112|120:144,1,86
32,240,71947,5,0
32,240,72037,1,0
32,240,72128,1,8
32,240,72218,1,0
32,240,72308,2,0,B|128:192|200:304,1,172
288,200,72851,1,8
312,72,73031,6,0,B|416:48|472:152,1,172
464,264,73573,1,8
464,264,73754,2,0,B|408:288|400:344,1,86
288,272,74116,2,0,B|232:296|184:256,1,86,0|8
80,304,74477,5,0
80,304,74567,1,0
80,304,74658,2,0,B|112:208,1,86,2|0
256,88,75020,2,0,B|256:200,1,86,8|0
432,304,75381,2,0,B|400:208,1,86,2|0
376,96,75743,1,8
256,48,75923,1,0
168,144,76104,5,0
168,144,76194,1,0
168,144,76285,1,0
56,88,76466,1,8
168,144,76646,1,0
72,224,76826,2,0,B|80:272|32:312,1,86,2|0
176,312,77188,2,0,B|232:304|256:352,1,86,8|0
376,320,77550,1,2
464,224,77731,5,0
456,216,77821,1,0
448,208,77911,1,8
336,136,78092,1,0
224,80,78272,2,0,B|192:160,1,86,0|0
72,112,78634,2,0,B|32:152|48:216,1,86,8|0
72,320,78995,2,0,B|128:304|160:360,1,86,0|0
280,320,79357,1,8
472,232,79537,6,0,B|376:256|312:168,1,172
304,160,79989,1,0
288,144,80079,2,0,B|184:144,1,86,8|0
96,72,80441,1,0
16,168,80622,1,0
64,288,80802,1,8
192,320,80983,2,0,B|251:236|374:286,2,172
328,104,82067,5,0
256,48,82248,1,8
184,104,82429,1,0
256,312,82790,1,0
256,192,83694,5,0
256,192,84055,12,0,87670
